osu file format v14

[General]
AudioFilename: audio.mp3
AudioLeadIn: 2000
PreviewTime: 57206
Countdown: 0
SampleSet: Soft
StackLeniency: 0.4
Mode: 0
LetterboxInBreaks: 0
WidescreenStoryboard: 1

[Editor]
Bookmarks: 21048,44838
DistanceSpacing: 0.5
BeatDivisor: 4
GridSize: 32
TimelineZoom: 1.6

[Metadata]
Title:Yukitoki (TV Size)
TitleUnicode:ユキトキ (TV Size)
Artist:yanaginagi
ArtistUnicode:やなぎなぎ
Creator:m3gB3g
Version:Seni's Expert
Source:やはり俺の青春ラブコメはまちがっている。
Tags:Akitoshi Corinn -Laura- Taeyang Asuka_- Seni Daoski opening My Youth Romantic Comedy Is Wrong As I Expected OreGairu Brains Base japanese anime Yahari Ore no Seishun Love Come wa Machigatteiru Katsutoshi Kitagawa はまち 俺ガイル
BeatmapID:2002042
BeatmapSetID:757028

[Difficulty]
HPDrainRate:6
CircleSize:3.8
OverallDifficulty:9.2
ApproachRate:9.2
SliderMultiplier:1.76
SliderTickRate:1

[Events]
//Background and Video events
0,0,"yukitoki seni2.jpg",0,0
Video,0,"video.avi"
//Break Periods
//Storyboard Layer 0 (Background)
//Storyboard Layer 1 (Fail)
//Storyboard Layer 2 (Pass)
//Storyboard Layer 3 (Foreground)
//Storyboard Layer 4 (Overlay)
//Storyboard Sound Samples

[TimingPoints]
1500,363.636363636364,4,2,2,30,1,0
1500,-133.333333333333,4,2,2,30,0,0
7318,-181.818181818181,4,2,2,30,0,0
8409,-133.333333333333,4,2,2,30,0,0
8772,-100,4,2,1,60,0,0
14590,-76.9230769230769,4,2,1,60,0,0
14954,-100,4,2,2,60,0,0
17500,-76.9230769230769,4,2,2,60,0,0
17863,-100,4,2,1,30,0,0
21163,363.636363636364,4,2,2,30,1,0
21163,-200,4,2,2,30,0,0
32435,-100,4,2,1,30,0,0
32782,363.636363636364,4,2,1,60,1,0
42963,361.44578313253,4,2,1,60,1,0
44408,363.636363636364,4,2,1,60,1,0
44408,-200,4,2,1,60,0,0
50232,363.636363636364,4,2,1,60,1,0
50232,-200,4,2,1,60,0,0
53141,-100,4,2,1,60,0,0
53232,-100,4,2,2,60,0,0
54595,-100,4,2,1,60,0,0
56050,387.096774193548,4,2,1,60,1,0
56630,329.67032967033,4,2,1,60,1,0
57499,363.636363636364,4,2,1,80,1,1
57499,-76.9230769230769,4,2,1,80,0,1
78225,-100,4,2,2,80,0,1
79135,-100,4,2,1,80,0,1
80771,-100,4,2,1,60,0,0
86408,-200,4,2,1,60,0,0
88953,-100,4,2,2,5,0,0

[Colours]
Combo1 : 255,179,255
Combo2 : 255,159,207

[HitObjects]
328,236,1500,6,0,L|317:301,1,66.0000025177003,4|0,0:0|0:0,0:0:0:0:
431,187,1863,2,0,L|441:252,1,66.0000025177003,2|0,0:0|0:0,0:0:0:0:
488,91,2227,1,2,0:0:0:0:
488,91,2590,5,0,0:0:0:0:
391,28,2772,2,0,L|323:35,1,66.0000025177003,2|0,0:0|0:0,0:0:0:0:
274,151,3136,2,0,L|208:144,1,66.0000025177003,2|0,0:0|0:0,0:0:0:0:
110,9,3500,6,0,B|145:57|123:112|102:101|89:151|131:219,1,198.000007553101,2|2,0:0|0:0,0:0:0:0:
119,198,4409,6,0,L|184:209,1,66.0000025177003,4|0,0:0|0:0,0:0:0:0:
244,329,4772,1,2,0:0:0:0:
276,228,4954,1,0,0:0:0:0:
400,298,5136,2,0,L|335:310,1,66.0000025177003,2|0,0:0|0:0,0:0:0:0:
276,228,5500,1,0,0:0:0:0:
322,131,5681,6,0,P|362:122|407:131,1,66.0000025177003,2|0,0:0|0:0,0:0:0:0:
429,30,6045,2,0,P|463:51|489:90,1,66.0000025177003,2|0,0:0|0:0,0:0:0:0:
512,239,6409,2,0,P|472:227|376:328,1,198.000007553101,2|2,0:0|0:0,0:0:0:0:
20,222,7318,6,0,B|57:262|115:257|115:257|181:224|252:249,1,242.000007385254,4|0,0:0|0:0,0:0:0:0:
451,333,8409,2,0,L|435:248,1,66.0000025177003,2|0,0:0|0:0,0:0:0:0:
405,52,8772,5,12,0:0:0:0:
334,281,8954,1,0,1:0:0:0:
247,23,9136,1,2,1:2:0:0:
67,310,9318,5,12,0:0:0:0:
136,57,9500,1,0,1:0:0:0:
243,351,9681,1,2,1:2:0:0:
388,61,9863,2,0,B|324:24|248:56|273:66|202:102|135:56,1,264,8|8,0:0|0:0,0:0:0:0:
95,54,10500,1,0,0:0:0:0:
95,54,10590,6,0,P|75:97|71:145,1,88,8|0,0:0|0:0,0:0:0:0:
352,241,10954,2,0,P|347:193|327:150,1,88,8|0,0:0|0:0,0:0:0:0:
100,317,11318,1,8,0:0:0:0:
100,317,11409,1,0,1:0:0:0:
100,317,11500,1,0,0:0:0:0:
159,80,11681,5,12,0:0:0:0:
251,350,11863,1,0,1:0:0:0:
352,64,12045,1,2,1:2:0:0:
150,328,12227,5,12,0:0:0:0:
251,42,12409,1,0,1:0:0:0:
343,312,12591,1,2,1:2:0:0:
151,62,12772,5,8,0:0:0:0:
257,369,12954,1,0,1:0:0:0:
439,74,13136,6,0,L|330:61,1,88,8|0,0:0|0:0,0:0:0:0:
351,63,13409,1,8,0:0:0:0:
351,63,13500,1,8,3:0:0:0:
199,119,13681,1,8,0:0:0:0:
199,119,13772,1,8,0:0:0:0:
199,119,13863,2,0,L|206:180,3,44,8|0|8|8,3:0|0:0|0:0|0:0,0:0:0:0:
204,198,14227,2,0,L|188:311,1,88,8|0,0:0|0:0,0:0:0:0:
498,229,14590,6,0,L|347:209,1,114.399994763184,4|0,0:0|0:0,0:0:0:0:
145,98,14954,5,0,1:0:0:0:
191,336,15136,1,0,1:0:0:0:
392,73,15318,5,2,1:2:0:0:
347,322,15500,1,0,1:0:0:0:
223,56,15681,1,0,1:0:0:0:
159,338,15863,1,2,1:2:0:0:
16,42,16045,5,0,1:0:0:0:
116,345,16227,1,0,1:0:0:0:
190,39,16409,1,0,1:0:0:0:
290,348,16590,1,2,1:2:0:0:
352,39,16772,5,0,1:0:0:0:
120,374,16954,1,0,1:0:0:0:
101,21,17136,1,2,1:2:0:0:
375,374,17318,1,0,1:0:0:0:
465,53,17500,6,0,L|339:37,1,114.399994763184,4|0,1:1|0:0,0:0:0:0:
333,75,17772,1,0,1:2:0:0:
333,75,17863,2,0,L|342:150,3,44,8|0|0|0,1:2|1:2|1:2|1:2,1:2:0:0:
211,54,18227,2,0,L|217:11,3,44,8|0|0|0,1:2|1:2|1:2|1:2,1:2:0:0:
102,105,18590,2,0,L|108:148,3,44,8|0|0|0,1:2|1:2|1:2|1:2,1:2:0:0:
226,231,18954,5,8,1:2:0:0:
226,231,19045,1,0,1:2:0:0:
226,231,19136,1,0,1:2:0:0:
226,231,19227,1,0,1:2:0:0:
226,231,19318,2,0,L|220:274,3,44,8|0|0|0,1:2|1:2|1:2|1:2,1:2:0:0:
346,169,19681,5,8,1:2:0:0:
346,169,19772,1,0,1:0:0:0:
346,169,19863,1,0,1:0:0:0:
346,169,19954,1,0,1:0:0:0:
346,169,20045,6,0,B|404:140|404:140|543:169,1,176,8|0,0:0|0:0,0:0:0:0:
512,162,21163,6,0,L|424:173,1,88,4|0,0:0|0:0,0:0:0:0:
322,33,21708,1,0,0:0:0:0:
322,33,21890,2,0,P|367:66|455:44,1,132,0|0,0:0|0:0,0:0:0:0:
304,171,22617,6,0,P|259:138|171:160,1,132,2|0,0:0|0:0,0:0:0:0:
218,317,23344,2,0,L|233:222,1,88,0|0,0:0|0:0,0:0:0:0:
231,230,24072,6,0,L|217:143,1,88,2|0,0:0|0:0,0:0:0:0:
147,82,24617,1,0,0:0:0:0:
147,82,24799,2,0,P|187:55|277:76,1,132,0|0,0:0|0:0,0:0:0:0:
414,166,25526,2,0,P|365:174|323:161,1,88,2|0,0:0|0:0,0:0:0:0:
434,59,26072,1,0,0:0:0:0:
434,59,26253,2,0,P|479:76|509:107,1,88,0|0,0:0|0:0,0:0:0:0:
506,103,26981,6,0,L|501:202,1,88,2|0,0:0|0:0,0:0:0:0:
395,296,27526,1,0,0:0:0:0:
395,296,27708,2,0,L|390:208,1,88,0|0,0:0|0:0,0:0:0:0:
390,208,28435,6,0,P|340:193|265:228,1,132,2|0,0:0|0:0,0:0:0:0:
113,282,29163,2,0,P|153:304|201:305,1,88,0|0,0:0|0:0,0:0:0:0:
194,306,29890,6,0,P|199:223|211:161,1,132,2|0,0:0|0:0,0:0:0:0:
57,61,30617,2,0,P|67:126|70:191,1,132,0|0,0:0|0:0,0:0:0:0:
55,318,31344,5,2,0:0:0:0:
55,318,32072,1,2,0:0:0:0:
207,226,32435,2,0,P|166:204|139:159,1,88,8|2,0:0|0:0,0:0:0:0:
3,140,32782,6,0,P|72:155|162:104,1,176,4|8,0:0|0:0,0:0:0:0:
242,1,33327,1,2,0:0:0:0:
312,121,33509,2,0,L|302:218,1,88,0|0,1:0|1:0,0:0:0:0:
428,68,33872,1,8,0:0:0:0:
498,196,34054,1,2,0:0:0:0:
318,15,34236,6,0,P|248:36|208:124,1,176,0|8,1:0|0:0,0:0:0:0:
279,266,34782,1,2,0:0:0:0:
399,130,34963,2,0,L|294:118,1,88,0|0,1:0|1:0,0:0:0:0:
114,235,35327,2,0,L|218:223,1,88,8|2,0:0|0:0,0:0:0:0:
430,363,35691,6,0,L|255:343,1,176,0|8,1:0|0:0,0:0:0:0:
107,325,36236,1,2,0:0:0:0:
198,204,36418,1,0,1:0:0:0:
176,378,36600,1,0,1:0:0:0:
38,272,36782,1,8,0:0:0:0:
187,291,36963,1,2,0:0:0:0:
49,185,37145,6,0,L|39:8,1,176,0|8,1:0|0:0,0:0:0:0:
198,62,37691,1,2,0:0:0:0:
192,203,37872,2,0,L|187:290,1,88,0|0,1:0|1:0,0:0:0:0:
349,209,38236,2,0,L|344:121,1,88,8|2,0:0|0:0,0:0:0:0:
462,358,38600,6,0,B|473:283|473:283|491:266|491:266|507:153,1,176,0|8,1:0|0:0,0:0:0:0:
403,62,39145,1,2,0:0:0:0:
277,197,39327,2,0,L|364:207,1,88,0|0,1:0|1:0,0:0:0:0:
254,78,39691,1,8,0:0:0:0:
183,268,39872,1,0,0:0:0:0:
79,98,40054,6,0,L|253:77,1,176,0|8,1:0|0:0,0:0:0:0:
404,160,40600,1,2,0:0:0:0:
315,250,40782,2,0,P|284:202|278:145,1,88,0|0,1:0|1:0,0:0:0:0:
317,379,41145,2,0,P|261:366|216:330,1,88,8|2,0:0|0:0,0:0:0:0:
13,254,41509,6,0,P|73:282|178:234,1,176,0|8,1:0|0:0,0:0:0:0:
252,112,42054,1,2,0:0:0:0:
354,298,42236,1,0,1:0:0:0:
364,81,42418,1,0,1:0:0:0:
261,273,42600,1,8,0:0:0:0:
162,53,42782,5,2,0:0:0:0:
162,53,42872,1,0,0:0:0:0:
162,53,42963,1,0,1:0:0:0:
184,330,43143,1,8,0:0:0:0:
328,92,43324,1,2,0:0:0:0:
71,199,43505,1,0,1:0:0:0:
342,262,43685,2,0,L|439:250,1,88,8|2,0:0|0:0,0:0:0:0:
232,105,44047,1,8,0:0:0:0:
184,330,44228,1,0,1:0:0:0:
120,39,44408,6,0,L|23:51,1,88,4|2,0:0|1:2,0:0:0:0:
32,49,45135,2,0,P|17:87|15:108,1,44,8|0,0:0|0:0,0:0:0:0:
146,136,45498,1,2,0:0:0:0:
146,136,45680,2,0,P|120:104|103:91,1,44,0|0,1:0|0:0,0:0:0:0:
13,191,46044,2,0,P|53:184|72:176,1,44,0|0,1:0|0:0,0:0:0:0:
146,136,46408,2,0,P|167:138|189:144,1,44,0|8,1:0|0:0,0:0:0:0:
227,166,46680,1,0,0:0:0:0:
229,174,46771,1,2,0:0:0:0:
231,182,46862,1,0,0:0:0:0:
233,190,46953,2,0,L|235:231,3,22,0|0|2|0,0:0|0:0|0:0|0:0,0:0:0:0:
337,224,47317,6,0,P|384:212|431:224,1,88,0|0,1:0|1:0,0:0:0:0:
494,297,47862,1,2,0:0:0:0:
494,297,48044,2,0,L|491:343,1,44,8|0,0:0|0:0,0:0:0:0:
387,315,48407,1,2,0:0:0:0:
387,315,48589,2,0,L|390:361,1,44,0|0,1:0|0:0,0:0:0:0:
285,283,48953,5,0,1:0:0:0:
285,283,49135,2,0,L|183:275,1,88,0|8,1:0|0:0,0:0:0:0:
141,182,49680,1,0,1:0:0:0:
141,182,49862,2,0,L|193:177,1,44,0|2,1:0|0:0,0:0:0:0:
228,173,50135,1,0,0:0:0:0:
228,173,50232,6,0,P|239:130|229:83,1,88,4|0,0:0|1:0,0:0:0:0:
231,87,50959,2,0,L|291:79,1,44,8|2,0:0|0:0,0:0:0:0:
372,185,51322,1,0,0:0:0:0:
372,185,51504,2,0,L|312:177,1,44,0|0,1:0|0:0,0:0:0:0:
238,282,51868,2,0,L|298:274,1,44,0|0,1:0|0:0,0:0:0:0:
181,194,52232,2,0,L|121:186,1,44,0|8,1:0|0:0,0:0:0:0:
34,319,52595,2,0,P|48:279|36:227,1,88,2|0,0:0|1:0,0:0:0:0:
40,234,53141,6,0,L|143:223,1,88,4|0,0:0|0:0,0:0:0:0:
241,113,53504,1,0,1:0:0:0:
334,309,53686,1,0,1:0:0:0:
355,85,53868,1,2,1:2:0:0:
219,324,54050,1,0,1:0:0:0:
217,71,54232,5,0,1:0:0:0:
355,349,54413,1,2,1:2:0:0:
297,8,54595,5,8,0:0:0:0:
219,324,54777,1,0,1:0:0:0:
451,71,54959,1,0,1:0:0:0:
89,209,55141,1,12,0:0:0:0:
256,192,55232,12,0,57124,1:0:0:0:
66,102,57499,6,0,L|182:92,1,114.399994763184,4|2,1:2|0:0,0:0:0:0:
257,261,57862,1,8,0:0:0:0:
321,16,58044,1,2,0:0:0:0:
512,175,58226,2,0,L|396:185,1,114.399994763184,0|0,1:0|1:0,0:0:0:0:
223,25,58589,1,8,0:0:0:0:
90,221,58771,6,0,P|105:279|146:325,1,114.399994763184,0|0,1:0|0:0,0:0:0:0:
275,124,59135,2,0,P|217:107|156:120,1,114.399994763184,0|8,1:0|0:0,0:0:0:0:
267,332,59499,2,0,P|310:290|329:230,1,114.399994763184,2|0,0:0|1:0,0:0:0:0:
212,221,59862,1,0,1:0:0:0:
427,165,60044,2,0,P|450:217|448:274,1,114.399994763184,8|2,0:0|0:0,0:0:0:0:
173,349,60408,5,0,1:0:0:0:
264,83,60589,1,2,0:0:0:0:
346,351,60771,1,8,0:0:0:0:
122,182,60953,1,2,0:0:0:0:
402,187,61135,5,0,1:0:0:0:
122,182,61317,1,0,1:0:0:0:
346,351,61499,1,8,0:0:0:0:
264,83,61680,6,0,L|140:70,1,114.399994763184,0|0,1:0|0:0,0:0:0:0:
368,229,62044,2,0,L|492:216,1,114.399994763184,0|8,1:0|0:0,0:0:0:0:
241,343,62408,2,0,L|117:330,1,114.399994763184,2|0,0:0|1:0,0:0:0:0:
11,98,62771,1,0,1:0:0:0:
127,331,62953,1,8,0:0:0:0:
243,120,63135,1,2,0:0:0:0:
139,177,63317,6,0,P|206:232|342:184,1,228.799989526368,4|8,1:2|0:0,0:0:0:0:
11,98,63862,2,0,P|9:162|23:220,1,114.399994763184,2|0,0:0|1:0,0:0:0:0:
243,120,64226,2,0,P|254:64|251:7,1,114.399994763184,0|8,1:0|0:0,0:0:0:0:
11,98,64589,1,0,1:0:0:0:
222,300,64771,6,0,L|356:288,2,114.399994763184,2|0|8,0:0|1:0|0:0,0:0:0:0:
459,217,65317,2,0,P|480:285|474:346,1,114.399994763184,2|0,0:0|1:0,0:0:0:0:
305,120,65680,2,0,P|305:63|324:9,1,114.399994763184,0|8,1:0|0:0,0:0:0:0:
460,93,66044,1,2,0:0:0:0:
335,289,66226,6,0,L|222:300,1,114.399994763184,0|2,1:0|0:0,0:0:0:0:
152,91,66589,1,8,0:0:0:0:
99,339,66771,1,2,0:0:0:0:
247,176,66953,1,0,1:0:0:0:
5,255,67135,1,0,1:0:0:0:
221,300,67317,1,8,0:0:0:0:
31,132,67499,1,4,1:2:0:0:
99,339,67680,5,0,0:0:0:0:
198,54,67862,1,8,0:0:0:0:
300,361,68044,1,8,0:0:0:0:
427,35,68226,1,0,1:0:0:0:
468,368,68408,5,8,0:0:0:0:
308,5,68589,1,0,0:0:0:0:
114,353,68771,5,8,1:2:0:0:
114,353,68862,1,0,3:0:0:0:
114,353,68953,1,0,3:0:0:0:
114,353,69044,1,0,3:0:0:0:
114,353,69135,2,0,L|103:225,1,114.399994763184,4|2,1:2|0:0,0:0:0:0:
148,6,69499,1,8,0:0:0:0:
1,165,69680,1,2,0:0:0:0:
211,106,69862,2,0,L|339:117,1,114.399994763184,0|0,1:0|1:0,0:0:0:0:
450,280,70226,1,8,0:0:0:0:
276,353,70408,6,0,P|258:299|269:217,1,114.399994763184,0|0,1:0|0:0,0:0:0:0:
493,177,70771,2,0,P|481:232|431:298,1,114.399994763184,0|8,1:0|0:0,0:0:0:0:
308,75,71135,2,0,P|345:32|422:0,1,114.399994763184,2|0,0:0|1:0,0:0:0:0:
260,242,71499,1,0,1:0:0:0:
146,61,71680,2,0,L|9:49,1,114.399994763184,8|2,0:0|0:0,0:0:0:0:
129,316,72044,5,0,1:0:0:0:
269,38,72226,1,2,0:0:0:0:
252,345,72408,1,8,0:0:0:0:
146,61,72589,1,2,0:0:0:0:
129,316,72771,5,0,1:0:0:0:
269,38,72953,1,0,1:0:0:0:
377,322,73135,1,8,0:0:0:0:
509,63,73317,6,0,L|372:51,1,114.399994763184,0|0,1:0|0:0,0:0:0:0:
259,208,73680,2,0,L|396:196,1,114.399994763184,0|8,1:0|0:0,0:0:0:0:
503,357,74044,2,0,L|366:345,1,114.399994763184,2|0,0:0|1:0,0:0:0:0:
328,105,74408,1,0,1:0:0:0:
266,308,74589,1,8,0:0:0:0:
163,119,74771,1,2,0:0:0:0:
105,211,74953,6,0,B|166:242|227:217|208:207|273:185|334:220,1,228.799989526368,4|8,1:2|0:0,0:0:0:0:
163,119,75499,2,0,P|97:100|30:97,1,114.399994763184,2|0,0:0|1:0,0:0:0:0:
321,110,75862,2,0,P|287:49|242:0,1,114.399994763184,0|8,1:0|0:0,0:0:0:0:
252,222,76226,1,0,1:0:0:0:
469,168,76408,6,0,L|480:54,2,114.399994763184,2|0|8,0:0|1:0|0:0,0:0:0:0:
235,264,76953,2,0,L|223:150,1,114.399994763184,2|0,0:0|1:0,0:0:0:0:
411,363,77317,2,0,L|422:249,1,114.399994763184,0|8,1:0|0:0,0:0:0:0:
344,86,77680,1,2,0:0:0:0:
268,270,77862,5,12,0:0:0:0:
214,59,78044,1,2,0:0:0:0:
118,265,78226,1,0,1:0:0:0:
28,39,78408,1,0,1:0:0:0:
8,302,78589,5,0,1:0:0:0:
133,14,78771,1,0,1:0:0:0:
208,342,78953,1,0,1:0:0:0:
398,67,79135,1,4,0:0:0:0:
398,67,79499,5,8,0:0:0:0:
328,235,79680,1,0,3:0:0:0:
228,91,79862,1,0,0:0:0:0:
139,266,80044,2,0,L|237:285,1,88,8|2,0:0|0:0,0:0:0:0:
422,166,80408,2,0,L|526:189,1,88,8|2,3:0|0:0,0:0:0:0:
388,348,80771,5,12,0:0:0:0:
296,91,80953,1,0,1:0:0:0:
215,335,81135,1,2,1:2:0:0:
26,100,81317,5,12,0:0:0:0:
118,357,81499,1,0,1:0:0:0:
199,113,81681,1,2,1:2:0:0:
301,377,81862,5,8,0:0:0:0:
428,96,82044,2,0,L|314:82,1,88,0|0,1:0|1:0,0:0:0:0:
232,257,82408,1,8,0:0:0:0:
90,111,82589,2,0,L|104:-3,1,88,8|0,0:0|1:0,0:0:0:0:
232,257,82953,2,0,L|242:344,1,88,8|2,0:0|0:0,0:0:0:0:
391,143,83317,1,4,3:0:0:0:
391,143,83408,1,0,1:0:0:0:
391,143,83499,1,2,0:0:0:0:
468,331,83680,5,12,0:0:0:0:
369,44,83862,1,0,1:0:0:0:
244,313,84044,1,2,1:2:0:0:
482,81,84226,5,12,0:0:0:0:
357,350,84408,1,0,1:0:0:0:
258,63,84590,1,2,1:2:0:0:
468,331,84771,5,8,0:0:0:0:
369,44,84953,1,0,1:0:0:0:
244,313,85135,2,0,L|131:324,1,88,8|0,0:0|0:0,0:0:0:0:
28,111,85499,2,0,L|141:122,1,88,8|8,0:0|0:0,0:0:0:0:
369,44,85862,5,8,3:0:0:0:
244,313,86044,1,8,0:0:0:0:
244,313,86135,1,8,0:0:0:0:
244,313,86226,1,8,0:0:0:0:
151,25,86408,1,4,0:0:0:0:
256,192,86499,12,4,88953,0:0:0:0:
