osu file format v14

[General]
AudioFilename: audio.mp3
AudioLeadIn: 2000
PreviewTime: 57206
Countdown: 0
SampleSet: Soft
StackLeniency: 0.4
Mode: 0
LetterboxInBreaks: 0
WidescreenStoryboard: 1

[Editor]
DistanceSpacing: 0.8
BeatDivisor: 4
GridSize: 32
TimelineZoom: 1.3

[Metadata]
Title:Yukitoki (TV Size)
TitleUnicode:ユキトキ (TV Size)
Artist:yanaginagi
ArtistUnicode:やなぎなぎ
Creator:m3gB3g
Version:Extra
Source:やはり俺の青春ラブコメはまちがっている。
Tags:Akitoshi Corinn -Laura- Taeyang Asuka_- Seni Daoski opening My Youth Romantic Comedy Is Wrong As I Expected OreGairu Brains Base japanese anime Yahari Ore no Seishun Love Come wa Machigatteiru Katsutoshi Kitagawa はまち 俺ガイル
BeatmapID:1597736
BeatmapSetID:757028

[Difficulty]
HPDrainRate:6
CircleSize:3.6
OverallDifficulty:9.2
ApproachRate:9.2
SliderMultiplier:1.76
SliderTickRate:1

[Events]
//Background and Video events
Video,0,"video.avi"
0,0,"yukitoki main.jpg",0,0
//Break Periods
//Storyboard Layer 0 (Background)
//Storyboard Layer 1 (Fail)
//Storyboard Layer 2 (Pass)
//Storyboard Layer 3 (Foreground)
//Storyboard Layer 4 (Overlay)
//Storyboard Sound Samples

[TimingPoints]
1500,363.636363636364,4,2,2,30,1,0
1500,-133.333333333333,4,2,2,30,0,0
8772,-100,4,2,1,60,0,0
21163,363.636363636364,4,2,2,30,1,0
21163,-1000,4,2,2,30,0,0
31344,-500,4,2,2,30,0,0
32072,-200,4,2,2,30,0,0
32435,-100,4,2,1,30,0,0
32782,363.636363636364,4,2,1,60,1,0
42963,361.44578313253,4,2,1,60,1,0
44408,363.636363636364,4,2,1,60,1,0
44408,-200,4,2,1,60,0,0
50232,363.636363636364,4,2,1,60,1,0
50232,-200,4,2,1,60,0,0
53141,-100,4,2,1,60,0,0
53232,-100,4,2,2,60,0,0
54595,-100,4,2,1,60,0,0
56050,387.096774193548,4,2,1,60,1,0
56630,329.67032967033,4,2,1,60,1,0
57499,363.636363636364,4,2,1,80,1,1
78225,-100,4,2,2,80,0,1
79135,-100,4,2,1,80,0,1
80771,-100,4,2,1,60,0,0
86408,-200,4,2,1,60,0,0
86499,-100,4,2,2,5,0,0

[Colours]
Combo1 : 255,188,155
Combo2 : 174,194,249
Combo3 : 202,202,202
Combo4 : 243,243,243

[HitObjects]
113,175,1500,5,4,0:0:0:0:
113,175,1863,2,0,P|88:199|74:245,2,66.0000025177003,2|0|2,0:0|0:0|0:0,0:0:0:0:
192,269,2590,2,0,P|224:274|256:264,1,66.0000025177003,0|2,0:0|0:0,0:0:0:0:
244,127,2954,2,0,P|223:152|216:184,1,66.0000025177003,0|2,0:0|0:0,0:0:0:0:
339,244,3318,2,0,P|325:215|302:192,1,66.0000025177003,0|2,0:0|0:0,0:0:0:0:
192,269,3681,2,0,P|224:274|256:264,1,66.0000025177003
244,127,4045,2,0,P|223:152|216:184,1,66.0000025177003,2|0,0:0|0:0,0:0:0:0:
399,175,4409,5,4,0:0:0:0:
399,175,4772,2,0,P|424:199|438:245,2,66.0000025177003,2|0|2,0:0|0:0|0:0,0:0:0:0:
319,270,5500,2,0,P|287:260|255:264,1,66.0000025177003,0|2,0:0|0:0,0:0:0:0:
267,127,5863,2,0,P|275:158|295:184,1,66.0000025177003,0|2,0:0|0:0,0:0:0:0:
172,245,6227,2,0,P|195:222|209:192,1,66.0000025177003,0|2,0:0|0:0,0:0:0:0:
319,270,6590,2,0,P|287:260|255:264,1,66.0000025177003
267,127,6954,2,0,P|275:158|295:184,1,66.0000025177003,2|0,0:0|0:0,0:0:0:0:
172,245,7318,5,4,0:0:0:0:
154,366,8772,5,12,0:0:0:0:
282,255,8954,1,0,1:0:0:0:
161,347,9136,1,2,1:2:0:0:
291,236,9318,2,0,P|299:192|291:148,1,88,12|0,0:0|1:0,0:0:0:0:
170,329,9681,1,2,1:2:0:0:
335,180,9863,2,0,P|313:132|190:72,1,176,8|0,0:0|0:0,0:0:0:0:
77,195,10409,5,8,0:0:0:0:
93,17,10590,1,8,0:0:0:0:
0,122,10772,1,0,0:0:0:0:
168,142,10954,2,0,P|211:149|255:140,1,88,8|0,0:0|0:0,0:0:0:0:
397,116,11318,1,8,0:0:0:0:
397,116,11409,1,0,1:0:0:0:
397,116,11500,1,0,0:0:0:0:
247,55,11681,6,0,P|242:99|254:142,1,88,12|0,0:0|1:0,0:0:0:0:
379,235,12045,1,2,1:2:0:0:
158,201,12227,2,0,P|186:234|225:257,1,88,12|0,0:0|1:0,0:0:0:0:
321,182,12591,1,2,1:2:0:0:
249,374,12772,1,8,0:0:0:0:
88,246,12954,1,0,1:0:0:0:
336,299,13136,6,0,P|376:298|426:269,1,88,8|0,0:0|0:0,0:0:0:0:
510,252,13409,1,8,0:0:0:0:
510,252,13500,2,0,P|486:213|436:181,1,88,8|8,3:0|0:0,0:0:0:0:
382,117,13772,1,8,0:0:0:0:
382,117,13863,2,0,P|356:152|355:211,1,88,8|8,3:0|0:0,0:0:0:0:
418,276,14136,1,8,0:0:0:0:
418,276,14227,1,8,0:0:0:0:
212,378,14590,6,0,P|245:350|267:311,1,88,4|0,0:0|0:0,0:0:0:0:
136,93,14954,1,0,1:0:0:0:
158,267,15136,1,0,1:0:0:0:
243,59,15318,5,2,1:2:0:0:
229,235,15500,1,0,1:0:0:0:
400,67,15681,1,0,1:0:0:0:
196,157,15863,1,2,1:2:0:0:
466,141,16045,5,0,1:0:0:0:
105,171,16227,1,0,1:0:0:0:
338,198,16409,1,0,1:0:0:0:
18,78,16590,1,2,1:2:0:0:
337,184,16772,5,0,1:0:0:0:
14,297,16954,1,0,1:0:0:0:
210,19,17136,1,2,1:2:0:0:
206,352,17318,1,0,1:0:0:0:
9,87,17500,6,0,B|44:60|88:49,1,88,4|0,1:1|0:0,0:0:0:0:
382,103,17863,1,8,1:2:0:0:
399,144,17954,1,0,0:0:0:0:
404,190,18045,1,0,0:0:0:0:
396,236,18136,1,0,0:0:0:0:
376,276,18227,1,8,1:2:0:0:
343,309,18318,1,0,0:0:0:0:
304,332,18409,1,0,0:0:0:0:
259,343,18500,1,0,0:0:0:0:
213,342,18591,1,8,1:2:0:0:
170,328,18682,1,0,0:0:0:0:
132,302,18773,1,0,0:0:0:0:
104,265,18863,1,0,0:0:0:0:
87,224,18954,1,8,0:0:0:0:
81,178,19045,1,0,0:0:0:0:
90,131,19136,1,0,0:0:0:0:
110,91,19227,1,0,0:0:0:0:
141,57,19318,1,8,0:0:0:0:
181,34,19409,1,0,0:0:0:0:
224,23,19500,1,0,0:0:0:0:
270,23,19591,1,0,0:0:0:0:
315,37,19682,1,8,0:0:0:0:
353,63,19773,1,0,0:0:0:0:
380,98,19863,6,0,L|430:112,1,44,0|0,0:0|0:0,0:0:0:0:
400,196,20045,2,0,L|389:242,3,44,8|0|0|0,0:0|0:0|0:0|0:0,0:0:0:0:
168,40,21163,6,0,P|149:40|134:45,1,35.2,4|0,0:0|0:0,0:0:0:0:
248,111,22617,6,0,P|264:111|283:117,1,35.2,2|0,0:0|0:0,0:0:0:0:
182,172,24072,6,0,P|163:178|146:179,1,35.2,2|0,0:0|0:0,0:0:0:0:
306,242,25526,6,0,P|322:248|339:252,1,35.2,2|0,0:0|0:0,0:0:0:0:
250,358,26981,6,0,L|195:364,1,52.8,2|0,0:0|0:0,0:0:0:0:
217,270,28435,6,0,L|239:219,1,52.8,2|0,0:0|0:0,0:0:0:0:
309,286,29890,6,0,L|341:330,1,52.8,2|0,0:0|0:0,0:0:0:0:
480,115,31344,6,0,L|485:63,1,52.8,2|0,0:0|0:0,0:0:0:0:
432,190,32072,2,0,P|418:173|400:161,1,44,2|0,0:0|0:0,0:0:0:0:
361,236,32435,6,0,L|370:294,3,44,8|0|2|0,0:0|0:0|0:0|0:0,0:0:0:0:
361,236,32782,6,0,P|321:217|277:218,1,88,4|0,0:0|0:0,0:0:0:0:
111,330,33146,2,0,P|153:331|219:286,1,88,8|2,0:0|0:0,0:0:0:0:
255,123,33509,1,0,1:0:0:0:
131,218,33691,1,0,1:0:0:0:
255,123,33872,1,8,0:0:0:0:
131,218,34054,1,2,0:0:0:0:
32,84,34236,6,0,P|31:125|76:191,1,88,0|0,1:0|0:0,0:0:0:0:
199,335,34600,2,0,P|225:302|231:222,1,88,8|2,0:0|0:0,0:0:0:0:
255,123,34963,1,0,1:0:0:0:
384,212,35145,1,0,1:0:0:0:
255,123,35327,1,8,0:0:0:0:
384,212,35509,1,2,0:0:0:0:
483,57,35691,6,0,P|446:33|403:29,1,88,0|0,1:0|0:0,0:0:0:0:
183,2,36054,1,8,0:0:0:0:
140,231,36236,1,2,0:0:0:0:
59,60,36418,1,0,1:0:0:0:
263,172,36600,1,0,1:0:0:0:
24,173,36782,2,0,P|18:213|53:285,1,88,8|2,0:0|0:0,0:0:0:0:
207,250,37145,6,0,P|176:223|97:218,1,88,0|0,1:0|0:0,0:0:0:0:
50,364,37509,2,0,P|91:349|135:282,1,88,8|2,0:0|0:0,0:0:0:0:
24,173,37872,1,0,1:0:0:0:
50,364,38054,1,0,1:0:0:0:
215,195,38236,2,0,P|174:193|108:238,1,88,8|2,0:0|0:0,0:0:0:0:
296,268,38600,6,0,P|337:270|403:225,1,88,0|0,1:0|0:0,0:0:0:0:
468,166,38963,2,0,P|487:126|485:82,1,88,8|2,0:0|0:0,0:0:0:0:
296,41,39327,1,0,1:0:0:0:
320,184,39509,1,0,1:0:0:0:
167,79,39691,2,0,P|130:62|52:79,1,88,8|0,0:0|0:0,0:0:0:0:
58,250,40054,6,0,P|95:267|173:250,1,88,0|0,1:0|0:0,0:0:0:0:
251,339,40418,2,0,P|283:308|296:266,1,88,8|2,0:0|0:0,0:0:0:0:
246,134,40782,1,0,1:0:0:0:
141,264,40963,1,0,1:0:0:0:
419,200,41145,2,0,P|397:160|357:138,1,88,8|2,0:0|0:0,0:0:0:0:
141,264,41509,6,0,L|117:368,1,88,0|0,1:0|0:0,0:0:0:0:
246,134,41872,2,0,L|228:48,1,88,8|2,0:0|0:0,0:0:0:0:
67,200,42236,1,0,1:0:0:0:
34,38,42418,1,0,1:0:0:0:
246,250,42600,2,0,P|290:245|325:216,1,88,8|2,0:0|0:0,0:0:0:0:
192,29,42963,5,0,1:0:0:0:
168,199,43143,1,8,0:0:0:0:
60,62,43324,1,2,0:0:0:0:
84,232,43505,1,0,1:0:0:0:
337,32,43685,5,8,0:0:0:0:
428,235,43866,1,2,0:0:0:0:
410,2,44047,1,8,0:0:0:0:
355,265,44228,1,0,1:0:0:0:
192,29,44408,6,0,P|153:50|126:85,1,88,4|2,0:0|1:2,0:0:0:0:
428,235,45135,2,0,L|441:181,1,44,8|0,0:0|0:0,0:0:0:0:
461,93,45498,1,2,0:0:0:0:
343,208,45680,2,0,L|333:251,1,44,0|0,1:0|0:0,0:0:0:0:
269,138,46044,5,0,1:0:0:0:
428,235,46226,2,0,L|441:181,1,44,0|0,0:0|1:0,0:0:0:0:
269,138,46589,2,0,L|257:179,1,44,8|2,0:0|0:0,0:0:0:0:
461,93,46953,2,0,L|515:80,1,44,0|2,0:0|0:0,0:0:0:0:
215,40,47317,6,0,L|172:51,1,44,0|2,1:0|0:0,0:0:0:0:
84,75,47680,1,0,1:0:0:0:
221,204,47862,1,2,0:0:0:0:
297,40,48044,2,0,L|351:53,1,44,8|0,0:0|0:0,0:0:0:0:
428,75,48408,1,2,0:0:0:0:
291,204,48589,1,0,1:0:0:0:
394,262,48771,5,0,0:0:0:0:
312,90,48953,1,0,1:0:0:0:
184,227,49135,2,0,L|161:278,1,44,0|0,1:0|0:0,0:0:0:0:
209,94,49498,1,8,0:0:0:0:
289,160,49680,2,0,L|291:208,1,44,0|0,1:0|1:0,0:0:0:0:
294,309,50044,5,2,0:0:0:0:
294,309,50135,1,0,0:0:0:0:
294,309,50232,2,0,P|262:344|279:304,1,132,4|2,0:0|0:0,0:0:0:0:
173,296,50959,2,0,L|169:351,2,44,8|2|0,0:0|0:0|0:0,0:0:0:0:
88,274,51504,2,0,P|67:256|55:225,1,44,0|0,1:0|0:0,0:0:0:0:
129,128,51868,5,0,1:0:0:0:
246,191,52050,2,0,P|240:218|220:244,1,44,0|0,0:0|1:0,0:0:0:0:
222,112,52413,2,0,L|263:95,1,44,8|2,0:0|0:0,0:0:0:0:
173,296,52777,2,0,L|127:314,1,44,0|0,0:0|1:0,0:0:0:0:
0,147,53141,6,0,P|55:211|138:196,1,176,4|0,0:0|1:0,0:0:0:0:
314,49,53686,1,0,1:0:0:0:
262,338,53868,5,2,1:2:0:0:
158,63,54050,1,0,1:0:0:0:
430,227,54232,5,0,1:0:0:0:
16,169,54413,1,2,1:2:0:0:
473,129,54595,5,8,0:0:0:0:
76,258,54777,1,0,1:0:0:0:
232,0,54958,1,0,1:0:0:0:
345,351,55141,1,12,0:0:0:0:
256,192,55232,12,0,57124,1:0:0:0:
86,147,57499,6,0,P|120:176|166:193,1,88,4|2,1:2|0:0,0:0:0:0:
385,133,57862,2,0,P|343:120|294:121,1,88,8|2,0:0|0:0,0:0:0:0:
175,341,58226,1,0,1:0:0:0:
86,147,58408,1,0,1:0:0:0:
48,359,58589,1,8,0:0:0:0:
202,212,58771,6,0,P|249:214|289:223,1,88,0|0,1:0|0:0,0:0:0:0:
86,147,59135,1,0,1:0:0:0:
299,124,59317,2,0,P|346:142|378:171,1,88,8|2,0:0|0:0,0:0:0:0:
176,342,59680,1,0,1:0:0:0:
221,139,59862,1,0,1:0:0:0:
345,275,60044,2,0,P|360:315|361:360,1,88,8|2,0:0|0:0,0:0:0:0:
176,342,60408,6,0,P|141:313|122:272,1,88,0|2,1:0|0:0,0:0:0:0:
135,40,60771,1,8,0:0:0:0:
225,240,60953,1,2,0:0:0:0:
273,23,61135,1,0,1:0:0:0:
104,167,61317,1,0,1:0:0:0:
273,23,61498,1,8,0:0:0:0:
225,240,61680,6,0,P|231:285|246:324,1,88,0|0,1:0|0:0,0:0:0:0:
358,275,62044,1,0,1:0:0:0:
209,118,62226,2,0,P|169:134|132:158,1,88,8|2,0:0|0:0,0:0:0:0:
358,275,62589,1,0,1:0:0:0:
292,99,62771,1,0,1:0:0:0:
168,235,62953,1,8,0:0:0:0:
292,99,63135,1,2,0:0:0:0:
405,350,63317,6,0,P|449:362|489:354,1,88,4|2,1:2|0:0,0:0:0:0:
168,235,63680,2,0,P|122:237|45:245,1,88,8|2,0:0|0:0,0:0:0:0:
211,99,64044,1,0,1:0:0:0:
257,338,64226,1,0,1:0:0:0:
236,111,64408,1,8,0:0:0:0:
231,325,64589,1,0,1:0:0:0:
315,40,64771,5,2,0:0:0:0:
375,356,64953,1,0,1:0:0:0:
80,240,65135,2,0,P|74:286|53:346,1,88,8|2,0:0|0:0,0:0:0:0:
211,99,65499,1,0,1:0:0:0:
257,338,65680,1,0,1:0:0:0:
63,124,65862,2,0,P|34:160|-1:187,1,88,8|2,0:0|0:0,0:0:0:0:
272,75,66226,5,0,1:0:0:0:
240,257,66408,1,2,0:0:0:0:
449,124,66589,2,0,P|420:88|385:61,1,88,8|2,0:0|0:0,0:0:0:0:
348,246,66953,2,0,P|331:289|322:352,1,88,0|0,1:0|1:0,0:0:0:0:
263,21,67317,1,8,0:0:0:0:
217,260,67499,1,4,1:2:0:0:
43,56,67862,6,0,P|44:106|51:146,1,88,8|8,0:0|0:0,0:0:0:0:
128,262,68226,1,0,1:0:0:0:
214,86,68408,2,0,P|256:76|299:85,1,88,8|0,0:0|0:0,0:0:0:0:
355,307,68771,1,8,1:2:0:0:
385,289,68862,1,0,3:0:0:0:
378,256,68952,1,0,3:0:0:0:
401,231,69044,1,0,3:0:0:0:
382,201,69135,6,0,P|339:185|293:189,1,88,4|2,1:2|0:0,0:0:0:0:
88,341,69499,2,0,P|131:349|174:339,1,88,8|2,0:0|0:0,0:0:0:0:
90,119,69862,1,0,1:0:0:0:
298,188,70044,1,0,1:0:0:0:
90,258,70225,1,8,0:0:0:0:
223,81,70408,6,0,P|209:36|188:0,1,88,0|0,1:0|0:0,0:0:0:0:
90,119,70771,1,0,1:0:0:0:
332,183,70953,2,0,P|357:150|374:98,1,88,8|2,0:0|0:0,0:0:0:0:
230,292,71316,1,0,1:0:0:0:
161,96,71498,1,0,1:0:0:0:
40,252,71680,2,0,P|36:296|48:340,1,88,8|2,0:0|0:0,0:0:0:0:
247,94,72044,6,0,P|203:86|159:98,1,88,0|2,1:0|0:0,0:0:0:0:
127,290,72408,1,8,0:0:0:0:
367,241,72589,1,2,0:0:0:0:
149,196,72771,1,0,1:0:0:0:
389,147,72953,1,0,1:0:0:0:
127,102,73134,1,8,0:0:0:0:
245,291,73317,6,0,P|228:334|205:369,1,88,0|0,1:0|0:0,0:0:0:0:
119,241,73680,1,0,1:0:0:0:
327,188,73862,2,0,P|375:218|400:255,1,88,8|2,0:0|0:0,0:0:0:0:
368,94,74225,1,0,1:0:0:0:
293,292,74407,1,0,1:0:0:0:
153,139,74589,1,8,0:0:0:0:
293,292,74771,1,2,0:0:0:0:
391,41,74953,6,0,P|435:29|475:37,1,88,4|2,1:2|0:0,0:0:0:0:
169,214,75317,2,0,P|115:214|46:204,1,88,8|2,0:0|0:0,0:0:0:0:
206,84,75680,1,0,1:0:0:0:
255,311,75862,1,0,1:0:0:0:
230,95,76044,1,8,0:0:0:0:
230,299,76225,1,0,1:0:0:0:
317,28,76408,5,2,0:0:0:0:
246,347,76589,1,0,1:0:0:0:
426,160,76771,2,0,P|444:199|452:242,1,88,8|2,0:0|0:0,0:0:0:0:
206,84,77135,1,0,1:0:0:0:
255,311,77316,1,0,1:0:0:0:
419,51,77499,2,0,P|461:68|504:99,1,88,8|2,0:0|0:0,0:0:0:0:
159,150,77862,5,12,0:0:0:0:
348,194,78044,1,2,0:0:0:0:
171,196,78226,1,0,1:0:0:0:
311,162,78408,1,0,1:0:0:0:
71,126,78589,5,0,1:0:0:0:
397,178,78771,1,0,1:0:0:0:
3,221,78953,5,0,1:0:0:0:
484,165,79135,1,4,0:0:0:0:
153,111,79499,5,8,0:0:0:0:
110,277,79680,2,0,L|54:285,2,44,0|0|0,0:0|1:0|0:0,0:0:0:0:
153,111,80044,2,0,P|193:95|241:103,1,88,8|2,0:0|0:0,0:0:0:0:
261,127,80317,1,0,3:0:0:0:
261,127,80408,2,0,L|365:141,1,88,8|2,3:0|3:0,0:0:0:0:
442,361,80771,5,12,0:0:0:0:
281,285,80953,1,0,1:0:0:0:
429,345,81135,1,2,1:2:0:0:
268,269,81317,2,0,P|260:225|268:181,1,88,12|0,0:0|1:0,0:0:0:0:
416,329,81680,1,2,1:2:0:0:
224,213,81862,2,0,P|236:165|268:111,1,88,8|0,0:0|1:0,0:0:0:0:
125,294,82226,5,0,1:0:0:0:
31,189,82408,1,8,0:0:0:0:
268,269,82589,1,8,0:0:0:0:
125,294,82771,1,0,1:0:0:0:
174,164,82953,2,0,P|211:139|255:128,1,88,8|2,0:0|0:0,0:0:0:0:
111,105,83317,1,4,3:0:0:0:
111,105,83408,1,0,1:0:0:0:
111,105,83499,1,2,0:0:0:0:
260,44,83680,6,0,P|264:88|252:131,1,88,12|0,0:0|1:0,0:0:0:0:
127,224,84044,1,2,1:2:0:0:
348,190,84226,2,0,P|319:223|280:246,1,88,12|0,0:0|1:0,0:0:0:0:
249,359,84590,1,2,1:2:0:0:
253,129,84771,2,0,P|281:95|320:72,1,88,8|0,0:0|1:0,0:0:0:0:
456,105,85135,6,0,L|449:210,1,88,8|0,0:0|0:0,0:0:0:0:
409,292,85499,2,0,P|367:285|321:288,1,88,8|8,0:0|0:0,0:0:0:0:
270,336,85771,1,8,0:0:0:0:
270,336,85862,2,0,P|228:343|182:340,1,88,8|8,3:0|0:0,0:0:0:0:
149,329,86135,1,8,0:0:0:0:
149,329,86226,2,0,L|140:389,1,44,8|0,0:0|0:0,0:0:0:0:
71,340,86408,6,0,B|-3:270|29:-104|459:100|203:342|-21:206|5:106,1,616,4|4,0:0|0:0,0:0:0:0:
