osu file format v14

[General]
AudioFilename: audio.mp3
AudioLeadIn: 2000
PreviewTime: 57206
Countdown: 0
SampleSet: Soft
StackLeniency: 0.4
Mode: 0
LetterboxInBreaks: 0
WidescreenStoryboard: 1

[Editor]
Bookmarks: 658,6476,7930,13748,16658,20321,31940,43566,52299,55208,56657,79929
DistanceSpacing: 0.4
BeatDivisor: 4
GridSize: 32
TimelineZoom: 1.3

[Metadata]
Title:Yukitoki (TV Size)
TitleUnicode:ユキトキ (TV Size)
Artist:yanaginagi
ArtistUnicode:やなぎなぎ
Creator:m3gB3g
Version:Daoski's Insane
Source:やはり俺の青春ラブコメはまちがっている。
Tags:Akitoshi Corinn -Laura- Taeyang Asuka_- Seni Daoski opening My Youth Romantic Comedy Is Wrong As I Expected OreGairu Brains Base japanese anime Yahari Ore no Seishun Love Come wa Machigatteiru Katsutoshi Kitagawa はまち 俺ガイル
BeatmapID:1968297
BeatmapSetID:757028

[Difficulty]
HPDrainRate:6
CircleSize:4
OverallDifficulty:7
ApproachRate:9
SliderMultiplier:1.65
SliderTickRate:1

[Events]
//Background and Video events
Video,0,"video.avi"
0,0,"iroha3.jpg",0,0
//Break Periods
//Storyboard Layer 0 (Background)
//Storyboard Layer 1 (Fail)
//Storyboard Layer 2 (Pass)
//Storyboard Layer 3 (Foreground)
//Storyboard Layer 4 (Overlay)
//Storyboard Sound Samples

[TimingPoints]
1500,363.636363636364,4,2,2,30,1,0
1500,-166.666666666667,4,2,2,30,0,0
7318,-250.000000000001,4,2,2,60,0,0
8772,-125,4,2,1,60,0,0
21163,363.636363636364,4,2,2,30,1,0
21163,-166.666666666667,4,2,2,30,0,0
32435,-166.666666666667,4,2,1,30,0,0
32782,363.636363636364,4,2,1,60,1,0
32782,-125,4,2,1,60,0,0
42963,361.44578313253,4,2,1,60,1,0
42963,-125,4,2,1,60,0,0
44408,363.636363636364,4,2,1,60,1,0
44408,-166.666666666667,4,2,1,60,0,0
45953,-166.666666666667,4,2,1,5,0,0
46044,-166.666666666667,4,2,1,60,0,0
46680,-166.666666666667,4,2,1,5,0,0
46771,-166.666666666667,4,2,1,60,0,0
47771,-166.666666666667,4,2,1,5,0,0
47862,-166.666666666667,4,2,1,60,0,0
48862,-166.666666666667,4,2,1,5,0,0
48953,-166.666666666667,4,2,1,60,0,0
49589,-166.666666666667,4,2,1,5,0,0
49680,-166.666666666667,4,2,1,60,0,0
50232,363.636363636364,4,2,1,60,1,0
50232,-166.666666666667,4,2,1,60,0,0
51777,-166.666666666667,4,2,1,5,0,0
51868,-166.666666666667,4,2,1,60,0,0
53141,-125,4,2,1,60,0,0
53232,-125,4,2,2,60,0,0
53413,-125,4,2,2,5,0,0
53504,-125,4,2,2,60,0,0
54595,-125,4,2,1,60,0,0
56050,387.096774193548,4,2,1,60,1,0
56050,-250,4,2,1,60,0,0
56630,329.67032967033,4,2,1,60,1,0
57124,-166.666666666667,4,2,1,60,0,0
57499,363.636363636364,4,2,1,80,1,1
57499,-83.3333333333333,4,2,1,80,0,1
78226,-83.3333333333333,4,2,2,80,0,1
79135,-83.3333333333333,4,2,1,80,0,1
79499,-100,4,2,1,80,0,1
80771,-100,4,2,1,60,0,0
82499,-100,4,2,1,5,0,0
82589,-100,4,2,1,60,0,0
88953,-100,4,2,2,5,0,0

[Colours]
Combo1 : 255,184,113
Combo2 : 250,210,146
Combo3 : 202,202,202
Combo4 : 240,232,232

[HitObjects]
54,120,1500,6,0,L|106:111,1,49.4999984893799,4|0,0:0|0:0,0:0:0:0:
168,178,1863,2,0,L|220:187,1,49.4999984893799,2|0,0:0|0:0,0:0:0:0:
295,132,2227,1,2,0:0:0:0:
311,117,2590,5,0,0:0:0:0:
390,172,2772,2,0,P|392:198|386:221,1,49.4999984893799,2|0,0:0|0:0,0:0:0:0:
348,292,3136,2,0,P|322:285|297:287,1,49.4999984893799,2|0,0:0|0:0,0:0:0:0:
232,337,3500,2,0,B|194:355|162:336|162:336|125:315|89:331,1,148.49999546814,2|2,0:0|0:0,0:0:0:0:
60,355,4227,1,0,0:0:0:0:
8,263,4409,6,0,P|5:223|17:191,1,74.2499977340699,4|0,0:0|0:0,0:0:0:0:
38,164,4772,2,0,L|26:99,1,49.4999984893799,2|0,0:0|0:0,0:0:0:0:
80,44,5136,1,2,0:0:0:0:
97,26,5500,5,0,0:0:0:0:
172,78,5681,2,0,P|202:83|229:73,1,49.4999984893799,2|0,0:0|0:0,0:0:0:0:
311,29,6045,2,0,L|302:78,1,49.4999984893799,2|0,0:0|0:0,0:0:0:0:
248,157,6409,2,0,P|301:151|352:169,1,98.9999969787599,2|0,0:0|0:0,0:0:0:0:
417,246,6954,1,2,0:0:0:0:
485,197,7136,1,0,0:0:0:0:
355,296,7318,6,0,B|320:279|320:279|287:293|287:293|245:272|200:293,1,165,4|0,0:0|0:0,0:0:0:0:
119,341,8409,1,0,0:0:0:0:
119,341,8500,1,0,0:0:0:0:
119,341,8590,2,0,L|127:318,1,16.5,0|0,0:0|0:0,0:0:0:0:
42,245,8772,6,0,P|75:254|105:245,1,66,12|0,0:0|1:0,0:0:0:0:
182,194,9136,1,2,1:2:0:0:
119,124,9318,2,0,L|144:60,1,66,12|0,0:0|1:0,0:0:0:0:
233,46,9681,1,2,1:2:0:0:
285,145,9863,2,0,P|339:176|406:163,1,132,8|0,0:0|0:0,0:0:0:0:
495,100,10409,2,0,L|481:142,1,33,8|0,0:0|0:0,0:0:0:0:
500,213,10590,6,0,P|499:273|479:305,1,99,8|0,0:0|0:0,0:0:0:0:
445,324,10954,2,0,L|379:312,1,66,8|0,0:0|0:0,0:0:0:0:
298,349,11318,1,8,0:0:0:0:
295,332,11409,1,0,1:0:0:0:
292,315,11500,1,0,0:0:0:0:
197,357,11681,6,0,P|159:368|130:360,1,66,12|0,0:0|1:0,0:0:0:0:
59,300,12045,1,2,1:2:0:0:
125,224,12227,2,0,L|110:156,1,66,12|0,0:0|1:0,0:0:0:0:
21,123,12590,1,2,1:2:0:0:
119,61,12772,2,0,P|185:48|250:73,1,132,8|8,0:0|0:0,0:0:0:0:
326,136,13318,1,0,0:0:0:0:
326,136,13409,1,8,0:0:0:0:
326,136,13500,5,8,3:0:0:0:
401,58,13681,2,0,L|391:98,1,33,8|8,0:0|0:0,0:0:0:0:
424,164,13863,1,8,3:0:0:0:
353,219,14045,2,0,L|343:259,1,33,8|8,0:0|0:0,0:0:0:0:
376,325,14227,1,8,0:0:0:0:
278,297,14409,1,0,0:0:0:0:
161,355,14590,6,0,P|141:306|153:260,1,99,4|0,0:0|0:0,0:0:0:0:
175,239,14954,1,0,1:0:0:0:
103,182,15136,1,0,1:0:0:0:
224,165,15318,1,2,1:2:0:0:
73,256,15500,1,0,1:0:0:0:
2,101,15681,1,0,1:0:0:0:
275,259,15863,6,0,P|328:267|373:260,1,99,2|0,1:2|0:0,0:0:0:0:
399,248,16227,1,0,1:0:0:0:
254,152,16409,1,0,1:0:0:0:
206,344,16590,2,0,P|148:356|91:344,1,99,2|0,1:2|0:0,0:0:0:0:
70,330,16954,1,0,1:0:0:0:
173,238,17136,1,2,1:2:0:0:
46,146,17318,2,0,L|87:138,1,33,0|0,1:0|0:0,0:0:0:0:
182,64,17500,5,4,1:1:0:0:
269,141,17681,1,0,0:0:0:0:
269,141,17772,1,0,0:0:0:0:
269,141,17863,2,0,L|306:135,3,33,8|0|0|0,1:2|0:0|0:0|0:0,0:0:0:0:
205,232,18227,2,0,L|168:238,3,33,8|0|0|0,1:2|0:0|0:0|0:0,0:0:0:0:
293,300,18590,2,0,L|330:294,3,33,8|0|0|0,1:2|0:0|0:0|0:0,0:0:0:0:
222,378,18954,5,8,0:0:0:0:
189,375,19044,1,0,0:0:0:0:
160,360,19135,1,0,0:0:0:0:
139,334,19226,1,0,0:0:0:0:
130,303,19317,1,8,0:0:0:0:
135,270,19408,1,0,0:0:0:0:
151,242,19499,1,0,0:0:0:0:
178,223,19590,1,0,0:0:0:0:
210,216,19681,1,8,0:0:0:0:
242,222,19772,1,0,0:0:0:0:
269,240,19863,1,0,0:0:0:0:
287,267,19954,1,0,0:0:0:0:
293,300,20045,6,0,L|330:294,1,33,8|0,0:0|0:0,0:0:0:0:
394,232,20227,2,0,L|431:238,1,33,0|0,0:0|0:0,0:0:0:0:
494,307,20954,1,0,0:0:0:0:
426,237,21163,6,0,P|418:190|433:141,1,98.9999969787599,4|0,0:0|0:0,0:0:0:0:
485,81,21708,1,0,0:0:0:0:
406,66,21890,2,0,L|300:93,1,98.9999969787599,0|0,0:0|0:0,0:0:0:0:
240,46,22435,1,0,0:0:0:0:
199,115,22617,6,0,P|188:150|215:209,1,98.9999969787599,2|0,0:0|0:0,0:0:0:0:
271,255,23163,1,0,0:0:0:0:
248,328,23344,2,0,P|196:347|153:333,1,98.9999969787599,0|0,0:0|0:0,0:0:0:0:
156,335,24072,6,0,L|56:358,1,98.9999969787599,2|0,0:0|0:0,0:0:0:0:
3,298,24617,1,0,0:0:0:0:
52,231,24799,2,0,P|63:206|50:129,1,98.9999969787599,0|0,0:0|0:0,0:0:0:0:
4,82,25344,1,0,0:0:0:0:
63,20,25526,2,0,L|170:36,1,98.9999969787599,2|0,0:0|0:0,0:0:0:0:
229,0,26072,1,0,0:0:0:0:
289,63,26253,2,0,P|306:94|295:159,1,98.9999969787599,0|0,0:0|0:0,0:0:0:0:
298,155,26981,6,0,L|400:142,1,98.9999969787599,2|0,0:0|0:0,0:0:0:0:
473,134,27526,1,0,0:0:0:0:
441,208,27708,2,0,P|434:251|459:299,1,98.9999969787599,0|0,0:0|0:0,0:0:0:0:
459,299,28435,6,0,L|352:289,1,98.9999969787599,2|0,0:0|0:0,0:0:0:0:
300,344,28981,1,0,0:0:0:0:
254,279,29163,2,0,P|243:244|269:182,1,98.9999969787599,0|0,0:0|0:0,0:0:0:0:
263,187,29890,6,0,L|160:201,1,98.9999969787599,2|0,0:0|0:0,0:0:0:0:
96,163,30435,1,0,0:0:0:0:
51,238,30617,2,0,P|39:272|61:331,1,98.9999969787599,0|0,0:0|0:0,0:0:0:0:
59,329,31344,6,0,B|105:319|105:319|152:344|152:344|201:334,1,148.49999546814,2|0,0:0|0:0,0:0:0:0:
270,266,32072,2,0,L|281:319,1,49.4999984893799,2|0,0:0|0:0,0:0:0:0:
357,359,32435,2,0,L|352:387,3,24.74999924469,8|0|2|0,0:0|0:0|0:0|0:0,0:0:0:0:
384,330,32782,6,0,P|447:349|506:322,1,132,4|8,0:0|0:0,0:0:0:0:
441,248,33327,1,2,0:0:0:0:
480,162,33509,2,0,L|459:97,1,66,0|0,1:0|1:0,0:0:0:0:
354,47,33872,2,0,L|377:111,1,66,8|2,0:0|0:0,0:0:0:0:
335,206,34236,6,0,P|300:227|205:207,1,132,0|8,1:0|0:0,0:0:0:0:
144,154,34782,1,2,0:0:0:0:
54,219,34963,2,0,L|67:154,1,66,0|0,1:0|1:0,0:0:0:0:
16,54,35327,2,0,P|42:72|76:71,1,66,8|2,0:0|0:0,0:0:0:0:
188,28,35691,6,0,P|225:18|315:55,1,132,0|8,1:0|0:0,0:0:0:0:
369,126,36236,1,2,0:0:0:0:
288,196,36418,2,0,L|275:264,1,66,0|0,1:0|1:0,0:0:0:0:
343,330,36782,2,0,P|378:342|414:334,1,66,8|2,0:0|0:0,0:0:0:0:
505,264,37145,6,0,P|445:244|383:268,1,132,0|8,1:0|0:0,0:0:0:0:
335,338,37691,1,2,0:0:0:0:
268,269,37872,2,0,L|294:134,1,132,0|8,1:0|0:0,0:0:0:0:
359,81,38418,1,2,0:0:0:0:
223,26,38600,6,0,P|183:17|103:66,1,132,0|8,1:0|0:0,0:0:0:0:
156,138,39145,1,2,0:0:0:0:
103,210,39327,2,0,L|110:280,1,66,0|0,1:0|1:0,0:0:0:0:
202,325,39691,2,0,L|194:257,1,66,8|0,0:0|0:0,0:0:0:0:
279,180,40054,6,0,P|314:171|410:212,1,132,0|8,1:0|0:0,0:0:0:0:
438,275,40600,1,2,0:0:0:0:
506,179,40782,2,0,L|479:48,1,132,0|8,1:0|0:0,0:0:0:0:
417,10,41327,1,2,0:0:0:0:
326,79,41509,6,0,P|291:94|201:75,1,132,0|8,1:0|0:0,0:0:0:0:
123,24,42054,1,2,0:0:0:0:
44,106,42236,2,0,L|57:175,1,66,0|0,1:0|1:0,0:0:0:0:
157,201,42600,2,0,L|147:275,1,66,8|2,0:0|0:0,0:0:0:0:
27,349,42963,6,0,P|95:333|171:353,1,132,0|2,1:0|0:0,0:0:0:0:
222,384,43505,1,0,1:0:0:0:
292,326,43685,2,0,L|362:339,1,66,8|2,0:0|0:0,0:0:0:0:
419,279,44047,1,8,0:0:0:0:
481,333,44228,1,0,1:0:0:0:
480,200,44408,6,0,P|415:178|342:218,1,148.49999546814,4|0,0:0|0:0,0:0:0:0:
291,288,45135,2,0,L|305:339,2,49.4999984893799,8|0|2,0:0|0:0|0:0,0:0:0:0:
226,223,45680,2,0,P|187:221|150:238,1,74.2499977340699,0|0,1:0|0:0,0:0:0:0:
135,257,46044,2,0,L|85:248,1,49.4999984893799,0|0,1:0|0:0,0:0:0:0:
11,204,46408,2,0,P|6:170|22:133,1,74.2499977340699,0|0,1:0|0:0,0:0:0:0:
43,111,46771,2,0,L|34:62,1,49.4999984893799,2|0,0:0|0:0,0:0:0:0:
103,11,47135,1,2,0:0:0:0:
187,123,47317,5,0,1:0:0:0:
258,69,47498,2,0,P|299:69|330:87,1,74.2499977340699,2|0,0:0|0:0,0:0:0:0:
349,102,47862,2,0,L|399:94,2,49.4999984893799,2|8|0,0:0|0:0|0:0,0:0:0:0:
306,167,48408,1,2,0:0:0:0:
357,246,48589,6,0,P|367:277|357:325,1,74.2499977340699,0|0,1:0|0:0,0:0:0:0:
345,344,48953,2,0,L|291:338,1,49.4999984893799,0|0,1:0|1:0,0:0:0:0:
202,289,49317,2,0,P|172:280|126:293,1,74.2499977340699,0|0,0:0|0:0,0:0:0:0:
102,310,49680,2,0,L|95:255,1,49.4999984893799,0|0,1:0|1:0,0:0:0:0:
0,209,50044,1,2,0:0:0:0:
0,209,50135,1,0,0:0:0:0:
0,209,50232,6,0,P|72:223|135:187,1,148.49999546814,4|0,0:0|0:0,0:0:0:0:
166,100,50959,2,0,L|146:51,2,49.4999984893799,8|2|0,0:0|0:0|0:0,0:0:0:0:
234,153,51504,2,0,P|269:157|308:142,1,74.2499977340699,0|0,1:0|0:0,0:0:0:0:
326,125,51868,2,0,P|354:124|379:131,1,49.4999984893799,0|0,1:0|0:0,0:0:0:0:
441,190,52232,2,0,L|433:249,1,49.4999984893799,0|8,1:0|0:0,0:0:0:0:
468,331,52595,2,0,P|425:318|374:331,1,98.9999969787599,2|0,0:0|1:0,0:0:0:0:
280,378,53141,6,0,L|299:278,1,99,4|0,0:0|0:0,0:0:0:0:
329,259,53504,5,0,1:0:0:0:
247,181,53686,1,0,1:0:0:0:
387,192,53868,5,2,1:2:0:0:
234,163,54050,1,0,1:0:0:0:
445,125,54232,5,0,1:0:0:0:
221,145,54413,1,2,1:2:0:0:
503,58,54595,5,8,0:0:0:0:
445,125,54777,1,0,1:0:0:0:
387,192,54959,1,0,1:0:0:0:
329,259,55141,6,0,P|262:273|203:252,1,132,12|0,0:0|0:0,0:0:0:0:
256,192,55595,12,0,57124,0:0:0:0:
372,312,57499,6,0,P|425:318|467:298,1,98.9999969787599,4|2,1:2|0:0,0:0:0:0:
341,222,57862,1,8,0:0:0:0:
430,128,58044,1,2,0:0:0:0:
285,21,58226,2,0,L|310:119,1,98.9999969787599,0|0,1:0|1:0,0:0:0:0:
341,222,58589,1,8,0:0:0:0:
224,307,58771,6,0,P|169:322|125:308,1,98.9999969787599,0|0,1:0|0:0,0:0:0:0:
60,230,59135,2,0,L|80:133,1,98.9999969787599,0|8,1:0|0:0,0:0:0:0:
21,12,59499,2,0,P|83:51|206:46,1,197.99999395752,2|0,0:0|1:0,0:0:0:0:
322,0,60044,1,8,0:0:0:0:
372,189,60226,1,2,0:0:0:0:
396,105,60408,6,0,P|348:105|306:130,1,98.9999969787599,0|2,1:0|0:0,0:0:0:0:
254,252,60771,1,8,0:0:0:0:
154,165,60953,1,2,0:0:0:0:
41,298,61135,2,0,L|142:275,1,98.9999969787599,0|0,1:0|1:0,0:0:0:0:
254,252,61499,1,8,0:0:0:0:
362,344,61680,6,0,P|347:299|359:250,1,98.9999969787599,0|0,1:0|0:0,0:0:0:0:
499,168,62044,2,0,P|449:177|403:158,1,98.9999969787599,0|8,1:0|0:0,0:0:0:0:
276,66,62408,2,0,P|219:55|83:108,1,197.99999395752,2|0,0:0|1:0,0:0:0:0:
25,247,62953,1,8,0:0:0:0:
133,215,63135,1,2,0:0:0:0:
235,358,63317,5,4,1:2:0:0:
310,291,63499,2,0,P|377:266|445:294,1,148.49999546814,2|0,0:0|0:0,0:0:0:0:
475,321,63862,2,0,P|457:271|468:221,1,98.9999969787599,2|0,0:0|1:0,0:0:0:0:
512,118,64226,2,0,P|468:136|411:125,1,98.9999969787599,0|8,1:0|0:0,0:0:0:0:
323,63,64589,1,0,1:0:0:0:
244,257,64771,5,2,0:0:0:0:
194,180,64953,2,0,P|137:214|61:194,1,148.49999546814,0|0,1:0|0:0,0:0:0:0:
37,171,65317,2,0,L|55:272,1,98.9999969787599,2|0,0:0|1:0,0:0:0:0:
187,344,65680,2,0,P|241:328|289:336,1,98.9999969787599,0|8,1:0|0:0,0:0:0:0:
387,378,66044,1,2,0:0:0:0:
417,152,66226,5,0,1:0:0:0:
475,233,66408,2,0,P|406:251|337:213,1,148.49999546814,2|0,0:0|0:0,0:0:0:0:
319,192,66771,2,0,P|270:178|221:199,1,98.9999969787599,2|0,0:0|1:0,0:0:0:0:
157,289,67135,1,0,1:0:0:0:
85,192,67317,1,8,0:0:0:0:
33,349,67499,5,4,1:2:0:0:
22,380,67862,5,8,0:0:0:0:
157,289,68044,2,0,B|209:279|209:279|254:299|254:299|299:290,1,148.49999546814,8|0,0:0|0:0,0:0:0:0:
320,273,68408,1,8,0:0:0:0:
415,347,68589,1,0,0:0:0:0:
505,196,68771,1,8,1:2:0:0:
505,196,68862,1,0,3:0:0:0:
505,196,68953,1,0,3:0:0:0:
505,196,69044,1,0,3:0:0:0:
505,196,69135,6,0,P|458:185|402:198,1,98.9999969787599,4|2,1:2|0:0,0:0:0:0:
320,273,69499,1,8,0:0:0:0:
246,161,69680,1,2,0:0:0:0:
129,312,69862,2,0,P|75:328|25:318,1,98.9999969787599,0|0,1:0|1:0,0:0:0:0:
190,237,70226,1,8,0:0:0:0:
341,369,70408,6,0,L|320:273,1,98.9999969787599,0|0,1:0|0:0,0:0:0:0:
448,174,70771,2,0,P|390:172|339:194,1,98.9999969787599,0|8,1:0|0:0,0:0:0:0:
165,102,71135,2,0,P|220:117|360:93,1,197.99999395752,2|0,0:0|1:0,0:0:0:0:
452,10,71680,1,8,0:0:0:0:
371,85,71862,1,2,0:0:0:0:
460,178,72044,6,0,P|461:233|438:277,1,98.9999969787599,0|2,1:0|0:0,0:0:0:0:
345,339,72408,1,8,0:0:0:0:
258,258,72589,1,2,0:0:0:0:
177,362,72771,2,0,P|131:378|84:366,1,98.9999969787599,0|0,1:0|1:0,0:0:0:0:
10,269,73135,1,8,0:0:0:0:
94,180,73317,6,0,L|64:82,1,98.9999969787599,0|0,1:0|0:0,0:0:0:0:
176,0,73680,2,0,L|208:97,1,98.9999969787599,0|8,1:0|0:0,0:0:0:0:
336,158,74044,2,0,P|403:125|512:166,1,197.99999395752,2|0,0:0|1:0,0:0:0:0:
469,334,74589,1,8,0:0:0:0:
420,241,74771,1,2,0:0:0:0:
264,356,74953,5,4,1:2:0:0:
206,268,75135,2,0,P|155:258|66:294,1,148.49999546814,2|0,0:0|0:0,0:0:0:0:
41,317,75499,2,0,P|59:267|53:209,1,98.9999969787599,2|0,0:0|1:0,0:0:0:0:
1,114,75862,2,0,P|50:131|106:116,1,98.9999969787599,0|8,1:0|0:0,0:0:0:0:
186,32,76226,1,0,1:0:0:0:
257,258,76408,5,2,0:0:0:0:
170,208,76589,2,0,P|225:161|297:168,1,148.49999546814,0|0,1:0|0:0,0:0:0:0:
332,193,76953,2,0,P|380:209|431:197,1,98.9999969787599,2|0,0:0|1:0,0:0:0:0:
502,315,77317,2,0,P|454:299|403:311,1,98.9999969787599,0|8,1:0|0:0,0:0:0:0:
295,384,77680,1,2,0:0:0:0:
73,254,77862,5,12,0:0:0:0:
146,297,78044,2,0,P|175:253|163:149,1,148.49999546814,2|0,0:0|0:0,0:0:0:0:
140,130,78408,5,0,1:0:0:0:
284,273,78589,1,0,1:0:0:0:
283,69,78771,5,0,1:0:0:0:
296,297,78953,1,0,1:0:0:0:
439,20,79135,6,0,P|372:19|299:53,1,148.49999546814,4|0,0:0|0:0,0:0:0:0:
283,69,79499,5,8,0:0:0:0:
373,144,79680,2,0,P|378:186|364:224,1,82.5
288,292,80044,1,8,0:0:0:0:
194,240,80226,2,0,L|154:248,1,41.25,2|0,0:0|3:0,0:0:0:0:
101,300,80408,1,8,3:0:0:0:
101,300,80499,1,0,3:0:0:0:
101,300,80589,1,2,3:0:0:0:
101,300,80771,6,0,P|82:267|84:224,1,82.5,12|0,0:0|1:0,0:0:0:0:
124,123,81135,1,2,1:2:0:0:
241,168,81317,2,0,L|217:82,1,82.5,12|0,0:0|1:0,0:0:0:0:
284,20,81680,1,2,1:2:0:0:
409,81,81862,2,0,P|440:125|417:233,1,165,8|0,0:0|1:0,0:0:0:0:
326,321,82408,2,0,L|272:309,1,41.25,8|0,0:0|0:0,0:0:0:0:
220,241,82589,6,0,P|166:225|101:249,1,123.75,8|0,0:0|0:0,0:0:0:0:
82,273,82953,2,0,P|99:232|93:193,1,82.5,8|2,0:0|0:0,0:0:0:0:
49,56,83317,1,4,3:0:0:0:
49,56,83408,1,0,1:0:0:0:
49,56,83499,1,2,0:0:0:0:
49,56,83680,6,0,P|92:45|134:54,1,82.5,12|0,0:0|1:0,0:0:0:0:
215,105,84044,1,2,1:2:0:0:
334,6,84226,2,0,L|317:87,1,82.5,12|0,0:0|1:0,0:0:0:0:
400,140,84589,1,2,1:2:0:0:
199,247,84771,2,0,P|260:265|319:242,1,123.75,8|0,0:0|0:0,0:0:0:0:
340,221,85135,5,8,0:0:0:0:
258,167,85317,1,0,0:0:0:0:
258,167,85408,1,0,0:0:0:0:
258,167,85499,1,8,0:0:0:0:
440,132,85680,2,0,L|400:140,1,41.25,8|8,0:0|0:0,0:0:0:0:
317,87,85862,1,8,3:0:0:0:
191,287,86044,2,0,L|201:241,1,41.25,8|8,0:0|0:0,0:0:0:0:
117,193,86226,1,8,0:0:0:0:
265,381,86408,1,4,0:0:0:0:
256,192,86499,12,4,88953,0:0:0:0:
