osu file format v14

[General]
AudioFilename: audio.mp3
AudioLeadIn: 0
PreviewTime: 22637
Countdown: 0
SampleSet: Soft
StackLeniency: 0.4
Mode: 0
LetterboxInBreaks: 0
WidescreenStoryboard: 1

[Editor]
Bookmarks: 11666,22637,44580,66523,77495,99437,104923,126866,137837,159780,170752,181723,203666,225609,247552,258523,269152
DistanceSpacing: 0.2
BeatDivisor: 4
GridSize: 8
TimelineZoom: 2.4

[Metadata]
Title:Vidro Moyou (bassmicrobe Remix)
TitleUnicode:ビードロ模様 (bassmicrobe Remix)
Artist:yanaginagi
ArtistUnicode:やなぎなぎ
Creator:-Tochi
Version:Pattern
Source:あの夏で待ってる
Tags:Waiting... D-Remix Nation dnb Waiting in the Summer Ano Natsu de Matteru
BeatmapID:2126528
BeatmapSetID:1016003

[Difficulty]
HPDrainRate:6
CircleSize:3.5
OverallDifficulty:8.5
ApproachRate:9.3
SliderMultiplier:2
SliderTickRate:2

[Events]
//Background and Video events
0,0,"bg.jpg",0,0
//Break Periods
2,99637,101626
//Storyboard Layer 0 (Background)
//Storyboard Layer 1 (Fail)
//Storyboard Layer 2 (Pass)
//Storyboard Layer 3 (Foreground)
//Storyboard Layer 4 (Overlay)
//Storyboard Sound Samples

[TimingPoints]
354,342.857142857143,4,2,1,40,1,0
354,-166.666666666667,4,2,1,40,0,0
695,342.857142857143,4,2,1,50,1,0
695,-125,4,2,1,50,0,0
3095,-83.3333333333333,4,2,1,50,0,0
3437,-125,4,2,1,50,0,0
8580,-83.3333333333333,4,2,1,50,0,0
8923,-125,4,2,1,50,0,0
9609,-90.9090909090909,4,2,1,50,0,0
10295,-55.5555555555556,4,2,1,50,0,0
11495,-125,4,2,1,50,0,0
11666,-100,4,2,1,50,0,0
22637,-83.3333333333333,4,2,2,60,0,1
31552,-111.111111111111,4,2,2,60,0,1
32066,-83.3333333333333,4,2,2,60,0,1
44580,-100,4,2,1,50,0,0
55209,-83.3333333333333,4,2,1,50,0,0
55552,-100,4,2,1,50,0,0
66180,-83.3333333333333,4,2,1,50,0,0
66523,-125,4,2,1,50,0,0
77495,-83.3333333333333,4,2,2,60,0,1
83152,-100,4,2,2,60,0,1
83666,-83.3333333333333,4,2,2,60,0,1
86237,-100,4,2,2,60,0,1
87095,-83.3333333333333,4,2,2,60,0,1
95837,-100,4,2,2,60,0,1
96952,-100,4,2,10,60,0,1
97123,-100,4,2,2,60,0,1
99437,-100,4,2,2,60,0,0
104923,-100,4,2,1,60,0,0
115552,-83.3333333333333,4,2,1,60,0,0
115895,-100,4,2,1,60,0,0
126523,-83.3333333333333,4,2,1,60,0,0
126866,-125,4,2,1,50,0,0
137837,-83.3333333333333,4,2,2,60,0,1
143495,-100,4,2,2,60,0,1
144009,-83.3333333333333,4,2,2,60,0,1
146580,-100,4,2,2,60,0,1
147437,-83.3333333333333,4,2,2,60,0,1
156180,-100,4,2,2,60,0,1
157295,-100,4,2,10,60,0,1
157466,-100,4,2,2,60,0,1
159780,-166.666666666667,4,2,1,50,0,0
166637,-125,4,2,1,50,0,0
168009,-100,4,2,1,50,0,0
170066,-125,4,2,1,50,0,0
171437,-83.3333333333333,4,2,1,50,0,0
171952,-125,4,2,1,50,0,0
172980,-111.111111111111,4,2,1,50,0,0
173495,-125,4,2,1,50,0,0
174180,-83.3333333333333,4,2,1,50,0,0
174695,-125,4,2,1,50,0,0
175723,-90.9090909090909,4,2,1,50,0,0
176923,-83.3333333333333,4,2,1,50,0,0
177437,-125,4,2,1,50,0,0
178466,-111.111111111111,4,2,1,50,0,0
181209,-100,4,2,1,50,0,0
181723,-83.3333333333333,4,2,2,60,0,1
190637,-111.111111111111,4,2,2,60,0,1
191152,-83.3333333333333,4,2,2,60,0,1
202295,-83.3333333333333,4,2,2,60,0,0
203666,-83.3333333333333,4,2,2,60,0,1
209323,-100,4,2,2,60,0,1
209837,-83.3333333333333,4,2,2,60,0,1
212409,-100,4,2,2,60,0,1
213266,-83.3333333333333,4,2,2,60,0,1
222009,-100,4,2,2,60,0,1
223123,-100,4,2,10,60,0,1
223295,-100,4,2,2,60,0,1
225609,-100,4,2,2,50,0,0
233152,-125,4,2,2,50,0,0
233495,-100,4,2,2,50,0,0
244123,-125,4,2,2,50,0,0
244466,-100,4,2,2,50,0,0
247552,-125,4,2,2,50,0,0
249609,-83.3333333333333,4,2,2,50,0,0
249952,-125,4,2,2,50,0,0
252352,-100,4,2,2,50,0,0
253037,-125,4,2,2,50,0,0
255437,-83.3333333333333,4,2,2,50,0,0
255780,-125,4,2,2,50,0,0
256980,-100,4,2,2,50,0,0
257495,-125,4,2,2,50,0,0
257837,-83.3333333333333,4,2,2,50,0,0
258180,-125,4,2,3,50,0,0
260237,-100,4,2,3,50,0,0
262466,-125,4,2,3,50,0,0
262980,-100,4,2,3,50,0,0
263666,-125,4,2,3,50,0,0
264695,-100,4,2,3,50,0,0
265209,-142.857142857143,4,2,3,50,0,0
267952,-111.111111111111,4,2,3,50,0,0
268466,-142.857142857143,4,2,3,50,0,0

[Colours]
Combo1 : 167,124,124
Combo2 : 239,86,90
Combo3 : 218,163,112
Combo4 : 201,100,95

[HitObjects]
178,191,696,6,0,P|121:235|139:321,1,160,6|0,1:2|0:0,0:0:0:0:
250,124,1209,2,0,P|239:52|155:25,1,160,2|0,0:0|0:0,0:0:0:0:
272,219,1723,1,2,0:3:0:0:
272,219,1809,1,2,0:3:0:0:
272,219,1895,1,2,0:3:0:0:
272,219,1980,1,2,0:3:0:0:
272,219,2066,6,0,P|338:245|404:186,1,160,2|0,1:2|0:0,0:0:0:0:
178,191,2580,2,0,P|121:235|139:321,1,160,2|0,0:0|0:0,0:0:0:0:
250,124,3095,6,0,B|275:72|275:72|231:26,1,119.999996337891,2|0,0:0|0:0,0:0:0:0:
339,291,3437,6,0,P|383:347|469:329,1,160,2|0,1:2|0:0,0:0:0:0:
272,219,3952,2,0,P|200:229|173:313,1,160,2|0,0:0|0:0,0:0:0:0:
367,197,4465,1,2,0:3:0:0:
367,197,4551,1,2,0:3:0:0:
367,197,4637,1,2,0:3:0:0:
367,197,4722,1,2,0:3:0:0:
367,197,4809,6,0,P|393:130|334:64,1,160,2|0,1:2|0:0,0:0:0:0:
339,291,5323,2,0,P|383:347|469:329,1,160,2|0,0:0|0:0,0:0:0:0:
272,219,5837,1,2,0:0:0:0:
103,325,6009,2,0,P|93:320|83:302,1,20,0|0,0:0|0:0,0:0:0:0:
81,336,6095,2,0,P|76:325|80:305,1,20,0|0,0:0|0:0,0:0:0:0:
57,330,6180,6,0,P|40:253|85:179,1,160,2|0,1:2|0:0,0:0:0:0:
292,73,6695,2,0,P|309:150|264:224,1,160,2|0,0:0|0:0,0:0:0:0:
77,184,7209,1,2,0:3:0:0:
77,184,7295,1,2,0:3:0:0:
77,184,7380,1,2,0:3:0:0:
77,184,7466,1,2,0:3:0:0:
77,184,7552,6,0,P|39:115|56:38,1,160,2|0,1:2|0:0,0:0:0:0:
292,73,8066,2,0,P|329:141|312:218,1,160,2|0,0:0|0:0,0:0:0:0:
117,269,8580,6,0,B|59:289|59:289|13:250,1,119.999996337891,2|0,0:0|0:0,0:0:0:0:
312,218,8923,6,0,P|356:304|260:289,1,240,0|0,1:0|0:0,0:0:0:0:
312,218,9609,6,0,P|382:324|260:289,1,330.000010070801,0|0,1:0|0:0,0:0:0:0:
312,218,10295,6,0,P|391:329|260:290,2,359.999989013672,0|0|0,1:0|1:0|1:0,0:0:0:0:
312,218,11323,1,8,0:0:0:0:
103,237,11495,2,0,P|93:232|83:214,1,20,0|0,0:0|0:0,0:0:0:0:
81,248,11581,2,0,P|76:237|80:217,1,20,0|0,0:0|0:0,0:0:0:0:
57,242,11666,6,0,P|33:162|77:50,1,200,0|0,1:0|0:0,0:0:0:0:
257,152,12180,1,0,1:0:0:0:
164,160,12352,2,0,P|211:171|257:152,1,100,8|0,0:0|0:0,0:0:0:0:
404,94,12695,1,2,0:3:0:0:
427,84,12780,1,2,0:3:0:0:
452,82,12866,1,2,0:3:0:0:
476,88,12952,1,2,0:3:0:0:
497,102,13037,5,0,1:0:0:0:
321,235,13209,2,0,P|280:188|308:56,1,200,0|0,1:0|0:0,0:0:0:0:
177,247,13723,2,0,P|136:275|83:271,1,100,8|0,0:0|0:0,0:0:0:0:
383,141,14066,2,0,P|432:138|472:166,1,100,0|0,0:0|0:0,0:0:0:0:
114,200,14409,6,0,P|76:136|110:15,1,200,0|0,1:0|0:0,0:0:0:0:
294,99,14923,1,0,1:0:0:0:
195,107,15095,2,0,L|299:99,1,100,8|0,0:0|0:0,0:0:0:0:
421,243,15437,1,2,0:3:0:0:
396,241,15522,1,2,0:3:0:0:
371,239,15608,1,2,0:3:0:0:
346,237,15694,1,2,0:3:0:0:
321,235,15780,5,0,1:0:0:0:
496,329,15952,2,0,P|516:232|494:117,1,200,0|0,1:0|0:0,0:0:0:0:
238,184,16466,2,0,P|228:232|239:290,1,100,8|0,0:0|0:0,0:0:0:0:
371,239,16809,1,0,0:0:0:0:
98,232,16980,2,0,L|61:230,2,33.3333333333333,0|0|0,1:0|0:0|0:0,0:0:0:0:
40,254,17152,6,0,P|7:165|50:59,1,200,0|0,1:0|0:0,0:0:0:0:
255,42,17666,1,0,1:0:0:0:
129,117,17837,2,0,P|176:137|225:132,1,100,8|0,0:0|0:0,0:0:0:0:
448,45,18180,1,2,1:3:0:0:
423,39,18265,1,2,0:3:0:0:
398,40,18351,1,2,0:3:0:0:
374,47,18437,1,2,0:3:0:0:
353,60,18523,5,0,1:0:0:0:
457,231,18695,2,0,P|482:136|447:44,1,200,0|0,1:0|0:0,0:0:0:0:
223,132,19209,2,0,P|209:179|224:231,1,100,8|0,0:0|0:0,0:0:0:0:
221,227,19466,1,0,0:0:0:0:
221,227,19552,1,8,3:0:0:0:
218,46,19895,5,0,1:0:0:0:
127,285,20066,1,0,1:0:0:0:
287,75,20238,1,0,1:0:0:0:
85,221,20409,1,0,1:0:0:0:
356,104,20580,1,0,1:0:0:0:
201,173,20752,1,0,1:0:0:0:
425,133,20923,1,2,1:3:0:0:
430,172,21009,1,2,0:3:0:0:
436,211,21095,1,2,1:3:0:0:
442,250,21180,1,2,0:3:0:0:
466,285,21266,5,2,1:3:0:0:
431,263,21352,1,2,1:3:0:0:
391,258,21437,1,2,1:3:0:0:
352,267,21523,1,2,1:3:0:0:
322,294,21609,1,2,1:3:0:0:
292,321,21695,1,2,1:3:0:0:
253,330,21781,1,2,1:3:0:0:
213,325,21866,1,2,1:3:0:0:
178,303,21952,1,2,1:3:0:0:
164,260,22037,1,2,1:3:0:0:
176,206,22123,1,2,1:3:0:0:
222,167,22209,1,2,1:3:0:0:
286,175,22295,5,8,0:0:0:0:
34,86,22466,2,0,L|2:67,1,25,0|0,0:0|0:0,0:0:0:0:
57,67,22552,2,0,L|38:34,1,25,0|0,0:0|0:0,0:0:0:0:
86,62,22637,6,0,P|187:74|314:8,1,239.999992675781,6|8,1:2|0:0,0:0:0:0:
246,247,23152,1,0,0:0:0:0:
490,136,23323,2,0,L|362:110,1,119.999996337891,2|0,0:0|1:0,0:0:0:0:
512,142,23666,1,8,0:0:0:0:
286,175,23837,1,2,0:0:0:0:
286,175,23923,1,2,0:0:0:0:
286,175,24009,5,0,1:0:0:0:
453,42,24180,1,2,0:0:0:0:
336,255,24352,2,0,B|281:273|281:273|221:242,1,119.999996337891,10|0,0:0|0:0,0:0:0:0:
19,44,24695,2,0,L|151:28,1,119.999996337891,2|0,0:0|1:0,0:0:0:0:
286,175,25037,1,10,0:0:0:0:
169,27,25209,1,0,0:0:0:0:
453,42,25380,6,0,P|476:151|436:284,1,239.999992675781,2|8,1:2|0:0,0:0:0:0:
420,286,26066,2,0,L|296:267,1,119.999996337891,2|0,0:0|1:0,0:0:0:0:
30,227,26409,1,8,0:0:0:0:
173,329,26580,1,2,0:0:0:0:
173,329,26666,1,2,0:0:0:0:
173,329,26752,5,0,1:0:0:0:
211,60,26923,1,2,0:0:0:0:
251,173,27095,2,0,B|193:186|193:186|138:156,1,119.999996337891,10|0,0:0|0:0,0:0:0:0:
393,50,27437,2,0,B|451:37|451:37|504:65,1,119.999996337891,2|0,0:0|1:0,0:0:0:0:
211,60,27780,1,10,0:0:0:0:
435,141,27952,2,0,L|463:117,1,29.9999990844727,0|0,0:0|0:0,0:0:0:0:
443,168,28037,2,0,L|480:161,1,29.9999990844727,0|0,0:0|0:0,0:0:0:0:
438,198,28123,6,0,L|167:212,1,239.999992675781,2|8,1:2|0:0,0:0:0:0:
350,121,28637,1,0,0:0:0:0:
134,276,28809,2,0,P|110:228|125:159,1,119.999996337891,2|0,0:0|1:0,0:0:0:0:
151,297,29152,1,10,0:0:0:0:
49,103,29323,1,2,0:0:0:0:
49,103,29409,1,2,0:0:0:0:
49,103,29495,6,0,P|120:69|224:87,1,179.999994506836,0|0,1:0|0:0,0:0:0:0:
273,136,29837,2,0,P|322:163|387:148,1,119.999996337891,10|0,0:0|0:0,0:0:0:0:
487,80,30180,1,2,0:0:0:0:
487,80,30352,1,0,1:0:0:0:
146,196,30523,2,0,B|116:248|116:248|156:304,1,119.999996337891,10|0,0:0|0:0,0:0:0:0:
387,362,30866,5,0,1:0:0:0:
407,351,31209,2,0,P|424:303|402:228,1,119.999996337891,10|0,0:0|0:0,0:0:0:0:
344,194,31466,1,0,0:0:0:0:
344,194,31552,2,0,P|330:236|342:278,1,89.9999972534181,2|0,0:0|1:0,0:0:0:0:
499,354,31895,1,10,0:0:0:0:
223,290,32066,6,0,B|198:238|198:238|225:171,1,119.999996337891,2|0,0:0|1:0,0:0:0:0:
496,108,32409,1,2,0:0:0:0:
239,147,32580,1,10,0:0:0:0:
427,195,32752,1,0,0:0:0:0:
427,195,32837,2,0,L|414:122,1,59.9999981689454,8|2,0:0|0:0,0:0:0:0:
404,52,33009,1,8,0:0:0:0:
404,52,33094,1,0,1:0:0:0:
333,134,33266,1,10,0:0:0:0:
473,288,33437,2,0,L|501:311,1,29.9999990844727,0|0,0:0|0:0,0:0:0:0:
447,300,33523,2,0,L|460:335,1,29.9999990844727,0|0,0:0|0:0,0:0:0:0:
417,300,33609,6,0,B|329:289|329:289|284:332|284:332|189:322,1,239.999992675781,2|8,1:2|0:0,0:0:0:0:
427,195,34123,1,0,0:0:0:0:
242,117,34295,2,0,L|252:237,1,119.999996337891,2|0,0:0|1:0,0:0:0:0:
240,91,34637,1,8,0:0:0:0:
195,322,34809,1,2,0:0:0:0:
195,322,34895,1,2,0:0:0:0:
195,322,34980,5,0,1:0:0:0:
333,178,35152,1,2,0:0:0:0:
80,194,35323,2,0,L|199:184,1,119.999996337891,10|0,0:0|0:0,0:0:0:0:
472,57,35666,2,0,P|416:47|344:32,1,119.999996337891,2|0,0:0|1:0,0:0:0:0:
445,206,36009,1,10,0:0:0:0:
327,26,36180,1,0,0:0:0:0:
237,256,36352,6,0,P|173:306|28:254,1,239.999992675781,2|8,1:2|0:0,0:0:0:0:
23,240,37037,2,0,L|144:226,1,119.999996337891,2|0,0:0|1:0,0:0:0:0:
334,300,37380,1,8,0:0:0:0:
225,158,37552,1,2,0:0:0:0:
225,158,37637,1,2,0:0:0:0:
225,158,37723,5,0,1:0:0:0:
456,256,37895,1,2,0:0:0:0:
262,356,38066,2,0,B|230:307|230:307|255:251,1,119.999996337891,10|0,0:0|0:0,0:0:0:0:
449,150,38409,2,0,B|480:198|480:198|455:254,1,119.999996337891,2|0,0:0|1:0,0:0:0:0:
142,226,38752,1,10,0:0:0:0:
334,300,38923,2,0,L|342:337,1,29.9999990844727,0|0,0:0|0:0,0:0:0:0:
370,307,39009,2,0,L|378:344,1,29.9999990844727,0|0,0:0|0:0,0:0:0:0:
406,314,39095,6,0,P|430:235|397:83,1,239.999992675781,2|8,1:2|0:0,0:0:0:0:
255,250,39609,1,0,0:0:0:0:
292,114,39780,2,0,P|237:123|163:90,1,119.999996337891,2|0,0:0|1:0,0:0:0:0:
319,102,40123,1,10,0:0:0:0:
112,50,40295,1,2,0:0:0:0:
112,50,40380,1,2,0:0:0:0:
112,50,40466,5,0,1:0:0:0:
328,190,40637,1,0,0:0:0:0:
69,209,40809,2,0,P|124:188|239:233,1,179.999994506836,10|0,0:0|0:0,0:0:0:0:
293,277,41152,2,0,B|360:290|360:290|413:261,1,119.999996337891,2|0,0:0|1:0,0:0:0:0:
410,39,41495,1,10,0:0:0:0:
344,195,41666,1,0,0:0:0:0:
205,33,41837,5,0,1:0:0:0:
217,128,42180,1,2,1:2:0:0:
229,223,42523,1,2,1:2:0:0:
242,318,42866,1,2,1:2:0:0:
223,31,43209,5,0,1:0:0:0:
142,180,43380,1,2,1:2:0:0:
346,84,43552,1,2,1:2:0:0:
123,186,43723,1,0,1:0:0:0:
400,197,43895,1,2,1:2:0:0:
400,197,43980,2,0,L|441:199,2,29.9999990844727,0|0|0,1:0|1:0|1:0,0:0:0:0:
50,235,44237,2,0,B|23:181|23:181|54:130,1,119.999996337891,10|0,0:0|0:0,0:0:0:0:
346,84,44580,6,0,L|414:99,1,50,4|0,1:2|0:0,0:0:0:0:
512,55,44752,1,0,0:0:0:0:
512,55,44837,1,0,0:0:0:0:
512,55,44923,2,0,L|463:44,1,50,8|0,0:0|0:0,0:0:0:0:
317,166,45095,1,0,0:0:0:0:
267,38,45266,1,0,0:0:0:0:
211,227,45437,1,0,1:0:0:0:
140,14,45609,1,10,0:0:0:0:
140,14,45695,1,2,0:0:0:0:
140,14,45780,1,2,0:0:0:0:
140,14,45866,1,2,0:0:0:0:
169,26,45952,6,0,P|108:70|118:199,1,200,0|8,1:0|0:0,0:0:0:0:
216,258,46466,2,0,L|324:245,1,100,0|0,0:0|0:0,0:0:0:0:
115,283,46809,1,0,1:0:0:0:
255,164,46980,1,8,0:0:0:0:
344,242,47152,1,0,0:0:0:0:
437,134,47323,6,0,B|468:87|459:13|459:13|463:56|486:83,1,200,0|8,1:0|0:0,0:0:0:0:
442,256,47837,1,2,0:0:0:0:
442,256,47923,1,2,0:0:0:0:
442,256,48009,2,0,L|325:239,1,100,2|0,0:0|1:0,0:0:0:0:
115,283,48352,1,8,0:0:0:0:
115,283,48437,1,2,0:0:0:0:
115,283,48523,1,2,0:0:0:0:
115,283,48609,1,2,0:0:0:0:
145,298,48695,6,0,P|167:237|145:152,1,150,0|0,1:0|0:0,0:0:0:0:
128,140,49037,1,8,0:0:0:0:
169,158,49123,1,2,0:0:0:0:
214,159,49209,1,2,0:0:0:0:
256,144,49295,1,2,0:0:0:0:
285,110,49380,1,2,0:0:0:0:
194,57,49552,1,0,1:0:0:0:
400,95,49723,1,8,0:0:0:0:
359,232,49895,2,0,L|348:268,3,25,0|0|0|0,0:0|0:0|0:0|0:0,0:0:0:0:
415,304,50066,6,0,P|316:286|230:344,1,200,0|8,1:0|0:0,0:0:0:0:
17,204,50580,2,0,P|100:254|196:236,1,200,0|0,0:0|1:0,0:0:0:0:
438,117,51095,1,8,0:0:0:0:
400,95,51180,1,2,0:0:0:0:
355,88,51266,1,2,0:0:0:0:
312,98,51352,1,2,0:0:0:0:
275,123,51437,6,0,L|154:112,1,100,0|0,1:0|0:0,0:0:0:0:
371,216,51780,1,8,0:0:0:0:
371,216,51866,1,2,0:0:0:0:
371,216,51952,1,2,0:0:0:0:
371,216,52037,1,2,0:0:0:0:
371,216,52123,1,2,0:0:0:0:
400,95,52295,1,0,1:0:0:0:
462,257,52466,1,8,0:0:0:0:
400,95,52637,1,0,0:0:0:0:
503,331,52809,6,0,P|428:297|305:311,1,200,0|8,1:0|0:0,0:0:0:0:
189,358,53323,2,0,P|90:371|0:334,1,200,0|0,0:0|1:0,0:0:0:0:
89,207,53837,1,8,0:0:0:0:
128,203,53923,1,2,0:0:0:0:
167,199,54009,1,2,0:0:0:0:
206,195,54095,1,2,0:0:0:0:
245,191,54180,6,0,P|250:146|253:76,1,100,0|0,1:0|0:0,0:0:0:0:
142,95,54523,1,8,0:0:0:0:
359,54,54695,1,0,0:0:0:0:
359,54,54780,2,0,P|362:77|361:111,1,50,8|0,0:0|0:0,0:0:0:0:
355,188,54952,1,8,0:0:0:0:
355,188,55037,1,0,1:0:0:0:
260,293,55209,6,0,L|141:278,1,119.999996337891,8|0,0:0|0:0,0:0:0:0:
42,62,55552,6,0,P|115:21|242:47,1,200,0|8,1:0|0:0,0:0:0:0:
291,162,56066,1,2,0:0:0:0:
291,162,56152,1,2,0:0:0:0:
291,162,56237,1,2,0:0:0:0:
337,30,56409,1,0,1:0:0:0:
190,167,56580,1,8,0:0:0:0:
151,189,56665,1,2,0:0:0:0:
107,195,56751,1,2,0:0:0:0:
63,184,56837,1,2,0:0:0:0:
27,158,56923,6,0,B|-16:102|14:23|14:23|13:59|35:87,1,200,0|8,1:0|0:0,0:0:0:0:
71,279,57437,1,2,0:0:0:0:
71,279,57523,1,2,0:0:0:0:
71,279,57609,1,2,0:0:0:0:
130,105,57780,2,0,P|175:83|225:86,1,100,0|8,1:0|0:0,0:0:0:0:
372,129,58123,1,0,0:0:0:0:
191,174,58295,6,0,P|271:185|379:122,1,200,0|8,1:0|0:0,0:0:0:0:
477,365,58809,2,0,P|393:313|295:320,1,200,0|0,0:0|1:0,0:0:0:0:
71,279,59323,1,8,0:0:0:0:
39,246,59408,1,2,0:0:0:0:
23,205,59494,1,2,0:0:0:0:
23,160,59580,1,2,0:0:0:0:
40,119,59666,6,0,B|94:81|94:81|179:103,1,150,0|0,1:0|0:0,0:0:0:0:
263,88,60009,1,8,0:0:0:0:
263,88,60095,1,2,0:0:0:0:
263,88,60180,1,2,0:0:0:0:
263,88,60266,1,2,0:0:0:0:
272,117,60352,6,0,P|315:132|366:117,1,100,2|0,0:0|1:0,0:0:0:0:
449,52,60695,1,8,0:0:0:0:
195,190,60866,2,0,L|203:222,3,25,0|0|0|0,0:0|0:0|0:0|0:0,0:0:0:0:
133,265,61037,6,0,P|217:245|321:298,1,200,0|8,1:0|0:0,0:0:0:0:
491,233,61552,2,0,P|404:227|311:298,1,200,0|0,0:0|1:0,0:0:0:0:
101,350,62066,1,8,0:0:0:0:
64,325,62151,1,2,0:0:0:0:
43,285,62237,1,2,0:0:0:0:
43,241,62323,1,2,0:0:0:0:
65,202,62409,6,0,P|155:205|271:169,1,200,0|8,1:0|0:0,0:0:0:0:
411,79,62923,2,0,P|321:81|205:45,1,200,0|0,0:0|1:0,0:0:0:0:
436,74,63437,1,8,0:0:0:0:
260,174,63609,1,0,0:0:0:0:
446,167,63780,6,0,P|462:258|432:365,1,200,0|8,1:0|0:0,0:0:0:0:
278,257,64295,1,0,0:0:0:0:
373,213,64466,2,0,P|381:258|366:312,1,100,0|0,0:0|1:0,0:0:0:0:
183,301,64809,1,8,0:0:0:0:
183,301,64895,1,2,0:0:0:0:
183,301,64980,1,2,0:0:0:0:
183,301,65066,1,2,0:0:0:0:
183,301,65152,6,0,P|175:255|190:202,1,100,0|0,1:0|0:0,0:0:0:0:
296,18,65495,1,8,0:0:0:0:
371,128,65666,1,0,0:0:0:0:
371,128,65752,2,0,L|303:119,1,50,8|0,0:0|0:0,0:0:0:0:
241,114,65923,1,8,0:0:0:0:
241,114,66009,1,0,1:0:0:0:
472,70,66180,6,0,B|504:120|504:120|477:173,1,119.999996337891,8|0,0:0|0:0,0:0:0:0:
188,204,66523,6,0,P|150:158|154:46,1,160,4|8,1:2|0:3,0:0:0:0:
265,255,67037,1,0,1:0:0:0:
241,114,67209,1,8,0:0:0:0:
107,158,67380,1,0,0:0:0:0:
348,60,67552,2,0,L|370:114,1,40,8|0,1:3|0:0,0:0:0:0:
349,238,67723,2,0,L|333:200,1,40,0|0,0:0|0:0,0:0:0:0:
241,114,67895,5,0,1:0:0:0:
454,147,68066,2,0,L|440:248,1,80,0|8,1:0|0:3,0:0:0:0:
254,334,68409,1,0,0:0:0:0:
254,334,68580,2,0,L|264:254,1,80,8|0,0:0|0:0,0:0:0:0:
107,158,68923,1,8,0:3:0:0:
241,114,69095,2,0,L|185:120,1,40,2|0,0:0|0:0,0:0:0:0:
107,158,69266,6,0,P|75:232|106:308,1,160,0|8,1:0|0:3,0:0:0:0:
349,285,69780,1,0,1:0:0:0:
254,334,69952,2,0,P|246:295|246:239,1,80,8|0,0:0|0:0,0:0:0:0:
329,88,70295,2,0,P|334:115|335:143,1,40,8|0,1:3|0:0,0:0:0:0:
241,114,70466,2,0,P|246:141|247:169,1,40,0|0,0:0|0:0,0:0:0:0:
417,91,70637,5,0,1:0:0:0:
164,147,70809,2,0,P|92:137|52:58,1,160,0|0,1:0|0:0,0:0:0:0:
335,127,71323,2,0,P|362:194|313:268,1,160,8|8,0:0|0:3,0:0:0:0:
139,62,71837,1,0,1:0:0:0:
274,191,72009,6,0,P|212:204|161:288,1,160,0|8,1:0|0:3,0:0:0:0:
304,366,72523,1,0,1:0:0:0:
256,284,72695,2,0,L|350:274,1,80,8|0,0:0|0:0,0:0:0:0:
484,171,73037,2,0,L|431:164,1,40,8|0,1:3|0:0,0:0:0:0:
456,87,73209,2,0,L|495:92,1,40,0|0,0:0|0:0,0:0:0:0:
510,174,73380,5,0,1:0:0:0:
372,74,73552,2,0,L|268:60,1,80,0|8,1:0|0:3,0:0:0:0:
194,180,73895,1,0,0:0:0:0:
194,180,74066,1,8,0:0:0:0:
273,190,74237,1,0,0:0:0:0:
118,202,74409,1,8,0:3:0:0:
274,170,74580,1,0,0:0:0:0:
118,223,74752,5,0,1:0:0:0:
292,63,74923,1,0,1:0:0:0:
251,302,75095,1,0,1:0:0:0:
193,47,75266,1,0,1:0:0:0:
403,257,75437,5,0,1:0:0:0:
69,144,75609,1,0,1:0:0:0:
425,107,75780,2,0,L|362:133,1,40,8|0,1:3|0:0,0:0:0:0:
273,190,75952,1,0,1:0:0:0:
273,190,76037,1,2,0:0:0:0:
273,190,76123,5,0,1:0:0:0:
296,207,76209,1,0,1:0:0:0:
301,236,76295,1,0,1:0:0:0:
287,261,76380,1,0,1:0:0:0:
259,272,76466,5,8,1:3:0:0:
234,248,76552,1,0,1:0:0:0:
229,211,76637,1,0,1:0:0:0:
253,180,76723,1,0,1:0:0:0:
284,160,76809,1,0,1:0:0:0:
305,123,76895,1,0,1:0:0:0:
310,81,76980,1,0,1:0:0:0:
296,41,77066,1,0,1:0:0:0:
261,16,77152,5,8,0:0:0:0:
261,16,77323,1,0,0:0:0:0:
376,188,77495,5,4,1:2:0:0:
219,91,77666,1,0,0:0:0:0:
447,240,77837,1,8,0:0:0:0:
144,324,78009,2,0,P|116:272|129:214,1,119.999996337891,0|0,0:0|0:0,0:0:0:0:
376,188,78352,2,0,P|403:240|388:296,1,119.999996337891,0|8,1:0|0:0,0:0:0:0:
388,296,78609,1,2,0:0:0:0:
388,296,78695,1,2,0:0:0:0:
388,296,78780,1,2,0:0:0:0:
387,295,78866,5,0,1:0:0:0:
325,108,79037,1,0,0:0:0:0:
189,264,79209,1,8,0:0:0:0:
445,62,79380,2,0,B|328:19|334:132|217:90,1,239.999992675781,0|0,0:0|1:0,0:0:0:0:
398,141,79895,1,8,0:0:0:0:
192,80,80066,1,0,0:0:0:0:
507,7,80237,5,0,1:0:0:0:
310,185,80409,1,0,0:0:0:0:
265,15,80580,1,8,0:0:0:0:
378,271,80752,2,0,L|239:285,1,119.999996337891,0|0,0:0|0:0,0:0:0:0:
30,245,81095,1,0,1:0:0:0:
241,147,81266,1,8,0:0:0:0:
279,168,81351,1,2,0:0:0:0:
298,209,81437,1,2,0:0:0:0:
290,252,81523,1,2,0:0:0:0:
258,283,81609,6,0,B|191:287|191:287|158:318|158:318|91:323,1,179.999994506836,0|0,1:0|0:0,0:0:0:0:
16,253,81952,2,0,B|-14:205|-14:205|17:150,1,119.999996337891,8|0,0:0|0:0,0:0:0:0:
234,370,82295,1,0,0:0:0:0:
88,204,82466,1,0,1:0:0:0:
358,155,82637,1,8,0:0:0:0:
169,197,82809,2,0,L|160:162,3,29.9999990844727,0|0|0|0,0:0|0:0|0:0|0:0,0:0:0:0:
242,160,82980,5,0,1:0:0:0:
17,149,83152,2,0,B|1:87|1:87|13:53,1,100,0|8,0:0|0:0,0:0:0:0:
358,155,83495,1,0,0:0:0:0:
242,160,83666,2,0,B|281:174|281:174|357:155,1,119.999996337891,0|0,0:0|1:0,0:0:0:0:
276,32,84009,2,0,L|284:91,1,59.9999981689454,8|2,0:0|0:0,0:0:0:0:
169,227,84180,2,0,L|160:167,1,59.9999981689454,2|2,0:0|0:0,0:0:0:0:
357,155,84352,5,0,1:0:0:0:
87,94,84523,1,0,0:0:0:0:
254,249,84695,1,8,0:0:0:0:
83,119,84866,2,0,B|73:186|21:215|21:215|-3:271|39:330,1,239.999992675781,0|0,0:0|1:0,0:0:0:0:
218,348,85380,1,8,0:0:0:0:
218,348,85466,1,2,0:0:0:0:
218,348,85552,1,2,0:0:0:0:
104,266,85723,6,0,B|157:263|193:222|193:222|262:217|324:295,1,239.999992675781,0|8,1:0|0:0,0:0:0:0:
480,339,86237,2,0,P|433:353|388:334,1,100,0|0,0:0|0:0,0:0:0:0:
170,142,86580,2,0,P|216:127|261:146,1,100,0|8,1:0|0:0,0:0:0:0:
438,281,86923,1,2,0:0:0:0:
438,281,87009,1,2,0:0:0:0:
438,281,87095,6,0,B|386:311|386:311|328:294,1,119.999996337891,0|0,1:0|0:0,0:0:0:0:
52,106,87437,1,8,0:0:0:0:
216,203,87609,1,2,0:0:0:0:
216,203,87695,2,0,L|72:191,1,119.999996337891,10|10,0:0|0:0,0:0:0:0:
82,204,87952,1,0,1:0:0:0:
314,131,88123,1,8,0:0:0:0:
149,285,88295,2,0,P|139:296|137:311,1,29.9999990844727,0|0,0:0|0:0,0:0:0:0:
173,306,88380,2,0,P|173:320|180:333,1,29.9999990844727,0|0,0:0|0:0,0:0:0:0:
204,306,88466,6,0,P|253:334|320:320,1,119.999996337891,0|0,1:0|0:0,0:0:0:0:
416,257,88809,1,8,0:0:0:0:
51,311,88980,2,0,L|39:184,1,119.999996337891,0|0,0:0|0:0,0:0:0:0:
324,204,89323,2,0,L|312:323,1,119.999996337891,0|8,1:0|0:0,0:0:0:0:
312,323,89580,1,2,0:0:0:0:
312,323,89666,1,2,0:0:0:0:
312,323,89752,1,2,0:0:0:0:
312,323,89837,5,0,1:0:0:0:
333,118,90009,1,0,0:0:0:0:
440,283,90180,1,8,0:0:0:0:
248,95,90352,2,0,B|216:65|217:25|217:25|296:5|375:36,1,239.999992675781,0|0,0:0|1:0,0:0:0:0:
446,141,90866,1,8,0:0:0:0:
188,12,91037,6,0,P|140:28|31:31,1,119.999996337891,0|0,0:0|1:0,0:0:0:0:
333,118,91380,1,0,0:0:0:0:
333,118,91552,1,8,0:0:0:0:
96,201,91723,2,0,P|152:180|202:148,1,119.999996337891,0|0,0:0|0:0,0:0:0:0:
473,51,92066,2,0,P|416:30|357:22,1,119.999996337891,0|8,1:0|0:0,0:0:0:0:
198,295,92409,1,2,0:0:0:0:
198,295,92495,1,2,0:0:0:0:
198,295,92580,6,0,P|265:339|365:316,1,179.999994506836,0|0,1:0|0:0,0:0:0:0:
424,250,92923,2,0,B|449:195|449:195|401:146,1,119.999996337891,8|0,0:0|0:0,0:0:0:0:
88,296,93266,1,0,0:0:0:0:
345,212,93437,1,0,1:0:0:0:
104,171,93609,1,8,0:0:0:0:
441,327,93780,2,0,L|431:367,2,39.9999987792969,0|0|0,0:0|0:0|0:0,0:0:0:0:
358,320,93952,5,0,1:0:0:0:
488,127,94123,2,0,P|498:68|462:21,1,119.999996337891,0|8,0:0|0:0,0:0:0:0:
196,193,94466,2,0,P|161:240|172:297,1,119.999996337891,0|0,0:0|0:0,0:0:0:0:
87,95,94809,1,0,1:0:0:0:
192,315,94980,1,8,0:0:0:0:
14,64,95152,1,2,0:0:0:0:
13,64,95237,1,2,0:0:0:0:
13,64,95323,6,0,P|115:20|161:125,1,239.999992675781,0|8,1:0|0:0,0:0:0:0:
63,269,95837,2,0,B|37:227|37:227|53:180,1,100,0|0,0:0|0:0,0:0:0:0:
286,146,96180,2,0,B|312:188|312:188|296:235,1,100,0|8,1:0|0:0,0:0:0:0:
129,218,96523,1,0,0:0:0:0:
378,314,96695,6,0,B|320:272|247:266|194:300|194:300|142:355|63:363|8:323,1,400,0|0,1:0|0:0,0:0:0:0:
105,144,97552,2,0,L|87:107,1,25,0|2,1:0|0:0,0:0:0:0:
126,139,97637,2,0,L|121:98,1,25,2|2,0:0|0:0,0:0:0:0:
147,141,97723,2,0,L|174:31,1,100,8|2,0:0|0:0,0:0:0:0:
156,26,97980,1,2,0:0:0:0:
155,25,98066,6,0,B|256:-7|248:89|342:56,1,200,0|8,1:0|0:0,0:0:0:0:
195,102,98580,1,2,0:0:0:0:
195,102,98666,1,10,0:0:0:0:
421,21,98837,1,10,0:0:0:0:
421,21,98923,1,0,1:0:0:0:
275,158,99095,1,8,0:0:0:0:
342,55,99266,1,0,0:0:0:0:
423,150,99437,5,0,1:0:0:0:
60,323,102180,5,0,1:0:0:0:
125,261,102352,1,0,1:0:0:0:
234,260,102523,1,0,1:0:0:0:
323,340,102695,1,0,1:0:0:0:
450,314,102866,5,0,1:0:0:0:
307,358,103037,1,0,1:0:0:0:
210,226,103209,1,0,1:0:0:0:
60,323,103380,1,0,1:0:0:0:
339,237,103552,5,0,1:0:0:0:
366,215,103637,1,0,1:0:0:0:
377,181,103723,1,0,1:0:0:0:
373,140,103809,1,0,1:0:0:0:
345,110,103895,5,8,1:3:0:0:
301,100,103980,1,0,1:0:0:0:
259,118,104066,1,0,1:0:0:0:
240,164,104152,1,0,1:0:0:0:
242,213,104237,1,0,1:0:0:0:
226,260,104323,1,0,1:0:0:0:
181,282,104409,1,0,1:0:0:0:
127,269,104495,1,0,1:0:0:0:
105,218,104580,5,8,0:0:0:0:
262,33,104752,2,0,L|248:2,1,25,0|0,0:0|0:0,0:0:0:0:
295,25,104837,2,0,L|292:-8,1,25,0|0,0:0|0:0,0:0:0:0:
328,28,104923,6,0,L|393:39,2,50,4|0|0,1:2|0:0|0:0,0:0:0:0:
182,52,105180,1,0,0:0:0:0:
182,52,105266,2,0,L|132:43,1,50,8|0,0:0|0:0,0:0:0:0:
301,100,105437,1,0,0:0:0:0:
106,37,105609,1,0,0:0:0:0:
240,164,105780,1,0,1:0:0:0:
45,101,105952,1,8,0:0:0:0:
45,101,106037,1,2,0:0:0:0:
45,101,106123,1,2,0:0:0:0:
45,101,106209,1,2,0:0:0:0:
67,114,106295,6,0,L|93:321,1,200,0|8,1:0|0:0,0:0:0:0:
322,255,106809,2,0,L|427:229,1,100,0|0,0:0|0:0,0:0:0:0:
219,281,107152,1,0,1:0:0:0:
343,155,107323,1,8,0:0:0:0:
397,323,107495,1,0,0:0:0:0:
429,119,107666,6,0,P|372:66|262:109,1,200,0|8,1:0|0:0,0:0:0:0:
291,333,108180,1,2,0:0:0:0:
291,333,108266,1,2,0:0:0:0:
291,333,108352,1,2,0:0:0:0:
343,155,108523,1,0,1:0:0:0:
199,265,108695,1,10,0:0:0:0:
160,287,108780,1,2,0:0:0:0:
115,288,108866,1,2,0:0:0:0:
76,268,108952,1,2,0:0:0:0:
50,232,109037,6,0,L|64:123,1,100,0|0,1:0|0:0,0:0:0:0:
260,195,109380,1,10,0:0:0:0:
260,195,109466,1,2,0:0:0:0:
260,195,109552,1,2,0:0:0:0:
220,185,109637,1,2,0:0:0:0:
181,176,109723,1,2,0:0:0:0:
343,155,109895,1,0,1:0:0:0:
181,176,110066,1,8,0:0:0:0:
419,122,110237,2,0,L|430:164,3,25,0|0|0|0,0:0|0:0|0:0|0:0,0:0:0:0:
437,221,110409,6,0,P|354:170|259:194,1,200,0|8,1:0|0:0,0:0:0:0:
41,303,110923,2,0,P|123:353|218:329,1,200,0|0,0:0|1:0,0:0:0:0:
334,264,111437,1,10,0:0:0:0:
359,233,111522,1,2,0:0:0:0:
369,195,111608,1,2,0:0:0:0:
364,155,111694,1,2,0:0:0:0:
342,122,111780,6,0,L|460:137,1,100,0|0,1:0|0:0,0:0:0:0:
203,43,112123,2,0,L|261:50,1,50,10|2,0:0|0:0,0:0:0:0:
262,72,112295,2,0,L|213:66,1,50,2|2,0:0|0:0,0:0:0:0:
124,96,112466,2,0,L|6:81,1,100,0|0,0:0|1:0,0:0:0:0:
200,157,112809,1,8,0:0:0:0:
1,79,112980,1,0,0:0:0:0:
355,35,113152,6,0,P|395:107|347:226,1,200,0|8,1:0|0:0,0:0:0:0:
116,314,113666,2,0,B|74:297|74:258|74:258|127:297|195:279,1,200,0|0,0:0|1:0,0:0:0:0:
450,321,114180,1,10,0:0:0:0:
431,280,114265,1,2,0:0:0:0:
397,251,114351,1,2,0:0:0:0:
353,240,114437,1,2,0:0:0:0:
310,249,114523,6,0,P|374:263|451:166,1,200,0|8,1:0|0:0,0:0:0:0:
293,55,115037,1,0,0:0:0:0:
293,55,115123,2,0,L|329:115,1,50,8|0,0:0|0:0,0:0:0:0:
365,177,115295,1,8,0:0:0:0:
365,177,115381,1,0,1:0:0:0:
491,42,115552,6,0,B|466:34|449:14|449:14|424:32|384:31,1,119.999996337891,8|0,0:0|0:0,0:0:0:0:
197,222,115895,6,0,P|157:255|96:251,1,100,0|2,1:0|0:0,0:0:0:0:
71,246,116152,1,2,0:0:0:0:
42,217,116237,2,0,L|49:162,1,50,10|0,0:0|0:0,0:0:0:0:
272,189,116409,1,2,0:0:0:0:
298,218,116494,1,2,0:0:0:0:
306,257,116580,1,2,0:0:0:0:
292,294,116666,1,2,0:0:0:0:
261,319,116752,1,0,1:0:0:0:
110,256,116923,1,8,0:0:0:0:
229,252,117095,1,0,0:0:0:0:
16,316,117266,6,0,L|-3:92,1,200,0|8,1:0|0:0,0:0:0:0:
293,192,117780,2,0,P|315:236|310:285,1,100,0|0,0:0|0:0,0:0:0:0:
107,342,118123,1,0,1:0:0:0:
229,252,118295,1,8,0:0:0:0:
80,238,118466,1,0,0:0:0:0:
357,344,118637,6,0,P|395:293|354:157,1,200,0|8,1:0|0:0,0:0:0:0:
135,38,119152,1,0,0:0:0:0:
332,91,119323,1,0,0:0:0:0:
183,133,119495,1,0,1:0:0:0:
419,27,119666,1,10,0:0:0:0:
419,27,119752,1,2,0:0:0:0:
419,27,119837,1,2,0:0:0:0:
419,27,119923,1,2,0:0:0:0:
419,27,120009,6,0,L|439:146,1,100,0|0,1:0|0:0,0:0:0:0:
289,252,120352,1,10,0:0:0:0:
289,252,120437,1,2,0:0:0:0:
289,252,120523,1,2,0:0:0:0:
249,245,120609,1,2,0:0:0:0:
209,238,120695,1,2,0:0:0:0:
359,197,120866,1,0,1:0:0:0:
215,324,121037,1,8,0:0:0:0:
245,161,121209,2,0,L|254:112,2,33.3333333333333,0|0|0,0:0|0:0|0:0,0:0:0:0:
194,225,121380,6,0,P|111:256|13:209,1,200,0|8,1:0|0:0,0:0:0:0:
156,62,121895,2,0,P|242:17|335:48,1,200,0|0,0:0|1:0,0:0:0:0:
441,187,122409,1,10,0:0:0:0:
435,226,122494,1,2,0:0:0:0:
430,266,122580,1,2,0:0:0:0:
425,305,122666,1,2,0:0:0:0:
419,345,122752,6,0,B|373:369|373:369|326:353,1,100,0|0,1:0|0:0,0:0:0:0:
194,225,123095,2,0,L|247:216,1,50,10|2,0:0|0:0,0:0:0:0:
349,269,123266,2,0,L|299:277,1,50,2|2,0:0|0:0,0:0:0:0:
202,317,123437,2,0,B|180:275|180:275|194:224,1,100,0|0,0:0|1:0,0:0:0:0:
229,109,123780,1,8,0:0:0:0:
322,187,123952,1,0,0:0:0:0:
96,211,124123,6,0,B|71:164|71:112|71:112|50:160|7:183,1,200,0|8,1:0|0:0,0:0:0:0:
28,274,124637,1,0,0:0:0:0:
79,82,124809,2,0,L|196:74,1,100,0|0,0:0|1:0,0:0:0:0:
322,187,125152,1,8,0:0:0:0:
177,169,125323,1,0,0:0:0:0:
177,169,125409,1,0,0:0:0:0:
177,169,125495,6,0,P|240:178|352:98,1,200,0|8,1:0|0:0,0:0:0:0:
378,14,126009,1,0,0:0:0:0:
378,14,126095,2,0,L|444:23,1,50,8|0,0:0|0:0,0:0:0:0:
512,42,126266,1,8,0:0:0:0:
512,42,126352,1,0,1:0:0:0:
348,105,126523,6,0,P|296:129|232:115,1,119.999996337891,8|0,0:0|0:0,0:0:0:0:
37,346,126866,6,0,L|202:330,1,160,4|8,1:2|0:3,0:0:0:0:
320,258,127380,1,0,1:0:0:0:
224,327,127552,1,8,0:0:0:0:
342,151,127723,1,0,0:0:0:0:
357,272,127895,2,0,L|299:250,1,40,8|0,1:3|0:0,0:0:0:0:
252,325,128066,2,0,L|222:271,1,40,0|0,0:0|0:0,0:0:0:0:
139,290,128237,5,0,1:0:0:0:
253,178,128409,2,0,L|261:87,1,80,0|8,1:0|0:3,0:0:0:0:
164,127,128752,1,0,0:0:0:0:
427,201,128923,2,0,L|419:280,1,80,8|0,0:0|0:0,0:0:0:0:
330,229,129266,1,8,0:3:0:0:
330,229,129437,1,2,0:0:0:0:
419,280,129609,6,0,P|356:260|270:315,1,160,0|8,1:0|0:3,0:0:0:0:
359,356,130123,1,0,1:0:0:0:
253,178,130295,2,0,L|157:164,1,80,8|0,0:0|0:0,0:0:0:0:
57,276,130637,1,8,1:3:0:0:
76,278,130722,1,0,0:0:0:0:
96,281,130808,1,0,0:0:0:0:
116,284,130894,1,0,0:0:0:0:
136,287,130979,5,0,1:0:0:0:
253,178,131152,2,0,P|272:113|221:30,1,160,0|0,1:0|0:0,0:0:0:0:
234,275,131666,2,0,P|292:326|370:322,1,160,8|8,0:0|0:3,0:0:0:0:
494,190,132180,1,0,1:0:0:0:
329,224,132352,6,0,L|340:59,1,160,0|8,1:0|0:3,0:0:0:0:
228,195,132866,2,0,L|233:274,1,80,0|8,1:0|0:0,0:0:0:0:
422,263,133209,1,0,0:0:0:0:
234,358,133380,2,0,L|177:347,1,40,8|0,1:3|0:0,0:0:0:0:
136,277,133552,2,0,L|99:231,1,40,0|0,0:0|0:0,0:0:0:0:
112,151,133723,5,0,1:0:0:0:
329,224,133895,2,0,L|334:144,1,80,0|8,1:0|0:3,0:0:0:0:
161,61,134237,2,0,L|81:55,1,80,0|8,0:0|0:0,0:0:0:0:
330,111,134580,1,0,0:0:0:0:
230,142,134752,1,8,0:3:0:0:
406,37,134923,1,0,0:0:0:0:
213,151,135095,5,0,1:0:0:0:
442,129,135266,1,0,1:0:0:0:
196,160,135437,1,0,1:0:0:0:
437,244,135609,1,0,1:0:0:0:
179,169,135780,5,0,1:0:0:0:
434,23,135952,1,0,1:0:0:0:
162,178,136123,2,0,L|99:169,1,40,8|0,1:3|0:0,0:0:0:0:
23,204,136295,1,0,1:0:0:0:
23,204,136380,1,2,0:0:0:0:
23,204,136466,5,0,1:0:0:0:
48,185,136552,1,0,1:0:0:0:
83,182,136637,1,0,1:0:0:0:
116,196,136723,1,0,1:0:0:0:
143,225,136809,5,8,1:3:0:0:
173,250,136895,1,0,1:0:0:0:
212,256,136980,1,0,1:0:0:0:
251,250,137066,1,0,1:0:0:0:
287,224,137152,1,0,1:0:0:0:
324,201,137237,1,0,1:0:0:0:
368,200,137323,1,0,1:0:0:0:
411,220,137409,1,0,1:0:0:0:
436,261,137495,5,8,0:0:0:0:
436,261,137666,1,0,0:0:0:0:
116,196,137837,5,4,1:2:0:0:
348,279,138009,1,0,0:0:0:0:
140,109,138180,1,8,0:0:0:0:
279,343,138352,2,0,P|332:370|391:360,1,119.999996337891,0|0,0:0|0:0,0:0:0:0:
116,196,138695,2,0,P|58:181|3:203,1,119.999996337891,0|8,1:0|0:0,0:0:0:0:
3,202,138952,1,2,0:0:0:0:
3,202,139037,1,2,0:0:0:0:
3,202,139123,1,2,0:0:0:0:
3,202,139209,5,0,1:0:0:0:
255,252,139380,1,0,0:0:0:0:
65,288,139552,1,8,0:0:0:0:
373,172,139723,2,0,P|393:68|284:62,1,239.999992675781,0|0,0:0|1:0,0:0:0:0:
166,299,140237,1,8,0:0:0:0:
336,111,140409,1,0,0:0:0:0:
267,310,140580,5,0,1:0:0:0:
161,33,140752,1,0,0:0:0:0:
299,216,140923,1,8,0:0:0:0:
93,124,141095,2,0,L|243:137,1,119.999996337891,0|0,0:0|0:0,0:0:0:0:
427,75,141437,1,0,1:0:0:0:
389,292,141609,1,8,0:0:0:0:
359,320,141694,1,2,0:0:0:0:
319,332,141780,1,2,0:0:0:0:
278,326,141866,1,2,0:0:0:0:
243,303,141952,6,0,P|218:232|239:126,1,179.999994506836,0|0,1:0|0:0,0:0:0:0:
316,61,142295,2,0,B|372:45|372:45|426:74,1,119.999996337891,8|0,0:0|0:0,0:0:0:0:
133,335,142637,2,0,B|76:350|76:350|22:321,1,119.999996337891,0|0,0:0|1:0,0:0:0:0:
227,46,142980,1,8,0:0:0:0:
117,238,143152,2,0,L|89:230,3,29.9999990844727,0|0|0|0,0:0|0:0|0:0|0:0,0:0:0:0:
192,264,143323,5,0,1:0:0:0:
5,140,143495,2,0,B|-10:81|-10:81|0:43,1,100,0|8,0:0|0:0,0:0:0:0:
277,176,143837,1,0,0:0:0:0:
92,83,144009,1,0,0:0:0:0:
192,264,144180,1,0,1:0:0:0:
376,173,144352,2,0,L|382:103,1,59.9999981689454,8|2,0:0|0:0,0:0:0:0:
394,34,144523,1,2,0:0:0:0:
394,34,144609,1,2,0:0:0:0:
394,34,144695,5,0,1:0:0:0:
172,154,144866,1,0,0:0:0:0:
467,151,145037,1,8,0:0:0:0:
203,269,145209,2,0,B|151:224|171:152|171:152|231:160|282:126,1,239.999992675781,0|0,0:0|1:0,0:0:0:0:
394,34,145723,1,8,0:0:0:0:
292,231,145895,1,2,0:0:0:0:
138,60,146066,6,0,B|103:36|91:0|91:0|30:68|69:152,1,239.999992675781,0|8,1:0|0:0,0:0:0:0:
233,345,146580,2,0,P|281:353|329:338,1,100,0|0,0:0|0:0,0:0:0:0:
165,144,146923,2,0,P|116:135|68:150,1,100,0|8,1:0|0:0,0:0:0:0:
0,352,147266,1,2,0:0:0:0:
0,352,147352,1,2,0:0:0:0:
0,352,147437,6,0,B|53:343|53:343|64:347|64:347|118:339,1,119.999996337891,0|0,1:0|0:0,0:0:0:0:
277,129,147780,1,8,0:0:0:0:
127,234,147952,1,2,0:0:0:0:
127,234,148037,2,0,B|181:241|181:241|192:237|192:237|251:245,1,119.999996337891,10|10,0:0|0:0,0:0:0:0:
261,258,148295,1,0,1:0:0:0:
68,150,148466,1,8,0:0:0:0:
277,129,148637,2,0,L|275:88,1,29.9999990844727,0|0,0:0|0:0,0:0:0:0:
307,125,148723,2,0,L|305:84,1,29.9999990844727,0|0,0:0|0:0,0:0:0:0:
337,122,148809,6,0,P|351:69|323:11,1,119.999996337891,0|0,1:0|0:0,0:0:0:0:
149,142,149152,1,8,0:0:0:0:
451,38,149323,2,0,L|440:180,1,119.999996337891,0|0,0:0|0:0,0:0:0:0:
158,261,149666,2,0,L|148:141,1,119.999996337891,0|8,1:0|0:0,0:0:0:0:
149,142,149923,1,2,0:0:0:0:
149,142,150009,1,2,0:0:0:0:
149,142,150095,1,2,0:0:0:0:
149,142,150180,5,0,1:0:0:0:
425,241,150352,1,0,0:0:0:0:
248,209,150523,1,8,0:0:0:0:
484,347,150695,2,0,B|361:291|379:406|256:359,1,239.999992675781,0|0,0:0|1:0,0:0:0:0:
90,184,151209,1,8,0:0:0:0:
308,269,151380,1,0,0:0:0:0:
164,319,151552,5,0,1:0:0:0:
392,189,151723,1,0,0:0:0:0:
256,359,151895,1,8,0:0:0:0:
475,241,152066,2,0,P|480:181|464:123,1,119.999996337891,0|0,0:0|0:0,0:0:0:0:
174,201,152409,2,0,P|158:258|163:318,1,119.999996337891,0|8,1:0|0:0,0:0:0:0:
392,289,152752,1,2,0:0:0:0:
350,279,152837,1,2,0:0:0:0:
308,269,152923,6,0,L|94:288,1,179.999994506836,0|0,1:0|0:0,0:0:0:0:
40,243,153266,2,0,P|13:195|35:129,1,119.999996337891,8|0,0:0|0:0,0:0:0:0:
351,110,153609,1,0,0:0:0:0:
102,184,153780,1,0,1:0:0:0:
308,269,153952,1,8,0:0:0:0:
74,65,154123,2,0,L|19:46,2,39.9999987792969,0|0|0,0:0|0:0|0:0,0:0:0:0:
147,96,154295,5,0,1:0:0:0:
72,342,154466,2,0,P|131:346|186:324,1,119.999996337891,0|8,0:0|0:0,0:0:0:0:
465,127,154809,2,0,P|409:104|350:109,1,119.999996337891,0|0,0:0|0:0,0:0:0:0:
116,262,155152,1,0,1:0:0:0:
336,13,155323,1,8,0:0:0:0:
299,237,155495,1,2,0:0:0:0:
299,237,155580,1,2,0:0:0:0:
299,237,155666,6,0,P|207:268|139:151,1,239.999992675781,0|8,1:0|0:0,0:0:0:0:
336,13,156180,2,0,P|386:7|448:7,1,100,0|0,0:0|0:0,0:0:0:0:
228,179,156523,1,0,1:0:0:0:
395,101,156695,1,8,0:0:0:0:
317,214,156866,1,0,0:0:0:0:
113,91,157037,6,0,B|73:74|48:25|85:-12|197:37|137:165|137:165|97:184|83:212|83:212|98:253|94:281,1,400,0|0,1:0|0:0,0:0:0:0:
250,293,157895,2,0,L|274:286,1,25,0|2,1:0|0:0,0:0:0:0:
237,273,157980,2,0,L|257:258,1,25,2|2,0:0|0:0,0:0:0:0:
221,260,158066,5,8,0:0:0:0:
37,140,158237,1,2,0:0:0:0:
37,140,158323,1,2,0:0:0:0:
37,140,158409,6,0,B|115:125|115:125|149:146|149:146|228:131,1,200,0|8,1:0|0:0,0:0:0:0:
103,212,158923,1,2,0:0:0:0:
103,212,159009,1,10,0:0:0:0:
308,116,159180,1,10,0:0:0:0:
308,116,159266,1,0,1:0:0:0:
168,64,159437,1,8,0:0:0:0:
374,17,159609,1,0,0:0:0:0:
308,116,159780,5,4,1:2:0:0:
0,24,160123,2,0,B|32:70|32:70|27:96|18:132|18:132|27:96|45:72|45:72|87:39,1,239.999992675781,8|8,0:3|0:3,0:0:0:0:
195,203,161152,5,2,0:0:0:0:
101,170,161495,2,0,B|116:127|159:114|180:83|180:83|176:120|209:161|194:203,1,239.999992675781,8|8,0:3|0:3,0:0:0:0:
356,97,162523,5,2,0:0:0:0:
282,230,162866,2,0,B|280:192|305:164|305:164|317:213|340:251|340:251|363:230|366:179,1,239.999992675781,8|8,0:3|0:3,0:0:0:0:
50,239,163895,5,2,0:0:0:0:
35,356,164237,2,0,B|20:315|53:274|49:237|49:237|70:268|113:281|129:324,1,239.999992675781,8|8,0:3|0:3,0:0:0:0:
349,173,165266,5,2,0:0:0:0:
216,226,165609,2,0,B|202:230|195:224|194:204|194:204|210:184|239:188|239:188|272:220|269:272|269:272|249:298|211:300,1,239.999992675781,8|8,0:3|0:3,0:0:0:0:
362,168,166637,6,0,B|381:199|382:244|382:244|354:209|349:173,2,160,2|8|0,0:0|0:3|0:0,0:0:0:0:
327,95,167666,1,8,0:3:0:0:
57,331,168009,6,0,B|36:308|37:277|37:277|71:301|106:313|106:313|109:288|86:256,1,200,2|8,0:0|0:3,0:0:0:0:
198,297,168695,2,0,B|185:263|213:229|210:198|210:198|227:224|263:234|276:270,1,200,0|8,0:0|0:3,0:0:0:0:
352,177,169380,2,0,B|340:181|333:175|333:158|333:158|346:140|371:144|371:144|400:171|397:216|397:216|380:238|347:240,1,200,2|8,0:0|0:3,0:0:0:0:
481,101,170066,6,0,B|500:132|501:177|501:177|473:142|467:105,1,160,0|8,0:0|0:0,0:0:0:0:
440,26,170580,2,0,L|430:1,2,26.6666666666667,0|0|0,0:0|0:0|0:0,0:0:0:0:
364,45,170752,5,0,1:0:0:0:
368,58,171266,1,0,1:0:0:0:
288,117,171437,6,0,L|165:103,1,119.999996337891,8|0,0:0|0:0,0:0:0:0:
88,162,171780,1,0,1:0:0:0:
176,242,171952,6,0,L|347:230,1,160,0|0,0:0|1:0,0:0:0:0:
335,230,172637,2,0,L|400:170,1,80,0|8,0:0|0:0,0:0:0:0:
414,272,172980,2,0,L|335:230,1,89.9999972534181,0|0,0:0|0:0,0:0:0:0:
256,190,173323,1,0,0:0:0:0:
468,213,173495,6,0,L|483:46,1,160,0|0,1:0|0:0,0:0:0:0:
343,110,174009,1,0,1:0:0:0:
247,90,174180,6,0,B|184:79|184:79|134:106,1,119.999996337891,8|0,0:0|0:0,0:0:0:0:
51,156,174523,1,0,1:0:0:0:
201,180,174695,6,0,L|173:352,1,160,0|0,0:0|1:0,0:0:0:0:
175,337,175380,2,0,L|159:250,1,80,0|8,0:0|0:0,0:0:0:0:
247,90,175723,2,0,B|230:7|230:7|223:51,1,110.000003356934,0|0,0:0|0:0,0:0:0:0:
201,180,176066,1,0,1:0:0:0:
343,31,176237,5,0,1:0:0:0:
340,49,176752,1,0,1:0:0:0:
421,110,176923,6,0,P|438:165|414:219,1,119.999996337891,8|0,0:0|0:0,0:0:0:0:
326,269,177266,1,0,1:0:0:0:
201,180,177437,6,0,L|36:168,1,160,0|0,0:0|1:0,0:0:0:0:
41,168,178123,2,0,L|127:139,1,80,0|8,0:0|0:0,0:0:0:0:
201,180,178466,2,0,L|287:209,1,89.9999972534181,0|0,0:0|0:0,0:0:0:0:
315,292,178809,1,0,0:0:0:0:
197,86,178980,5,0,1:0:0:0:
256,192,179066,12,8,181037,0:0:0:0:
402,257,181209,6,0,B|356:218|356:218|310:284|310:284|266:243,1,200,0|0,1:0|1:0,0:0:0:0:
162,242,181666,1,0,0:0:0:0:
148,231,181723,6,0,P|100:134|129:10,1,239.999992675781,6|8,1:2|0:0,0:0:0:0:
290,151,182237,1,0,0:0:0:0:
154,11,182409,2,0,P|213:31|271:31,1,119.999996337891,2|0,0:0|1:0,0:0:0:0:
404,0,182752,1,8,0:0:0:0:
196,136,182923,1,2,0:0:0:0:
196,136,183009,1,2,0:0:0:0:
196,136,183095,5,0,1:0:0:0:
382,103,183266,1,2,0:0:0:0:
123,200,183437,2,0,P|99:151|117:80,1,119.999996337891,10|0,0:0|0:0,0:0:0:0:
386,3,183780,2,0,L|516:18,1,119.999996337891,2|0,0:0|1:0,0:0:0:0:
270,31,184123,1,10,0:0:0:0:
512,45,184295,1,0,0:0:0:0:
346,170,184466,6,0,P|245:148|114:208,1,239.999992675781,2|8,1:2|0:0,0:0:0:0:
109,220,185152,2,0,B|100:291|100:291|132:331,1,119.999996337891,2|0,0:0|1:0,0:0:0:0:
393,284,185495,1,8,0:0:0:0:
219,257,185666,1,2,0:0:0:0:
219,257,185752,1,2,0:0:0:0:
219,257,185837,5,0,1:0:0:0:
498,193,186009,1,2,0:0:0:0:
372,287,186180,2,0,L|344:164,1,119.999996337891,10|0,0:0|0:0,0:0:0:0:
54,29,186523,2,0,P|41:80|32:156,1,119.999996337891,2|0,0:0|1:0,0:0:0:0:
172,314,186866,1,10,0:0:0:0:
30,188,187037,2,0,L|0:164,1,29.9999990844727,0|0,0:0|0:0,0:0:0:0:
48,172,187123,2,0,L|28:139,1,29.9999990844727,0|0,0:0|0:0,0:0:0:0:
70,163,187209,6,0,P|174:178|304:128,1,239.999992675781,2|8,1:2|0:0,0:0:0:0:
454,206,187723,1,0,0:0:0:0:
248,58,187895,2,0,P|301:43|363:70,1,119.999996337891,2|0,0:0|1:0,0:0:0:0:
229,72,188237,1,10,0:0:0:0:
472,106,188409,1,2,0:0:0:0:
472,106,188495,1,2,0:0:0:0:
472,106,188580,6,0,P|400:141|294:128,1,179.999994506836,0|0,1:0|0:0,0:0:0:0:
235,89,188923,2,0,P|181:67|123:78,1,119.999996337891,10|0,0:0|0:0,0:0:0:0:
32,179,189266,1,2,0:0:0:0:
32,179,189437,1,0,1:0:0:0:
290,238,189609,2,0,B|322:190|322:190|302:131,1,119.999996337891,10|0,0:0|0:0,0:0:0:0:
27,275,189952,5,0,1:0:0:0:
24,295,190295,2,0,L|158:302,1,119.999996337891,10|0,0:0|0:0,0:0:0:0:
200,233,190552,1,0,0:0:0:0:
200,233,190637,2,0,L|296:238,1,89.9999972534181,2|0,0:0|1:0,0:0:0:0:
92,188,190980,1,10,0:0:0:0:
387,304,191152,6,0,L|393:184,1,119.999996337891,2|0,0:0|1:0,0:0:0:0:
200,233,191495,1,2,0:0:0:0:
394,156,191666,1,10,0:0:0:0:
265,142,191837,1,0,0:0:0:0:
265,142,191923,2,0,L|261:70,1,59.9999981689454,8|2,0:0|0:0,0:0:0:0:
262,1,192095,1,8,0:0:0:0:
262,1,192180,1,0,1:0:0:0:
390,78,192352,1,10,0:0:0:0:
219,217,192523,2,0,L|191:240,1,29.9999990844727,0|0,0:0|0:0,0:0:0:0:
245,229,192609,2,0,L|232:264,1,29.9999990844727,0|0,0:0|0:0,0:0:0:0:
275,229,192695,6,0,B|398:199|370:325|493:296,1,239.999992675781,2|8,1:2|0:0,0:0:0:0:
307,316,193209,1,0,0:0:0:0:
463,207,193380,2,0,L|475:70,1,119.999996337891,2|0,0:0|1:0,0:0:0:0:
490,296,193723,1,8,0:0:0:0:
380,141,193895,1,2,0:0:0:0:
380,141,193980,1,2,0:0:0:0:
380,141,194066,5,0,1:0:0:0:
463,207,194237,1,2,0:0:0:0:
292,71,194409,2,0,P|239:60|157:93,1,119.999996337891,10|0,0:0|0:0,0:0:0:0:
31,320,194752,2,0,B|85:343|85:343|138:314,1,119.999996337891,2|0,0:0|1:0,0:0:0:0:
261,238,195095,1,10,0:0:0:0:
2,308,195266,1,0,0:0:0:0:
347,356,195437,6,0,P|375:249|341:110,1,239.999992675781,2|8,1:2|0:0,0:0:0:0:
321,117,196123,2,0,L|196:106,1,119.999996337891,2|0,0:0|1:0,0:0:0:0:
376,26,196466,1,8,0:0:0:0:
254,209,196637,1,2,0:0:0:0:
254,209,196723,1,2,0:0:0:0:
254,209,196809,5,0,1:0:0:0:
178,104,196980,1,2,0:0:0:0:
326,300,197152,2,0,L|206:310,1,119.999996337891,10|0,0:0|0:0,0:0:0:0:
17,168,197495,2,0,B|-7:114|-7:114|24:62,1,119.999996337891,2|0,0:0|1:0,0:0:0:0:
310,27,197837,1,10,0:0:0:0:
118,119,198009,2,0,L|70:114,1,29.9999990844727,0|0,0:0|0:0,0:0:0:0:
123,146,198095,2,0,L|76:157,1,29.9999990844727,0|0,0:0|0:0,0:0:0:0:
136,169,198180,6,0,B|219:165|219:165|277:206|372:198,1,239.999992675781,2|8,1:2|0:0,0:0:0:0:
191,273,198695,1,0,0:0:0:0:
434,253,198866,2,0,B|463:213|463:213|439:147,1,119.999996337891,2|0,0:0|1:0,0:0:0:0:
197,74,199209,1,10,0:0:0:0:
369,198,199380,1,2,0:0:0:0:
369,198,199466,1,2,0:0:0:0:
369,198,199552,5,0,1:0:0:0:
405,77,199723,1,0,0:0:0:0:
301,260,199895,2,0,P|247:284|190:272,1,119.999996337891,10|0,0:0|0:0,0:0:0:0:
122,228,200152,1,0,0:0:0:0:
122,228,200237,2,0,B|114:176|114:176|100:163|100:163|93:103,1,119.999996337891,2|0,0:0|1:0,0:0:0:0:
0,277,200580,1,10,0:0:0:0:
0,277,200752,1,0,0:0:0:0:
221,107,200923,6,0,P|338:127|451:87,1,239.999992675781,0|2,1:0|1:2,0:0:0:0:
327,12,201437,1,0,0:0:0:0:
246,215,201609,2,0,B|323:223|323:223|361:254,1,119.999996337891,2|0,0:0|1:0,0:0:0:0:
494,167,201952,1,10,0:0:0:0:
291,315,202123,1,2,0:0:0:0:
291,315,202209,1,2,0:0:0:0:
291,315,202295,5,0,1:0:0:0:
221,107,202466,1,2,1:2:0:0:
355,249,202637,1,2,1:2:0:0:
92,80,202809,1,0,1:0:0:0:
434,22,202980,1,2,1:2:0:0:
434,22,203066,2,0,L|474:15,2,29.9999990844727,0|0|0,1:0|1:0|1:0,0:0:0:0:
272,179,203323,2,0,B|214:200|214:200|156:170,1,119.999996337891,10|2,0:0|0:0,0:0:0:0:
95,137,203580,1,2,0:0:0:0:
95,137,203666,5,4,1:2:0:0:
337,70,203837,1,0,0:0:0:0:
91,224,204009,1,8,0:0:0:0:
368,289,204180,2,0,L|376:169,1,119.999996337891,0|0,0:0|0:0,0:0:0:0:
22,175,204523,2,0,P|5:228|30:284,1,119.999996337891,0|8,1:0|0:0,0:0:0:0:
284,220,204866,1,2,0:0:0:0:
284,220,204952,1,2,0:0:0:0:
284,220,205037,5,0,1:0:0:0:
91,224,205209,1,0,0:0:0:0:
378,147,205380,1,8,0:0:0:0:
31,306,205552,2,0,B|-16:264|-16:264|21:81,1,239.999992675781,0|0,0:0|1:0,0:0:0:0:
284,220,206066,1,8,0:0:0:0:
130,75,206237,1,0,0:0:0:0:
164,261,206409,5,0,1:0:0:0:
402,133,206580,1,0,0:0:0:0:
213,156,206752,1,8,0:0:0:0:
512,90,206923,2,0,L|490:230,1,119.999996337891,0|0,0:0|0:0,0:0:0:0:
324,340,207266,1,0,1:0:0:0:
117,143,207437,1,8,0:0:0:0:
134,105,207522,1,2,0:0:0:0:
166,78,207608,1,2,0:0:0:0:
206,66,207694,1,2,0:0:0:0:
248,72,207780,6,0,B|323:86|323:86|342:106|342:106|418:120,1,179.999994506836,0|0,1:0|0:0,0:0:0:0:
482,193,208123,2,0,L|355:211,1,119.999996337891,8|0,0:0|0:0,0:0:0:0:
100,31,208466,1,0,0:0:0:0:
280,164,208637,1,0,1:0:0:0:
124,14,208809,1,8,0:0:0:0:
82,262,208980,2,0,L|73:310,2,39.9999987792969,0|0|0,0:0|0:0|0:0,0:0:0:0:
4,265,209152,5,0,1:0:0:0:
363,209,209323,2,0,B|380:161|380:161|357:107,1,100,0|8,0:0|0:0,0:0:0:0:
160,176,209666,1,0,0:0:0:0:
160,176,209752,1,0,0:0:0:0:
160,176,209837,2,0,L|310:160,1,119.999996337891,0|0,0:0|1:0,0:0:0:0:
481,32,210180,2,0,L|399:24,1,59.9999981689454,8|2,0:0|0:0,0:0:0:0:
321,86,210352,2,0,L|239:78,1,59.9999981689454,2|2,0:0|0:0,0:0:0:0:
152,167,210523,6,0,P|102:195|36:188,1,119.999996337891,0|0,1:0|0:0,0:0:0:0:
238,76,210866,1,8,0:0:0:0:
59,325,211037,2,0,B|90:279|159:273|159:273|210:317|274:314,1,239.999992675781,0|0,0:0|1:0,0:0:0:0:
448,274,211552,1,8,0:0:0:0:
448,274,211637,1,2,0:0:0:0:
448,274,211723,1,2,0:0:0:0:
251,216,211895,6,0,B|194:182|199:116|199:116|244:67|240:0,1,239.999992675781,0|8,1:0|0:0,0:0:0:0:
343,56,212409,2,0,L|448:67,1,100,0|0,0:0|0:0,0:0:0:0:
133,24,212752,1,0,1:0:0:0:
288,139,212923,1,8,0:0:0:0:
490,57,213095,1,2,0:0:0:0:
490,57,213180,1,2,0:0:0:0:
490,57,213266,5,0,1:0:0:0:
343,56,213437,1,0,0:0:0:0:
358,210,213609,1,8,0:0:0:0:
199,116,213780,1,2,0:0:0:0:
199,116,213866,2,0,L|64:97,1,119.999996337891,10|10,0:0|0:0,0:0:0:0:
62,109,214123,1,0,1:0:0:0:
241,226,214295,1,8,0:0:0:0:
420,109,214466,2,0,L|400:72,1,29.9999990844727,0|0,0:0|0:0,0:0:0:0:
445,92,214552,2,0,L|413:64,1,29.9999990844727,0|0,0:0|0:0,0:0:0:0:
462,67,214637,6,0,L|324:54,1,119.999996337891,0|0,1:0|0:0,0:0:0:0:
172,305,214980,1,8,0:0:0:0:
241,226,215152,2,0,P|187:201|124:210,1,119.999996337891,0|0,0:0|0:0,0:0:0:0:
0,48,215495,2,0,P|53:23|117:32,1,119.999996337891,0|8,1:0|0:0,0:0:0:0:
125,42,215752,1,2,0:0:0:0:
138,54,215837,1,2,0:0:0:0:
151,66,215923,1,2,0:0:0:0:
164,78,216009,5,0,1:0:0:0:
278,57,216180,1,0,0:0:0:0:
72,144,216352,1,8,0:0:0:0:
390,76,216523,2,0,P|413:175|311:165,1,239.999992675781,0|0,0:0|1:0,0:0:0:0:
112,30,217037,1,8,0:0:0:0:
306,83,217209,1,0,0:0:0:0:
72,144,217380,5,0,1:0:0:0:
394,43,217552,1,0,0:0:0:0:
242,224,217723,1,8,0:0:0:0:
432,353,217895,2,0,B|390:345|390:345|357:355|313:343,1,119.999996337891,0|0,0:0|0:0,0:0:0:0:
72,144,218237,2,0,B|114:136|114:136|147:146|190:134,1,119.999996337891,0|8,1:0|0:0,0:0:0:0:
449,237,218580,1,2,0:0:0:0:
449,237,218666,1,2,0:0:0:0:
449,237,218752,6,0,B|354:248|354:248|380:151,1,179.999994506836,0|0,1:0|0:0,0:0:0:0:
399,88,219095,1,8,0:0:0:0:
336,267,219266,1,0,0:0:0:0:
474,146,219437,1,0,0:0:0:0:
209,230,219609,1,0,1:0:0:0:
458,146,219780,1,8,0:0:0:0:
153,28,219952,2,0,L|135:80,2,39.9999987792969,0|0|0,0:0|0:0|0:0,0:0:0:0:
222,71,220123,5,0,1:0:0:0:
12,251,220295,2,0,P|62:220|122:217,1,119.999996337891,0|8,0:0|0:0,0:0:0:0:
490,238,220637,2,0,P|430:234|379:204,1,119.999996337891,0|0,0:0|0:0,0:0:0:0:
164,6,220980,1,0,1:0:0:0:
361,181,221152,1,8,0:0:0:0:
118,143,221323,1,2,0:0:0:0:
118,143,221409,1,2,0:0:0:0:
118,143,221495,6,0,B|172:137|197:96|197:96|260:121|339:89,1,239.999992675781,0|8,1:0|0:0,0:0:0:0:
490,239,222009,2,0,P|441:247|394:232,1,100,0|0,0:0|0:0,0:0:0:0:
285,18,222352,2,0,P|332:3|380:11,1,100,0|8,1:0|0:0,0:0:0:0:
500,105,222695,1,0,0:0:0:0:
279,206,222866,6,0,B|220:225|166:198|166:198|100:251|19:209|19:209|44:143|117:142,1,400,0|0,1:0|0:0,0:0:0:0:
346,157,223723,1,0,1:0:0:0:
362,187,223809,1,2,0:0:0:0:
360,222,223895,2,0,L|404:254,1,50,8|0,0:0|0:0,0:0:0:0:
284,300,224066,2,0,L|278:354,1,50,2|2,0:0|0:0,0:0:0:0:
177,289,224237,6,0,P|123:337|27:312,1,150,0|0,1:0|0:0,0:0:0:0:
28,303,224580,1,8,0:0:0:0:
239,211,224752,1,2,0:0:0:0:
239,211,224837,1,10,0:0:0:0:
95,249,225009,1,10,0:0:0:0:
95,249,225094,1,0,1:0:0:0:
284,300,225266,1,8,0:0:0:0:
146,161,225437,1,0,0:0:0:0:
369,124,225609,5,4,1:2:0:0:
256,192,225695,12,8,228009,0:0:0:0:
414,165,228352,6,0,P|360:199|240:131,1,200,0|8,1:0|0:0,0:0:0:0:
163,40,228866,1,0,0:0:0:0:
163,40,229037,2,0,P|118:18|69:22,1,100,2|0,0:0|1:0,0:0:0:0:
4,197,229380,2,0,L|41:163,1,50,8|2,0:0|0:0,0:0:0:0:
110,116,229552,1,2,0:0:0:0:
110,116,229637,1,2,0:0:0:0:
110,116,229723,5,0,1:0:0:0:
208,179,229895,2,0,L|245:145,1,50,2|2,0:0|0:0,0:0:0:0:
273,124,230066,1,8,0:0:0:0:
377,205,230237,1,0,0:0:0:0:
377,205,230409,2,0,P|432:214|481:187,1,100,2|0,0:0|1:0,0:0:0:0:
351,28,230752,2,0,L|228:17,1,100,10|0,0:0|0:0,0:0:0:0:
103,48,231095,6,0,P|61:126|128:216,1,200,0|8,1:0|0:0,0:0:0:0:
275,185,231609,1,0,0:0:0:0:
127,312,231780,2,0,P|180:279|319:301,1,200,2|8,0:0|0:0,0:0:0:0:
434,218,232295,2,0,L|453:111,1,100,2|0,0:0|1:0,0:0:0:0:
415,313,232637,1,0,0:0:0:0:
342,207,232809,2,0,L|323:100,1,100,10|0,0:0|0:0,0:0:0:0:
213,168,233152,2,0,L|253:237,1,80,2|0,0:0|1:0,0:0:0:0:
434,218,233495,2,0,L|453:111,1,100,10|0,0:0|0:0,0:0:0:0:
240,28,233837,6,0,P|169:57|74:29,1,150,0|0,1:0|0:0,0:0:0:0:
71,22,234180,1,10,0:0:0:0:
203,151,234352,1,0,0:0:0:0:
322,81,234523,2,0,L|430:72,1,100,2|0,0:0|1:0,0:0:0:0:
294,169,234866,1,10,0:0:0:0:
512,33,235037,2,0,L|503:141,1,100,2|0,0:0|1:0,0:0:0:0:
203,151,235380,5,2,0:0:0:0:
414,203,235552,2,0,L|405:103,1,100,10|2,0:0|0:0,0:0:0:0:
402,68,235809,1,10,0:0:0:0:
294,169,235980,1,10,0:0:0:0:
294,169,236066,1,0,1:0:0:0:
237,71,236237,1,8,0:0:0:0:
316,253,236409,2,0,L|354:257,2,33.3333333333333,0|0|0,0:0|0:0|0:0,0:0:0:0:
415,291,236580,6,0,B|344:284|344:284|301:322|301:322|228:315,1,200,0|8,1:0|0:0,0:0:0:0:
49,178,237095,1,0,0:0:0:0:
49,178,237266,2,0,L|167:160,1,100,2|0,0:0|1:0,0:0:0:0:
237,71,237609,2,0,L|300:80,1,50,8|2,0:0|0:0,0:0:0:0:
370,99,237780,1,2,0:0:0:0:
370,99,237866,1,2,0:0:0:0:
370,99,237952,5,0,1:0:0:0:
245,166,238123,1,2,0:0:0:0:
448,146,238295,2,0,B|470:104|470:104|450:56,1,100,10|0,0:0|0:0,0:0:0:0:
227,44,238637,2,0,P|181:63|131:67,1,100,2|0,0:0|1:0,0:0:0:0:
323,232,238980,2,0,L|437:241,1,100,10|0,0:0|0:0,0:0:0:0:
126,346,239323,6,0,B|66:329|57:273|57:273|105:267|140:232,1,200,0|8,1:0|0:0,0:0:0:0:
216,155,239837,1,0,0:0:0:0:
59,173,240009,2,0,P|34:130|40:82,1,100,2|0,0:0|1:0,0:0:0:0:
186,15,240352,2,0,L|149:65,1,50,8|0,0:0|0:0,0:0:0:0:
120,123,240523,1,2,0:0:0:0:
120,123,240609,1,2,0:0:0:0:
120,123,240695,5,0,1:0:0:0:
269,64,240866,2,0,L|328:63,1,50,2|2,0:0|0:0,0:0:0:0:
354,63,241037,1,8,0:0:0:0:
224,148,241209,1,0,0:0:0:0:
424,172,241380,2,0,L|325:160,1,100,2|0,0:0|1:0,0:0:0:0:
112,257,241723,2,0,L|211:244,1,100,10|0,0:0|0:0,0:0:0:0:
446,85,242066,6,0,B|406:47|406:47|312:36|312:36|264:65,1,200,0|8,1:0|0:0,0:0:0:0:
351,131,242580,1,0,0:0:0:0:
269,61,242752,2,0,L|153:52,1,100,2|0,0:0|1:0,0:0:0:0:
323,210,243095,2,0,L|372:213,1,50,8|0,0:0|0:0,0:0:0:0:
455,229,243266,1,2,0:0:0:0:
455,229,243352,1,2,0:0:0:0:
455,229,243437,5,0,1:0:0:0:
351,131,243609,1,0,0:0:0:0:
211,249,243780,2,0,L|95:258,1,100,10|0,0:0|0:0,0:0:0:0:
139,139,244123,2,0,L|217:161,1,80,2|0,0:0|1:0,0:0:0:0:
254,82,244466,2,0,L|172:23,1,100,10|0,0:0|0:0,0:0:0:0:
355,203,244809,6,0,P|411:230|486:182,1,150,0|0,1:0|0:0,0:0:0:0:
493,156,245152,1,2,0:0:0:0:
301,279,245323,1,0,0:0:0:0:
413,132,245495,2,0,L|398:28,1,100,2|0,0:0|1:0,0:0:0:0:
501,69,245837,1,10,0:0:0:0:
289,99,246009,2,0,L|190:115,1,100,0|0,0:0|1:0,0:0:0:0:
320,94,246352,5,2,0:0:0:0:
118,177,246523,2,0,P|96:137|101:82,1,100,10|2,0:0|0:0,0:0:0:0:
119,55,246780,1,10,0:0:0:0:
6,158,246952,1,10,0:0:0:0:
6,158,247037,1,0,1:0:0:0:
190,114,247209,1,8,0:0:0:0:
67,250,247380,2,0,L|35:255,2,33.3333333333333,0|0|0,0:0|0:0|0:0,0:0:0:0:
22,285,247552,6,0,P|99:272|170:306,1,160,2|0,1:2|0:0,0:0:0:0:
319,299,248066,1,0,1:0:0:0:
319,299,248237,2,0,P|243:278|169:306,1,160,10|0,0:0|1:0,0:0:0:0:
87,375,248752,1,2,0:0:0:0:
174,198,249095,1,2,1:2:0:0:
174,198,249266,2,0,L|162:100,1,80,2|0,0:0|0:0,0:0:0:0:
22,64,249609,6,0,L|36:185,1,119.999996337891,10|0,0:0|0:0,0:0:0:0:
266,239,249952,2,0,P|307:239|344:218,1,80,2|0,0:0|0:0,0:0:0:0:
472,59,250295,6,0,L|306:37,1,160,2|0,1:2|0:0,0:0:0:0:
164,118,250809,1,0,1:0:0:0:
335,68,250980,2,0,L|258:90,1,80,10|0,0:0|0:0,0:0:0:0:
164,118,251323,1,2,1:2:0:0:
302,227,251495,2,0,L|241:177,1,80,2|0,0:0|0:0,0:0:0:0:
164,118,251837,1,2,1:2:0:0:
335,68,252009,2,0,L|425:73,1,80,2|0,0:0|0:0,0:0:0:0:
397,301,252352,6,0,P|308:347|218:312,1,200,10|2,0:0|0:0,0:0:0:0:
164,118,252866,1,0,1:0:0:0:
289,249,253037,6,0,B|237:217|237:217|135:243,1,160,2|0,1:2|0:0,0:0:0:0:
47,270,253552,1,0,1:0:0:0:
153,145,253723,2,0,P|164:107|155:68,1,80,10|0,0:0|0:0,0:0:0:0:
74,107,254066,1,2,1:2:0:0:
231,19,254237,2,0,L|319:10,1,80,2|0,0:0|0:0,0:0:0:0:
216,324,254752,2,0,L|136:332,1,80,2|0,0:0|0:0,0:0:0:0:
44,236,255095,2,0,L|124:228,1,80,10|0,0:0|0:0,0:0:0:0:
343,238,255437,6,0,L|224:226,1,119.999996337891,2|0,0:0|0:0,0:0:0:0:
62,132,255780,6,0,P|140:126|200:75,1,160,0|2,1:0|0:0,0:0:0:0:
322,45,256295,1,0,1:0:0:0:
322,45,256466,2,0,P|351:70|391:73,1,80,10|0,0:0|0:0,0:0:0:0:
491,46,256809,1,2,1:2:0:0:
311,163,256980,2,0,L|208:180,1,100,2|0,0:0|0:0,0:0:0:0:
340,157,257323,1,2,1:2:0:0:
200,75,257495,2,0,L|117:69,1,80,2|0,0:0|0:0,0:0:0:0:
26,190,257837,6,0,L|145:181,1,119.999996337891,10|0,0:0|1:0,0:0:0:0:
304,267,258180,2,0,L|224:261,1,80,2|0,0:0|1:0,0:0:0:0:
13,316,258523,6,0,B|54:328|80:359|80:359|69:322|84:275,1,160,2|8,1:2|0:3,0:0:0:0:
145,180,259037,1,0,0:0:0:0:
210,329,259209,2,0,L|180:254,1,80,2|0,0:0|0:0,0:0:0:0:
308,262,259552,1,8,0:3:0:0:
308,262,259723,2,0,B|290:266|287:279|297:291|313:300|325:277|325:277|331:280|331:280|329:275|329:275|321:248|293:201,1,160,2|2,0:0|0:0,0:0:0:0:
423,243,260237,6,0,B|392:174|392:174|412:141|445:154|436:181|436:181|483:202,1,200,10|2,0:3|0:0,0:0:0:0:
499,290,260752,1,0,0:0:0:0:
499,290,260923,1,10,0:3:0:0:
432,73,261266,6,0,P|473:9|475:85,1,200,2|8,1:2|0:3,0:0:0:0:
37,86,261952,2,0,B|45:55|58:35|58:35|80:73|80:73|119:51|119:51|120:76|112:106,1,200,2|10,0:0|0:3,0:0:0:0:
250,142,262466,2,0,P|249:79|207:125,1,160,2|2,0:0|0:0,0:0:0:0:
20,185,262980,2,0,B|46:223|46:223|42:245|35:275|35:275|42:245|57:225|57:225|92:197,1,200,10|2,0:3|0:0,0:0:0:0:
225,264,263495,1,0,0:0:0:0:
225,264,263666,2,0,P|182:309|182:247,1,160,10|4,0:3|0:0,0:0:0:0:
394,310,264695,6,0,B|391:362|352:376|352:376|318:367|318:367|301:329|323:288,1,200,2|2,0:0|0:0,0:0:0:0:
380,213,265209,1,2,0:0:0:0:
388,201,265552,1,0,0:0:0:0:
315,275,265723,2,0,L|168:286,1,139.999995727539,2|2,0:0|0:0,0:0:0:0:
42,101,266409,2,0,L|111:106,1,69.9999978637696,2|0,0:0|0:0,0:0:0:0:
68,189,266752,5,0,0:0:0:0:
68,189,267095,2,0,L|137:194,1,69.9999978637696,2|0,0:0|0:0,0:0:0:0:
182,275,267437,2,0,L|112:280,1,69.9999978637696,2|0,0:0|0:0,0:0:0:0:
111,106,267780,1,2,0:0:0:0:
222,200,267952,6,0,L|328:190,1,89.9999972534181,2|0,0:0|0:0,0:0:0:0:
371,120,268295,1,2,0:0:0:0:
443,181,268467,2,0,L|512:175,1,69.9999978637696,2|0,0:0|0:0,0:0:0:0:
301,49,268809,2,0,L|147:37,1,139.999995727539,2|2,0:0|0:0,0:0:0:0:
