osu file format v14

[General]
AudioFilename: audio.mp3
AudioLeadIn: 0
PreviewTime: 22637
Countdown: 0
SampleSet: Soft
StackLeniency: 0.4
Mode: 0
LetterboxInBreaks: 0
WidescreenStoryboard: 1

[Editor]
Bookmarks: 11666,22637,44580,66523,77495,99437,104923,126866,137837,159780,170752,181723,203666,225609,247552,258523,269152
DistanceSpacing: 0.2
BeatDivisor: 4
GridSize: 8
TimelineZoom: 2.3

[Metadata]
Title:Vidro Moyou (bassmicrobe Remix)
TitleUnicode:ビードロ模様 (bassmicrobe Remix)
Artist:yanaginagi
ArtistUnicode:やなぎなぎ
Creator:-Tochi
Version:Necho‘s Insane
Source:あの夏で待ってる
Tags:Waiting... D-Remix Nation dnb Waiting in the Summer Ano Natsu de Matteru
BeatmapID:2156850
BeatmapSetID:1016003

[Difficulty]
HPDrainRate:5
CircleSize:4
OverallDifficulty:8
ApproachRate:9
SliderMultiplier:1.6
SliderTickRate:1

[Events]
//Background and Video events
0,0,"bg.jpg",0,0
//Break Periods
//Storyboard Layer 0 (Background)
//Storyboard Layer 1 (Fail)
//Storyboard Layer 2 (Pass)
//Storyboard Layer 3 (Foreground)
//Storyboard Layer 4 (Overlay)
//Storyboard Sound Samples

[TimingPoints]
354,342.857142857143,4,2,1,40,1,0
695,342.857142857143,4,2,1,50,1,0
22637,-100,4,2,2,60,0,0
22808,-100,4,2,2,50,0,0
22980,-100,4,2,2,60,0,0
23323,-66.6666666666667,4,2,2,60,0,0
25380,-100,4,2,2,60,0,0
25551,-100,4,2,2,50,0,0
25722,-100,4,2,2,60,0,0
26066,-66.6666666666667,4,2,2,60,0,0
28123,-100,4,2,2,60,0,0
28294,-100,4,2,2,50,0,0
28466,-100,4,2,2,60,0,0
28809,-66.6666666666667,4,2,2,60,0,0
29666,-66.6666666666667,4,2,2,50,0,0
29837,-66.6666666666667,4,2,2,60,0,0
30866,-100,4,2,2,60,0,0
31037,-100,4,2,2,50,0,0
31209,-100,4,2,2,60,0,0
31552,-66.6666666666667,4,2,2,60,0,0
32152,-66.6666666666667,4,2,2,50,0,0
32237,-66.6666666666667,4,2,2,60,0,0
33180,-66.6666666666667,4,2,2,50,0,0
33266,-66.6666666666667,4,2,2,60,0,0
33609,-100,4,2,2,60,0,0
33780,-100,4,2,2,50,0,0
33952,-100,4,2,2,60,0,0
34295,-66.6666666666667,4,2,2,60,0,0
36352,-100,4,2,2,60,0,0
36523,-100,4,2,2,50,0,0
36695,-100,4,2,2,60,0,0
36866,-100,4,2,2,50,0,0
37037,-66.6666666666667,4,2,2,60,0,0
39095,-100,4,2,2,60,0,0
39266,-100,4,2,2,50,0,0
39437,-100,4,2,2,60,0,0
39780,-66.6666666666667,4,2,2,60,0,0
40980,-66.6666666666667,4,2,2,50,0,0
41152,-66.6666666666667,4,2,2,60,0,0
41837,-100,4,2,2,60,0,0
42008,-100,4,2,2,50,0,0
42180,-100,4,2,2,60,0,0
42351,-100,4,2,2,50,0,0
42523,-100,4,2,2,60,0,0
42694,-100,4,2,2,50,0,0
42866,-100,4,2,2,60,0,0
42952,-100,4,2,2,50,0,0
43209,-100,4,2,2,60,0,0
43937,-100,4,2,2,50,0,0
43980,-100,4,2,2,60,0,0
44495,-100,4,2,2,50,0,0
44580,-100,4,2,1,50,0,0
77495,-66.6666666666667,4,2,2,60,0,0
78266,-66.6666666666667,4,2,2,50,0,0
78352,-66.6666666666667,4,2,2,60,0,0
78437,-66.6666666666667,4,2,2,50,0,0
78523,-66.6666666666667,4,2,2,60,0,0
79552,-66.6666666666667,4,2,2,50,0,0
79723,-66.6666666666667,4,2,2,60,0,0
81009,-66.6666666666667,4,2,2,50,0,0
81095,-66.6666666666667,4,2,2,60,0,0
81180,-66.6666666666667,4,2,2,50,0,0
81266,-66.6666666666667,4,2,2,60,0,0
81780,-66.6666666666667,4,2,2,50,0,0
81952,-66.6666666666667,4,2,2,60,0,0
82552,-66.6666666666667,4,2,2,50,0,0
82637,-66.6666666666667,4,2,2,60,0,0
83237,-66.6666666666667,4,2,2,50,0,0
83323,-66.6666666666667,4,2,2,60,0,0
83408,-66.6666666666667,4,2,2,50,0,0
83495,-66.6666666666667,4,2,2,60,0,0
85123,-66.6666666666667,4,2,2,50,0,0
85209,-66.6666666666667,4,2,2,60,0,0
85894,-66.6666666666667,4,2,2,50,0,0
86066,-66.6666666666667,4,2,2,60,0,0
86494,-66.6666666666667,4,2,2,50,0,0
86580,-66.6666666666667,4,2,2,60,0,0
87780,-66.6666666666667,4,2,2,50,0,0
87865,-66.6666666666667,4,2,2,60,0,0
89237,-66.6666666666667,4,2,2,50,0,0
89323,-66.6666666666667,4,2,2,60,0,0
89408,-66.6666666666667,4,2,2,50,0,0
89495,-66.6666666666667,4,2,2,60,0,0
90523,-66.6666666666667,4,2,2,50,0,0
90695,-66.6666666666667,4,2,2,60,0,0
91294,-66.6666666666667,4,2,2,50,0,0
91380,-66.6666666666667,4,2,2,60,0,0
91980,-66.6666666666667,4,2,2,50,0,0
92066,-66.6666666666667,4,2,2,60,0,0
92151,-66.6666666666667,4,2,2,50,0,0
92237,-66.6666666666667,4,2,2,60,0,0
92751,-66.6666666666667,4,2,2,50,0,0
92923,-66.6666666666667,4,2,2,60,0,0
93523,-66.6666666666667,4,2,2,50,0,0
93609,-66.6666666666667,4,2,2,60,0,0
93865,-66.6666666666667,4,2,2,50,0,0
93952,-66.6666666666667,4,2,2,60,0,0
95580,-66.6666666666667,4,2,2,50,0,0
95666,-66.6666666666667,4,2,2,60,0,0
96094,-66.6666666666667,4,2,2,50,0,0
96180,-66.6666666666667,4,2,2,60,0,0
96866,-66.6666666666667,4,2,2,50,0,0
97123,-66.6666666666667,4,2,2,60,0,0
97208,-66.6666666666667,4,2,2,50,0,0
97380,-66.6666666666667,4,2,2,60,0,0
97808,-66.6666666666667,4,2,2,50,0,0
97894,-66.6666666666667,4,2,2,60,0,0
98237,-66.6666666666667,4,2,2,50,0,0
98409,-66.6666666666667,4,2,2,60,0,0
98752,-66.6666666666667,4,2,2,50,0,0
98837,-66.6666666666667,4,2,2,60,0,0
99352,-66.6666666666667,4,2,2,50,0,0
99437,-100,4,2,2,60,0,0
99779,-100,4,2,2,50,0,0
102180,-100,4,2,2,60,0,0
103294,-100,4,2,2,50,0,0
103380,-100,4,2,2,60,0,0
103465,-100,4,2,2,50,0,0
103552,-100,4,2,2,60,0,0
104923,-100,4,2,1,60,0,0
105522,-100,4,2,1,50,0,0
105608,-100,4,2,1,60,0,0
105694,-100,4,2,1,50,0,0
105780,-100,4,2,1,60,0,0
105865,-100,4,2,1,50,0,0
105952,-100,4,2,1,60,0,0
106380,-100,4,2,1,50,0,0
106637,-100,4,2,1,60,0,0
106722,-100,4,2,1,50,0,0
106809,-100,4,2,1,60,0,0
106894,-100,4,2,1,50,0,0
106980,-100,4,2,1,60,0,0
107066,-100,4,2,1,50,0,0
107152,-100,4,2,1,60,0,0
107237,-100,4,2,1,50,0,0
107323,-100,4,2,1,60,0,0
107408,-100,4,2,1,50,0,0
107495,-100,4,2,1,60,0,0
107580,-100,4,2,1,50,0,0
107666,-100,4,2,1,60,0,0
107923,-100,4,2,1,50,0,0
108009,-100,4,2,1,60,0,0
108437,-100,4,2,1,50,0,0
108523,-100,4,2,1,60,0,0
108608,-100,4,2,1,50,0,0
108695,-100,4,2,1,60,0,0
109294,-100,4,2,1,50,0,0
109380,-100,4,2,1,60,0,0
110494,-100,4,2,1,50,0,0
110752,-100,4,2,1,60,0,0
110837,-100,4,2,1,50,0,0
110923,-100,4,2,1,60,0,0
111008,-100,4,2,1,50,0,0
111266,-100,4,2,1,60,0,0
111351,-100,4,2,1,50,0,0
111437,-100,4,2,1,60,0,0
113837,-100,4,2,1,50,0,0
114008,-100,4,2,1,60,0,0
114094,-100,4,2,1,50,0,0
114180,-100,4,2,1,60,0,0
114780,-100,4,2,1,50,0,0
114866,-100,4,2,1,60,0,0
114951,-100,4,2,1,50,0,0
115037,-100,4,2,1,60,0,0
115465,-100,4,2,1,50,0,0
115552,-100,4,2,1,60,0,0
115809,-100,4,2,1,50,0,0
115895,-100,4,2,1,60,0,0
115980,-100,4,2,1,50,0,0
116066,-100,4,2,1,60,0,0
116837,-100,4,2,1,50,0,0
116923,-100,4,2,1,60,0,0
117180,-100,4,2,1,50,0,0
117266,-100,4,2,1,60,0,0
117351,-100,4,2,1,50,0,0
117609,-100,4,2,1,60,0,0
117694,-100,4,2,1,50,0,0
117780,-100,4,2,1,60,0,0
117865,-100,4,2,1,50,0,0
117951,-100,4,2,1,60,0,0
118037,-100,4,2,1,50,0,0
118123,-100,4,2,1,60,0,0
118208,-100,4,2,1,50,0,0
118295,-100,4,2,1,60,0,0
118380,-100,4,2,1,50,0,0
118466,-100,4,2,1,60,0,0
118551,-100,4,2,1,50,0,0
118637,-100,4,2,1,60,0,0
118722,-100,4,2,1,50,0,0
118980,-100,4,2,1,60,0,0
119065,-100,4,2,1,50,0,0
119152,-100,4,2,1,60,0,0
119409,-100,4,2,1,50,0,0
119495,-100,4,2,1,60,0,0
119580,-100,4,2,1,50,0,0
119666,-100,4,2,1,60,0,0
120266,-100,4,2,1,50,0,0
120352,-100,4,2,1,60,0,0
121295,-100,4,2,1,50,0,0
121380,-100,4,2,1,60,0,0
121637,-100,4,2,1,50,0,0
121723,-100,4,2,1,60,0,0
121808,-100,4,2,1,50,0,0
121895,-100,4,2,1,60,0,0
121980,-100,4,2,1,50,0,0
122237,-100,4,2,1,60,0,0
123009,-100,4,2,1,50,0,0
123095,-100,4,2,1,60,0,0
125237,-100,4,2,1,50,0,0
125323,-100,4,2,1,60,0,0
125752,-100,4,2,1,50,0,0
125837,-100,4,2,1,60,0,0
126608,-100,4,2,1,50,0,0
126694,-100,4,2,1,60,0,0
126780,-100,4,2,1,50,0,0
137837,-66.6666666666667,4,2,2,60,0,0
138608,-66.6666666666667,4,2,2,50,0,0
138694,-66.6666666666667,4,2,2,60,0,0
138779,-66.6666666666667,4,2,2,50,0,0
138865,-66.6666666666667,4,2,2,60,0,0
139894,-66.6666666666667,4,2,2,50,0,0
140065,-66.6666666666667,4,2,2,60,0,0
141351,-66.6666666666667,4,2,2,50,0,0
141437,-66.6666666666667,4,2,2,60,0,0
141522,-66.6666666666667,4,2,2,50,0,0
141608,-66.6666666666667,4,2,2,60,0,0
142122,-66.6666666666667,4,2,2,50,0,0
142294,-66.6666666666667,4,2,2,60,0,0
142894,-66.6666666666667,4,2,2,50,0,0
142979,-66.6666666666667,4,2,2,60,0,0
143579,-66.6666666666667,4,2,2,50,0,0
143665,-66.6666666666667,4,2,2,60,0,0
143750,-66.6666666666667,4,2,2,50,0,0
143837,-66.6666666666667,4,2,2,60,0,0
145465,-66.6666666666667,4,2,2,50,0,0
145551,-66.6666666666667,4,2,2,60,0,0
145807,-66.6666666666667,4,2,2,50,0,0
145894,-66.6666666666667,4,2,2,60,0,0
146236,-66.6666666666667,4,2,2,50,0,0
146408,-66.6666666666667,4,2,2,60,0,0
146836,-66.6666666666667,4,2,2,50,0,0
146922,-66.6666666666667,4,2,2,60,0,0
148122,-66.6666666666667,4,2,2,50,0,0
148207,-66.6666666666667,4,2,2,60,0,0
149579,-66.6666666666667,4,2,2,50,0,0
149665,-66.6666666666667,4,2,2,60,0,0
149750,-66.6666666666667,4,2,2,50,0,0
149837,-66.6666666666667,4,2,2,60,0,0
150865,-66.6666666666667,4,2,2,50,0,0
151037,-66.6666666666667,4,2,2,60,0,0
151464,-66.6666666666667,4,2,2,50,0,0
151552,-66.6666666666667,4,2,2,60,0,0
151637,-66.6666666666667,4,2,2,50,0,0
151722,-66.6666666666667,4,2,2,60,0,0
152322,-66.6666666666667,4,2,2,50,0,0
152408,-66.6666666666667,4,2,2,60,0,0
152493,-66.6666666666667,4,2,2,50,0,0
152579,-66.6666666666667,4,2,2,60,0,0
153093,-66.6666666666667,4,2,2,50,0,0
153265,-66.6666666666667,4,2,2,60,0,0
153865,-66.6666666666667,4,2,2,50,0,0
153951,-66.6666666666667,4,2,2,60,0,0
154207,-66.6666666666667,4,2,2,50,0,0
154294,-66.6666666666667,4,2,2,60,0,0
155922,-66.6666666666667,4,2,2,50,0,0
156008,-66.6666666666667,4,2,2,60,0,0
156436,-66.6666666666667,4,2,2,50,0,0
156522,-66.6666666666667,4,2,2,60,0,0
157208,-66.6666666666667,4,2,2,50,0,0
157466,-66.6666666666667,4,2,2,60,0,0
157550,-66.6666666666667,4,2,2,50,0,0
157722,-66.6666666666667,4,2,2,60,0,0
158150,-66.6666666666667,4,2,2,50,0,0
158236,-66.6666666666667,4,2,2,60,0,0
158579,-66.6666666666667,4,2,2,50,0,0
158751,-66.6666666666667,4,2,2,60,0,0
159094,-66.6666666666667,4,2,2,50,0,0
159179,-66.6666666666667,4,2,2,60,0,0
159694,-66.6666666666667,4,2,2,50,0,0
159780,-100,4,2,1,50,0,0
181723,-100,4,2,2,60,0,0
181894,-100,4,2,2,50,0,0
182066,-100,4,2,2,60,0,0
182409,-66.6666666666667,4,2,2,60,0,0
184466,-100,4,2,2,60,0,0
184637,-100,4,2,2,50,0,0
184808,-100,4,2,2,60,0,0
185152,-66.6666666666667,4,2,2,60,0,0
187209,-100,4,2,2,60,0,0
187380,-100,4,2,2,50,0,0
187552,-100,4,2,2,60,0,0
187895,-66.6666666666667,4,2,2,60,0,0
188752,-66.6666666666667,4,2,2,50,0,0
188923,-66.6666666666667,4,2,2,60,0,0
189952,-100,4,2,2,60,0,0
190123,-100,4,2,2,50,0,0
190295,-100,4,2,2,60,0,0
190638,-66.6666666666667,4,2,2,60,0,0
191238,-66.6666666666667,4,2,2,50,0,0
191323,-66.6666666666667,4,2,2,60,0,0
192266,-66.6666666666667,4,2,2,50,0,0
192352,-66.6666666666667,4,2,2,60,0,0
192695,-100,4,2,2,60,0,0
192866,-100,4,2,2,50,0,0
193038,-100,4,2,2,60,0,0
193381,-66.6666666666667,4,2,2,60,0,0
195438,-100,4,2,2,60,0,0
195609,-100,4,2,2,50,0,0
195781,-100,4,2,2,60,0,0
195952,-100,4,2,2,50,0,0
196123,-66.6666666666667,4,2,2,60,0,0
198181,-100,4,2,2,60,0,0
198352,-100,4,2,2,50,0,0
198523,-100,4,2,2,60,0,0
198866,-66.6666666666667,4,2,2,60,0,0
200923,-100,4,2,2,60,0,0
201094,-100,4,2,2,50,0,0
201266,-100,4,2,2,60,0,0
202038,-100,4,2,2,50,0,0
202123,-100,4,2,2,60,0,0
203023,-100,4,2,2,50,0,0
203066,-100,4,2,2,60,0,0
203666,-66.6666666666667,4,2,2,60,0,0
204437,-66.6666666666667,4,2,2,50,0,0
204523,-66.6666666666667,4,2,2,60,0,0
204608,-66.6666666666667,4,2,2,50,0,0
204694,-66.6666666666667,4,2,2,60,0,0
205723,-66.6666666666667,4,2,2,50,0,0
205894,-66.6666666666667,4,2,2,60,0,0
207180,-66.6666666666667,4,2,2,50,0,0
207266,-66.6666666666667,4,2,2,60,0,0
207351,-66.6666666666667,4,2,2,50,0,0
207437,-66.6666666666667,4,2,2,60,0,0
207951,-66.6666666666667,4,2,2,50,0,0
208123,-66.6666666666667,4,2,2,60,0,0
208723,-66.6666666666667,4,2,2,50,0,0
208808,-66.6666666666667,4,2,2,60,0,0
209065,-66.6666666666667,4,2,2,50,0,0
209151,-66.6666666666667,4,2,2,60,0,0
209408,-66.6666666666667,4,2,2,50,0,0
209494,-66.6666666666667,4,2,2,60,0,0
209579,-66.6666666666667,4,2,2,50,0,0
209666,-66.6666666666667,4,2,2,60,0,0
211294,-66.6666666666667,4,2,2,50,0,0
211380,-66.6666666666667,4,2,2,60,0,0
212065,-66.6666666666667,4,2,2,50,0,0
212237,-66.6666666666667,4,2,2,60,0,0
212665,-66.6666666666667,4,2,2,50,0,0
212751,-66.6666666666667,4,2,2,60,0,0
213951,-66.6666666666667,4,2,2,50,0,0
214036,-66.6666666666667,4,2,2,60,0,0
215408,-66.6666666666667,4,2,2,50,0,0
215494,-66.6666666666667,4,2,2,60,0,0
215579,-66.6666666666667,4,2,2,50,0,0
215666,-66.6666666666667,4,2,2,60,0,0
216694,-66.6666666666667,4,2,2,50,0,0
216866,-66.6666666666667,4,2,2,60,0,0
217293,-66.6666666666667,4,2,2,50,0,0
217381,-66.6666666666667,4,2,2,60,0,0
217466,-66.6666666666667,4,2,2,50,0,0
217551,-66.6666666666667,4,2,2,60,0,0
218151,-66.6666666666667,4,2,2,50,0,0
218237,-66.6666666666667,4,2,2,60,0,0
218322,-66.6666666666667,4,2,2,50,0,0
218408,-66.6666666666667,4,2,2,60,0,0
218922,-66.6666666666667,4,2,2,50,0,0
219094,-66.6666666666667,4,2,2,60,0,0
219694,-66.6666666666667,4,2,2,50,0,0
219780,-66.6666666666667,4,2,2,60,0,0
220036,-66.6666666666667,4,2,2,50,0,0
220123,-66.6666666666667,4,2,2,60,0,0
221751,-66.6666666666667,4,2,2,50,0,0
221837,-66.6666666666667,4,2,2,60,0,0
222265,-66.6666666666667,4,2,2,50,0,0
222351,-66.6666666666667,4,2,2,60,0,0
223037,-66.6666666666667,4,2,2,50,0,0
223295,-66.6666666666667,4,2,2,60,0,0
223379,-66.6666666666667,4,2,2,50,0,0
223551,-66.6666666666667,4,2,2,60,0,0
224408,-66.6666666666667,4,2,2,50,0,0
224494,-66.6666666666667,4,2,2,60,0,0
224923,-66.6666666666667,4,2,2,50,0,0
225008,-66.6666666666667,4,2,2,60,0,0
225523,-66.6666666666667,4,2,2,50,0,0
247552,-100,4,2,2,50,0,0
258180,-100,4,2,3,50,0,0
268123,-333.333333333333,4,2,3,50,0,0

[Colours]
Combo1 : 167,124,124
Combo2 : 239,86,90
Combo3 : 218,163,112
Combo4 : 201,100,95

[HitObjects]
38,109,354,6,0,P|106:68|164:101,1,120,0|0,0:0|0:0,0:0:0:0:
206,123,695,6,0,L|397:113,1,160,6|0,1:2|0:0,0:0:0:0:
372,110,1380,2,0,L|324:105,1,40,2|2,0:0|0:0,0:0:0:0:
458,99,1551,2,0,L|450:56,1,40,2|2,0:0|0:0,0:0:0:0:
450,59,1723,2,0,L|440:170,1,80,2|2,0:3|0:3,0:0:0:0:
442,146,1980,1,2,0:3:0:0:
441,154,2066,6,0,L|423:330,1,160,2|0,1:2|0:0,0:0:0:0:
431,307,2752,6,0,L|486:297,3,40,2|2|2|0,0:3|0:3|0:3|0:3,0:0:0:0:
361,269,3095,2,0,P|313:238|248:267,1,120,2|0,0:0|0:0,0:0:0:0:
189,315,3437,2,0,L|355:297,1,160,2|0,1:2|0:0,0:0:0:0:
344,290,4123,6,0,L|350:235,1,40,2|2,0:0|0:0,0:0:0:0:
266,291,4295,2,0,L|226:295,1,40,2|2,0:0|0:0,0:0:0:0:
226,295,4466,6,0,L|236:197,1,80,2|2,0:3|0:3,0:0:0:0:
228,209,4723,1,2,0:3:0:0:
224,201,4809,2,0,L|205:370,1,160,2|0,1:2|0:0,0:0:0:0:
200,355,5495,6,0,L|151:349,3,40,2|2|2|2,0:3|0:3|0:3|0:3,0:0:0:0:
257,299,5837,2,0,P|304:273|376:303,1,120,2|0,0:0|0:0,0:0:0:0:
421,348,6180,6,0,L|410:175,1,160,2|0,1:2|0:0,0:0:0:0:
317,349,6866,2,0,L|328:176,1,160
317,186,7552,6,0,P|292:193|271:187,3,40,2|2|2|0,1:3|0:3|0:3|0:0,0:0:0:0:
389,148,7895,2,0,P|414:141|435:147,3,40,2|2|2|0,0:3|0:3|0:3|0:0,0:0:0:0:
320,105,8237,2,0,L|326:10,2,80,2|2|2,0:3|0:3|0:0,0:0:0:0:
256,192,8923,12,0,9952,0:0:0:0:
346,169,10123,5,0,0:0:0:0:
346,169,10209,1,0,0:0:0:0:
346,169,10295,2,0,L|160:189,2,160,0|0|0,1:0|1:0|1:0,0:0:0:0:
338,25,11323,6,0,L|328:92,1,40,8|2,0:0|0:3,0:0:0:0:
346,169,11495,1,2,0:3:0:0:
346,169,11580,1,2,0:3:0:0:
346,169,11666,6,0,P|298:231|339:316,1,160,0|0,1:0|0:0,0:0:0:0:
321,302,12180,1,0,1:0:0:0:
455,237,12352,2,0,L|360:244,1,80,8|0,0:0|0:0,0:0:0:0:
362,85,12695,2,0,L|457:78,1,80,2|2,0:3|0:3,0:0:0:0:
500,31,12952,1,2,0:3:0:0:
507,31,13037,6,0,B|494:133,2,80,0|0|0,1:0|1:0|0:0,0:0:0:0:
342,0,13723,2,0,B|321:161,1,160,8|0,0:0|0:0,0:0:0:0:
321,158,14237,1,0,0:0:0:0:
186,47,14409,6,0,P|108:4|36:33,1,160,0|0,1:0|0:0,0:0:0:0:
45,24,14923,1,0,1:0:0:0:
0,128,15095,2,0,P|66:114|86:85,1,80,8|0,0:0|0:0,0:0:0:0:
258,26,15437,2,0,P|192:40|172:69,1,80,2|2,0:3|0:3,0:0:0:0:
156,120,15695,1,2,0:3:0:0:
162,130,15780,6,2,L|149:238,2,80,0|0|0,1:0|1:0|0:0,0:0:0:0:
316,89,16466,2,0,L|294:270,1,160,8|0,0:0|0:0,0:0:0:0:
296,247,16980,1,0,1:0:0:0:
202,66,17152,6,0,P|158:54|93:99,1,120,0|0,1:0|0:0,0:0:0:0:
162,130,17495,2,0,L|155:240,1,80,0|0,0:0|1:0,0:0:0:0:
68,305,17837,2,0,L|236:282,1,160,8|2,0:0|1:3,0:0:0:0:
140,341,18352,1,2,0:3:0:0:
140,341,18437,1,2,0:3:0:0:
140,341,18523,6,0,L|51:335,2,80,0|0|0,1:0|1:0|0:0,0:0:0:0:
212,188,19209,2,0,L|28:175,1,160,8|8,0:0|3:0,0:0:0:0:
52,177,19723,1,0,0:0:0:0:
181,116,19895,5,0,1:0:0:0:
212,188,20066,1,0,1:0:0:0:
306,64,20238,5,0,1:0:0:0:
228,54,20409,1,0,1:0:0:0:
290,198,20580,5,0,1:0:0:0:
337,136,20751,1,0,1:0:0:0:
181,116,20923,6,0,L|201:168,1,40,2|2,1:3|0:3,0:0:0:0:
337,136,21095,2,0,L|317:84,1,40,2|2,1:3|0:3,0:0:0:0:
274,187,21266,5,2,1:3:0:0:
272,196,21351,1,2,1:3:0:0:
270,206,21437,1,2,1:3:0:0:
268,216,21523,1,2,1:3:0:0:
267,228,21609,5,2,1:3:0:0:
271,241,21694,1,2,1:3:0:0:
278,255,21780,1,2,1:3:0:0:
285,270,21866,1,2,1:3:0:0:
307,274,21952,5,2,1:3:0:0:
295,301,22037,1,2,1:3:0:0:
283,329,22123,1,2,1:3:0:0:
272,357,22209,1,2,1:3:0:0:
228,347,22295,6,0,L|330:332,1,80,8|0,0:0|0:0,0:0:0:0:
315,334,22552,1,0,0:0:0:0:
322,333,22637,6,0,L|435:316,1,80,6|0,1:2|0:0,0:0:0:0:
412,192,22980,2,0,L|492:181,1,80,8|0,0:0|0:0,0:0:0:0:
322,333,23323,6,0,B|318:321|318:321|327:226|327:226|343:208,2,120.000004577637,2|0|8,0:0|1:0|0:0,0:0:0:0:
444,286,23837,1,2,0:0:0:0:
444,286,23923,1,2,0:0:0:0:
444,286,24009,6,0,P|506:273|516:328,1,120.000004577637,0|2,1:0|0:0,0:0:0:0:
322,333,24352,2,0,P|279:285|322:249,1,120.000004577637,10|0,0:0|0:0,0:0:0:0:
322,333,24695,6,0,B|276:328|276:328|251:336|251:336|178:330,2,120.000004577637,2|0|10,0:0|1:0|0:0,0:0:0:0:
312,201,25380,6,0,P|358:241|355:263,2,80,2|0|8,1:2|0:0|0:0,0:0:0:0:
229,251,26066,6,0,L|235:114,2,120.000004577637,2|0|8,0:0|1:0|0:0,0:0:0:0:
117,187,26580,1,2,0:0:0:0:
117,187,26666,1,2,0:0:0:0:
117,187,26752,6,0,L|-8:199,1,120.000004577637,0|2,1:0|0:0,0:0:0:0:
229,251,27095,2,0,L|104:263,1,120.000004577637,10|0,0:0|0:0,0:0:0:0:
229,251,27437,2,0,B|235:218|263:198|299:207|299:207|323:255,2,120.000004577637,2|0|10,0:0|1:0|0:0,0:0:0:0:
173,341,27952,1,0,0:0:0:0:
173,341,28037,1,0,0:0:0:0:
173,341,28123,6,0,L|267:343,1,80,2|0,1:2|0:0,0:0:0:0:
310,230,28466,2,0,L|404:232,1,80,8|0,0:0|0:0,0:0:0:0:
414,309,28809,6,0,L|396:162,1,120.000004577637,2|0,0:0|1:0,0:0:0:0:
275,151,29152,2,0,L|293:298,1,120.000004577637,10|2,0:0|0:0,0:0:0:0:
291,281,29409,1,2,0:0:0:0:
292,292,29495,6,0,B|306:265|306:265|352:243|395:285,1,120.000004577637,0|0,1:0|0:0,0:0:0:0:
225,222,29837,2,0,B|194:223|194:223|152:194|167:136,1,120.000004577637,10|0,0:0|0:0,0:0:0:0:
202,318,30180,6,0,B|173:309|147:325|147:325|120:342|86:332,2,120.000004577637,2|0|10,0:0|1:0|0:0,0:0:0:0:
225,222,30695,1,0,0:0:0:0:
225,222,30866,6,0,L|219:319,1,80,0|0,1:0|0:0,0:0:0:0:
368,309,31209,2,0,L|374:212,1,80,10|0,0:0|0:0,0:0:0:0:
297,88,31552,6,0,P|233:93|249:163,1,120.000004577637,2|0,0:0|1:0,0:0:0:0:
411,111,31895,2,0,P|438:53|370:31,1,120.000004577637,10|2,0:0|0:0,0:0:0:0:
392,31,32152,1,0,0:0:0:0:
382,38,32237,6,0,L|395:181,1,120.000004577637,0|2,1:0|0:0,0:0:0:0:
272,167,32580,2,0,L|259:24,1,120.000004577637,10|0,0:0|0:0,0:0:0:0:
250,42,32837,1,8,0:0:0:0:
239,36,32923,2,0,P|198:37|173:70,1,60.0000022888184,2|8,0:0|0:0,0:0:0:0:
105,63,33095,2,0,P|85:99|101:137,1,60.0000022888184,0|0,1:0|0:0,0:0:0:0:
184,47,33266,6,0,L|52:36,1,120.000004577637,10|0,0:0|0:0,0:0:0:0:
52,36,33523,1,0,0:0:0:0:
39,35,33609,6,0,L|55:138,1,80,2|0,1:2|0:0,0:0:0:0:
197,125,33952,2,0,L|213:228,1,80,8|0,0:0|0:0,0:0:0:0:
9,211,34295,6,0,B|109:193|109:193|154:201,2,120.000004577637,2|0|8,0:0|1:0|0:0,0:0:0:0:
80,293,34809,1,2,0:0:0:0:
80,293,34895,1,2,0:0:0:0:
80,293,34980,6,0,P|146:293|145:347,1,120.000004577637,0|2,1:0|0:0,0:0:0:0:
58,201,35323,2,0,P|25:143|72:117,1,120.000004577637,10|0,0:0|0:0,0:0:0:0:
58,201,35666,2,0,B|51:249|51:249|57:267|57:267|46:345,2,120.000004577637,2|0|10,0:0|1:0|0:0,0:0:0:0:
243,304,36352,6,0,L|329:295,1,80,2|0,1:2|0:0,0:0:0:0:
309,166,36695,2,0,L|223:175,1,80,8|0,0:0|0:0,0:0:0:0:
370,224,37037,6,0,B|398:210|427:225|427:225|456:237|492:217,2,120.000004577637,2|0|8,0:0|1:0|0:0,0:0:0:0:
296,380,37552,1,2,0:0:0:0:
296,380,37637,1,2,0:0:0:0:
296,380,37723,6,0,P|316:290|274:245,1,120.000004577637,0|2,1:0|0:0,0:0:0:0:
211,263,38066,2,0,P|191:353|233:398,1,120.000004577637,10|0,0:0|0:0,0:0:0:0:
211,263,38409,6,0,B|215:221|239:196|239:196|212:192|181:170,2,120.000004577637,2|0|10,0:0|1:0|0:0,0:0:0:0:
242,113,38923,1,0,0:0:0:0:
242,113,39009,1,0,0:0:0:0:
242,113,39095,6,0,L|335:121,1,80,2|0,1:2|0:0,0:0:0:0:
231,19,39437,2,0,L|138:11,1,80,8|0,0:0|0:0,0:0:0:0:
349,46,39780,6,0,B|395:40|395:40|416:59|416:59|475:53,2,120.000004577637,2|0|10,0:0|1:0|0:0,0:0:0:0:
408,148,40295,1,2,0:0:0:0:
408,148,40380,1,2,0:0:0:0:
408,148,40466,6,0,P|372:205|426:248,1,120.000004577637,0|0,1:0|0:0,0:0:0:0:
368,61,40809,2,0,P|336:1|272:26,1,120.000004577637,10|0,0:0|0:0,0:0:0:0:
457,77,41152,6,0,B|514:57|514:57|492:-3,2,120.000004577637,2|0|10,0:0|1:0|0:0,0:0:0:0:
368,61,41666,1,0,0:0:0:0:
368,61,41837,6,0,L|281:56,1,80,0|0,1:0|0:0,0:0:0:0:
240,122,42180,2,0,L|153:117,1,80,2|0,1:2|0:0,0:0:0:0:
114,48,42523,2,0,L|27:43,1,80,2|0,1:2|0:0,0:0:0:0:
79,139,42866,5,2,1:2:0:0:
79,139,42952,1,2,0:0:0:0:
79,139,43037,1,2,0:0:0:0:
79,139,43123,1,2,0:0:0:0:
79,139,43209,5,0,1:0:0:0:
160,119,43380,1,2,1:2:0:0:
46,0,43552,5,2,1:2:0:0:
22,79,43723,1,0,1:0:0:0:
127,26,43895,6,0,L|123:56,4,20,2|0|0|0|0,1:2|0:0|1:0|1:0|1:0,0:0:0:0:
204,51,44237,6,0,B|233:46|233:46|248:58|248:58|281:54,1,80,10|0,0:0|0:0,0:0:0:0:
287,54,44495,1,0,0:0:0:0:
294,54,44580,6,0,L|346:47,3,40,4|0|0|0,1:2|0:0|0:0|0:0,0:0:0:0:
354,65,44923,5,8,0:0:0:0:
385,88,45008,1,0,0:0:0:0:
424,90,45094,1,0,0:0:0:0:
457,68,45180,1,0,0:0:0:0:
477,41,45266,6,0,P|471:15|459:2,1,40,0|0,0:0|0:0,0:0:0:0:
477,41,45437,2,0,P|483:67|495:80,1,40,0|0,1:0|0:0,0:0:0:0:
457,68,45609,5,8,0:0:0:0:
426,92,45694,1,0,0:0:0:0:
418,131,45780,1,0,0:0:0:0:
436,166,45866,1,0,0:0:0:0:
470,189,45952,6,0,L|518:192,3,40,0|0|0|0,1:0|0:0|0:0|0:0,0:0:0:0:
436,166,46295,5,8,0:0:0:0:
422,168,46380,1,0,0:0:0:0:
380,191,46466,2,0,L|340:188,3,40,0|0|0|0,0:0|0:0|0:0|0:0,0:0:0:0:
322,165,46809,2,0,L|282:162,1,40,0|0,1:0|0:0,0:0:0:0:
250,184,46980,5,8,0:0:0:0:
236,186,47065,1,0,0:0:0:0:
223,188,47151,1,0,0:0:0:0:
210,190,47237,1,0,0:0:0:0:
194,209,47322,6,0,L|154:206,3,40,0|0|0|0,1:0|0:0|0:0|0:0,0:0:0:0:
136,183,47666,2,0,L|96:180,1,40,8|0,0:0|0:0,0:0:0:0:
55,195,47837,5,0,0:0:0:0:
41,194,47922,1,0,0:0:0:0:
28,193,48008,1,0,0:0:0:0:
15,192,48094,1,0,0:0:0:0:
11,217,48180,6,0,P|24:240|25:268,1,40,0|0,1:0|0:0,0:0:0:0:
84,328,48352,2,0,P|88:308|99:291,3,40,8|0|0|0,0:0|0:0|0:0|0:0,0:0:0:0:
107,356,48695,5,0,1:0:0:0:
141,374,48780,1,0,0:0:0:0:
180,369,48866,1,0,0:0:0:0:
207,341,48952,1,0,0:0:0:0:
215,304,49037,6,0,L|273:294,3,40,8|0|0|0,0:0|0:0|0:0|0:0,0:0:0:0:
274,268,49380,5,0,0:0:0:0:
311,256,49465,1,0,0:0:0:0:
348,270,49552,2,0,P|371:294|373:318,1,40,0|0,1:0|0:0,0:0:0:0:
311,256,49723,5,8,0:0:0:0:
282,228,49808,1,0,0:0:0:0:
276,190,49895,2,0,P|284:158|304:145,1,40,0|0,0:0|0:0,0:0:0:0:
301,72,50066,6,0,P|332:63|354:74,3,40,0|0|0|0,1:0|0:0|0:0|0:0,0:0:0:0:
289,153,50409,6,0,P|257:161|235:150,1,40,8|0,0:0|0:0,0:0:0:0:
187,208,50580,5,0,0:0:0:0:
187,208,50666,1,0,0:0:0:0:
187,208,50752,2,0,P|155:199|142:179,3,40,0|0|0|0,0:0|0:0|1:0|0:0,0:0:0:0:
119,189,51095,5,8,0:0:0:0:
141,156,51180,1,0,0:0:0:0:
136,117,51266,1,0,0:0:0:0:
107,91,51352,1,0,0:0:0:0:
77,78,51437,6,0,L|22:87,3,40,0|0|0|0,1:0|0:0|0:0|0:0,0:0:0:0:
48,52,51780,5,8,0:0:0:0:
77,78,51865,1,0,0:0:0:0:
115,85,51951,1,0,0:0:0:0:
152,71,52037,1,0,0:0:0:0:
175,47,52123,6,0,P|204:39|241:52,1,40
288,62,52295,1,0,1:0:0:0:
328,174,52466,6,0,P|306:152|299:114,1,40,8|0,0:0|0:0,0:0:0:0:
284,68,52638,1,0,0:0:0:0:
388,15,52809,6,0,P|459:26|480:57,1,80,0|0,1:0|0:0,0:0:0:0:
435,188,53152,2,0,P|364:177|343:146,1,80,8|0,0:0|0:0,0:0:0:0:
465,105,53495,6,0,P|494:96|518:98,3,40,0|0|0|0,0:0|0:0|1:0|0:0,0:0:0:0:
462,150,53837,1,8,0:0:0:0:
434,178,53922,1,0,0:0:0:0:
396,187,54008,1,0,0:0:0:0:
359,173,54094,1,0,0:0:0:0:
334,139,54180,6,0,L|276:133,2,40,0|0|0,1:0|0:0|0:0,0:0:0:0:
396,89,54437,5,0,0:0:0:0:
396,89,54523,2,0,L|338:83,2,40,8|0|0,0:0|0:0|0:0,0:0:0:0:
291,41,54780,1,8,0:0:0:0:
291,41,54866,6,0,L|233:35,1,40,0|8,0:0|0:0,0:0:0:0:
356,84,55037,2,0,P|384:65|394:41,1,40,0|0,1:0|0:0,0:0:0:0:
286,122,55209,2,0,L|302:212,1,80,8|0,0:0|0:0,0:0:0:0:
302,208,55466,1,0,0:0:0:0:
304,215,55552,6,0,L|312:263,3,40,0|0|0|0,1:0|0:0|0:0|0:0,0:0:0:0:
327,290,55895,5,8,0:0:0:0:
299,262,55980,1,0,0:0:0:0:
260,252,56066,1,0,0:0:0:0:
223,264,56152,1,0,0:0:0:0:
195,291,56237,6,0,P|167:302|135:293,1,40
195,291,56409,2,0,P|223:280|255:289,1,40,0|0,1:0|0:0,0:0:0:0:
187,331,56580,5,8,0:0:0:0:
159,359,56665,1,0,0:0:0:0:
120,369,56752,1,0,0:0:0:0:
83,357,56837,1,0,0:0:0:0:
59,330,56923,6,0,L|61:278,3,40,0|0|0|0,1:0|0:0|0:0|0:0,0:0:0:0:
36,257,57266,5,8,0:0:0:0:
41,245,57352,1,0,0:0:0:0:
80,217,57437,2,0,L|82:165,3,40
64,151,57780,2,0,L|66:99,1,40,0|0,1:0|0:0,0:0:0:0:
49,73,57952,5,8,0:0:0:0:
54,61,58038,1,0,0:0:0:0:
58,50,58123,1,0,0:0:0:0:
63,38,58209,1,0,0:0:0:0:
112,39,58295,6,0,L|114:-13,3,40,0|0|0|0,1:0|0:0|0:0|0:0,0:0:0:0:
164,102,58637,2,0,P|177:101|201:61,1,40,8|0,0:0|0:0,0:0:0:0:
221,12,58809,6,0,L|320:17,2,80,0|0|0,0:0|0:0|1:0,0:0:0:0:
164,102,59323,5,8,0:0:0:0:
135,129,59409,1,0,0:0:0:0:
96,136,59494,1,0,0:0:0:0:
60,120,59580,1,0,0:0:0:0:
39,85,59666,6,0,L|42:40,3,40,0|0|0|0,1:0|0:0|0:0|0:0,0:0:0:0:
72,34,60009,5,8,0:0:0:0:
103,9,60094,1,0,0:0:0:0:
142,5,60180,1,0,0:0:0:0:
178,21,60266,1,0,0:0:0:0:
203,50,60352,6,0,L|271:53,1,40
313,13,60523,6,0,P|334:27|347:70,1,40,0|0,1:0|0:0,0:0:0:0:
418,61,60695,2,0,P|416:86|385:118,1,40,8|0,0:0|0:0,0:0:0:0:
428,175,60866,1,0,0:0:0:0:
428,175,60952,1,0,0:0:0:0:
428,175,61037,6,0,L|493:167,3,40,0|0|0|0,1:0|0:0|0:0|0:0,0:0:0:0:
494,190,61380,5,8,0:0:0:0:
512,224,61465,1,0,0:0:0:0:
507,263,61551,1,0,0:0:0:0:
479,291,61637,1,0,0:0:0:0:
441,308,61723,6,0,P|422:303|391:304,3,40,0|0|0|0,0:0|0:0|1:0|0:0,0:0:0:0:
372,278,62066,5,8,0:0:0:0:
343,251,62151,1,0,0:0:0:0:
304,243,62237,1,0,0:0:0:0:
267,257,62323,1,0,0:0:0:0:
241,288,62409,6,0,P|225:299|189:300,3,40,0|0|0|0,1:0|0:0|0:0|0:0,0:0:0:0:
168,290,62752,5,8,0:0:0:0:
187,255,62837,1,0,0:0:0:0:
179,217,62923,1,0,0:0:0:0:
148,193,63009,1,0,0:0:0:0:
108,188,63095,6,0,L|55:194,1,40,0|0,0:0|0:0,0:0:0:0:
6,140,63266,2,0,L|0:87,1,40,0|0,1:0|0:0,0:0:0:0:
52,32,63437,2,0,L|105:26,1,40,8|0,0:0|0:0,0:0:0:0:
154,80,63608,2,0,L|160:133,1,40,0|0,0:0|0:0,0:0:0:0:
108,188,63780,5,0,1:0:0:0:
104,187,63865,1,0,0:0:0:0:
100,187,63951,1,0,0:0:0:0:
96,186,64037,1,0,0:0:0:0:
92,186,64122,1,8,0:0:0:0:
88,186,64208,1,0,0:0:0:0:
84,185,64294,1,0,0:0:0:0:
80,185,64379,1,0,0:0:0:0:
76,185,64465,1,0,0:0:0:0:
72,184,64551,1,0,0:0:0:0:
68,184,64637,1,0,1:0:0:0:
64,183,64722,1,0,0:0:0:0:
60,183,64808,1,8,0:0:0:0:
56,183,64894,1,0,0:0:0:0:
52,182,64980,2,0,L|-1:178,1,40
47,103,65152,6,0,P|77:96|100:98,1,40,0|0,1:0|0:0,0:0:0:0:
171,152,65323,2,0,P|141:159|118:157,1,40
57,93,65495,6,0,P|87:86|110:88,1,40,8|0,0:0|0:0,0:0:0:0:
181,142,65666,2,0,P|151:149|128:147,1,40,0|8,0:0|0:0,0:0:0:0:
168,56,65837,5,0,0:0:0:0:
168,56,65923,1,8,0:0:0:0:
168,56,66009,6,0,P|198:49|221:51,1,40,0|0,1:0|0:0,0:0:0:0:
289,138,66180,2,0,L|199:134,1,80,8|0,0:0|0:0,0:0:0:0:
244,57,66437,1,0,0:0:0:0:
244,57,66523,6,0,L|410:65,1,160,4|8,1:2|0:3,0:0:0:0:
403,64,67037,1,0,1:0:0:0:
487,9,67209,2,0,L|494:99,1,80,8|0,0:0|0:0,0:0:0:0:
396,95,67552,2,0,L|389:5,1,80,8|0,1:3|0:0,0:0:0:0:
385,22,67809,1,0,0:0:0:0:
380,28,67895,6,0,B|365:63|365:63|391:114,1,80,0|0,1:0|1:0,0:0:0:0:
483,176,68237,2,0,B|498:141|498:141|472:90,1,80,8|0,0:3|0:0,0:0:0:0:
398,149,68580,2,0,L|225:161,1,160,8|8,0:0|0:3,0:0:0:0:
238,160,69095,1,2,0:0:0:0:
162,21,69266,6,0,P|233:7|271:94,1,160,0|8,1:0|0:3,0:0:0:0:
275,72,69780,1,0,1:0:0:0:
160,103,69952,2,0,L|155:205,1,80,8|0,0:0|0:0,0:0:0:0:
84,51,70295,2,0,L|41:44,3,40,8|0|0|0,1:3|0:0|0:0|0:0,0:0:0:0:
24,53,70637,6,0,L|124:40,1,80,0|0,1:0|1:0,0:0:0:0:
119,159,70980,2,0,L|19:172,1,80,0|0,0:0|0:0,0:0:0:0:
180,64,71323,2,0,P|235:43|328:113,1,160,8|8,0:0|0:3,0:0:0:0:
318,89,71837,1,0,1:0:0:0:
367,207,72009,6,0,L|355:41,1,160,0|8,1:0|0:3,0:0:0:0:
355,47,72523,1,0,1:0:0:0:
465,149,72695,2,0,P|466:203|447:230,1,80,8|0,0:0|0:0,0:0:0:0:
367,207,73037,2,0,P|366:153|385:126,1,80,8|0,1:3|0:0,0:0:0:0:
385,127,73295,5,0,0:0:0:0:
391,122,73380,2,0,L|493:115,1,80,0|0,1:0|1:0,0:0:0:0:
445,230,73723,2,0,L|343:237,1,80,8|0,0:3|0:0,0:0:0:0:
264,156,74066,5,8,0:0:0:0:
264,156,74237,2,0,L|70:169,1,160,0|0,0:0|0:0,0:0:0:0:
104,166,74752,5,0,1:0:0:0:
171,115,74923,1,0,1:0:0:0:
14,52,75095,5,0,1:0:0:0:
26,135,75266,1,0,1:0:0:0:
164,32,75437,5,0,1:0:0:0:
86,0,75608,1,0,1:0:0:0:
104,166,75780,2,0,L|111:228,3,40,8|0|0|2,1:3|0:0|1:0|0:0,0:0:0:0:
184,182,76123,5,0,1:0:0:0:
197,184,76208,1,0,1:0:0:0:
210,187,76294,1,0,1:0:0:0:
223,189,76380,1,0,1:0:0:0:
234,194,76466,5,8,1:3:0:0:
247,191,76551,1,0,1:0:0:0:
260,189,76637,1,0,1:0:0:0:
273,186,76723,1,0,1:0:0:0:
284,184,76809,5,0,1:0:0:0:
310,187,76894,1,0,1:0:0:0:
336,190,76980,1,0,1:0:0:0:
363,193,77066,1,0,1:0:0:0:
389,196,77152,5,8,0:0:0:0:
466,243,77323,1,0,0:0:0:0:
466,243,77495,6,0,B|473:195|473:195|463:177|463:177|471:121,2,120.000004577637,4|0|8,1:2|0:0|0:0,0:0:0:0:
389,196,78009,2,0,P|315:162|185:195,1,180.000006866455,0|0,0:0|0:0,0:0:0:0:
200,175,78352,2,0,B|188:205|188:205|199:197|216:192,1,60.0000022888184,0|0,1:0|0:0,0:0:0:0:
216,91,78523,1,8,0:0:0:0:
216,91,78695,6,0,P|187:78|146:77,1,60.0000022888184,2|2,0:0|0:0,0:0:0:0:
92,32,78866,2,0,B|36:25|2:52|2:52|21:54|37:78,2,120.000004577637,0|0|8,1:0|0:0|0:0,0:0:0:0:
216,91,79380,1,0,0:0:0:0:
216,91,79552,2,0,P|310:120|354:106,1,120.000004577637,0|0,0:0|1:0,0:0:0:0:
474,71,79895,1,8,0:0:0:0:
474,71,80066,6,0,B|442:61|429:33|429:33|430:65|396:89,2,120.000004577637,0|0|0,0:0|1:0|0:0,0:0:0:0:
500,0,80580,1,8,0:0:0:0:
500,0,80752,6,0,P|419:42|281:34,1,180.000006866455,0|0,0:0|0:0,0:0:0:0:
322,54,81095,2,0,P|285:51|236:38,1,60.0000022888184,0|0,1:0|0:0,0:0:0:0:
187,22,81266,2,0,P|243:54|257:122,1,120.000004577637,8|2,0:0|0:0,0:0:0:0:
258,116,81523,1,2,0:0:0:0:
253,127,81609,6,0,L|106:142,1,120.000004577637,0|0,1:0|0:0,0:0:0:0:
322,54,81952,2,0,L|469:39,1,120.000004577637,8|0,0:0|0:0,0:0:0:0:
410,196,82295,2,0,B|353:204|311:254|311:254|337:217|324:171,1,180.000006866455,0|0,0:0|0:0,0:0:0:0:
321,187,82637,5,8,0:0:0:0:
452,157,82809,2,0,P|446:189|449:232,1,60.0000022888184,0|0,0:0|0:0,0:0:0:0:
507,267,82980,6,0,P|439:241|280:252,1,180.000006866455,0|0,1:0|0:0,0:0:0:0:
318,241,83323,2,0,P|300:280|326:313,1,60.0000022888184,8|0,0:0|0:0,0:0:0:0:
367,340,83495,1,0,0:0:0:0:
367,340,83666,6,0,P|427:340|506:352,1,120.000004577637,0|0,0:0|1:0,0:0:0:0:
486,347,84009,5,8,0:0:0:0:
363,313,84180,2,0,P|325:319|281:340,1,60.0000022888184,2|2,0:0|0:0,0:0:0:0:
240,376,84352,6,0,P|247:298|238:236,1,120.000004577637,0|0,1:0|0:0,0:0:0:0:
160,165,84695,1,8,0:0:0:0:
160,165,84866,2,0,P|100:213|162:316,1,180.000006866455,0|0,0:0|0:0,0:0:0:0:
137,306,85209,1,0,1:0:0:0:
45,228,85380,2,0,B|19:249|19:249|60:239,1,60.0000022888184,8|2,0:0|0:0,0:0:0:0:
126,219,85552,1,2,0:0:0:0:
126,219,85723,6,0,P|186:232|265:241,1,120.000004577637,0|0,1:0|0:0,0:0:0:0:
253,372,86066,1,8,0:0:0:0:
253,372,86237,2,0,P|337:356|449:353,1,180.000006866455,0|0,0:0|0:0,0:0:0:0:
440,358,86580,1,0,1:0:0:0:
369,306,86752,5,8,0:0:0:0:
369,306,86923,2,0,P|369:275|398:242,1,60.0000022888184,2|2,0:0|0:0,0:0:0:0:
454,232,87095,2,0,P|499:271|506:356,1,120.000004577637,0|0,1:0|0:0,0:0:0:0:
440,358,87437,6,0,L|446:208,1,120.000004577637,8|2,0:0|0:0,0:0:0:0:
445,225,87695,1,10,0:0:0:0:
445,213,87780,2,0,L|450:125,2,60.0000022888184,0|10|0,0:0|0:0|1:0,0:0:0:0:
362,312,88123,6,0,P|287:349|239:309,1,120.000004577637,8|0,0:0|0:0,0:0:0:0:
253,326,88380,1,0,0:0:0:0:
248,314,88466,6,0,B|158:320|158:320|146:336|104:351,2,120.000004577637,0|0|8,1:0|0:0|0:0,0:0:0:0:
337,233,88980,6,0,P|257:176|168:211,1,180.000006866455,0|0,0:0|0:0,0:0:0:0:
171,207,89323,2,0,P|214:199|219:159,1,60.0000022888184,0|0,1:0|0:0,0:0:0:0:
199,103,89495,1,8,0:0:0:0:
199,103,89666,6,0,L|69:93,2,120.000004577637,2|0|0,0:0|1:0|0:0,0:0:0:0:
311,44,90180,1,8,0:0:0:0:
311,44,90352,2,0,P|389:9|449:36,1,120.000004577637,0|0,0:0|0:0,0:0:0:0:
510,103,90695,1,0,1:0:0:0:
430,93,90866,1,8,0:0:0:0:
430,93,91037,6,0,P|386:37|478:29,1,180.000006866455,0|0,0:0|0:0,0:0:0:0:
470,20,91380,1,0,0:0:0:0:
510,103,91552,1,8,0:0:0:0:
510,103,91723,2,0,P|421:92|288:88,1,180.000006866455,0|0,0:0|0:0,0:0:0:0:
317,92,92066,2,0,P|331:54|327:30,1,60.0000022888184,0|0,1:0|0:0,0:0:0:0:
256,6,92237,5,8,0:0:0:0:
208,73,92409,1,2,0:0:0:0:
208,73,92495,1,2,0:0:0:0:
208,73,92580,2,0,P|115:89|59:88,1,120.000004577637,0|0,1:0|0:0,0:0:0:0:
271,156,92923,2,0,P|364:140|420:141,1,120.000004577637,8|0,0:0|0:0,0:0:0:0:
130,141,93266,6,0,B|101:80|134:-1|227:36|206:102,1,180.000006866455,0|0,0:0|0:0,0:0:0:0:
201,84,93609,1,8,0:0:0:0:
285,66,93780,2,0,P|318:58|373:56,1,60.0000022888184,0|0,0:0|0:0,0:0:0:0:
412,22,93952,6,0,P|475:29|502:83,1,120.000004577637,0|0,1:0|0:0,0:0:0:0:
406,242,94295,2,0,P|342:235|245:231,1,120.000004577637,8|0,0:0|0:0,0:0:0:0:
221,278,94637,5,0,0:0:0:0:
221,278,94809,2,0,B|261:234|261:234|228:171,1,120.000004577637,0|8,1:0|0:0,0:0:0:0:
131,146,95152,1,2,0:0:0:0:
131,146,95237,1,2,0:0:0:0:
131,146,95323,6,0,P|216:155|293:64,1,180.000006866455,0|0,1:0|0:0,0:0:0:0:
290,81,95666,1,8,0:0:0:0:
226,32,95837,6,0,B|169:32|142:88|169:136|169:136|191:127|216:125,1,180.000006866455,0|0,0:0|0:0,0:0:0:0:
211,132,96180,1,0,1:0:0:0:
284,97,96352,6,0,P|345:88|445:88,1,120.000004577637,8|0,0:0|0:0,0:0:0:0:
512,145,96695,6,0,P|450:137|451:79,1,120.000004577637,0|0,1:0|0:0,0:0:0:0:
419,0,97037,2,0,P|443:57|392:85,1,120.000004577637,0|0,0:0|0:0,0:0:0:0:
340,154,97380,2,0,P|377:104|427:134,1,120.000004577637,0|0,0:0|1:0,0:0:0:0:
429,133,97637,1,2,0:0:0:0:
436,142,97723,2,0,B|433:168|433:168|439:174|439:174|435:218,3,60.0000022888184,8|0|2|2,0:0|0:0|0:0|0:0,0:0:0:0:
430,211,98066,6,0,B|469:192|511:202|511:202|498:223|492:280,1,120.000004577637,0|0,1:0|0:0,0:0:0:0:
493,247,98323,1,0,0:0:0:0:
487,257,98409,2,0,P|402:248|326:255,1,120.000004577637,8|2,0:0|0:0,0:0:0:0:
355,251,98666,1,10,0:0:0:0:
343,252,98752,2,0,P|301:256|258:265,1,60.0000022888184,0|10,0:0|0:0,0:0:0:0:
231,315,98923,6,0,P|250:252|224:196,2,120.000004577637,0|8|0,1:0|0:0|0:0,0:0:0:0:
222,323,99352,1,0,0:0:0:0:
213,331,99437,6,0,P|104:350|30:351,1,160,0|8,1:0|0:3,0:0:0:0:
54,351,99952,1,0,1:0:0:0:
76,195,100123,2,0,P|148:180|191:259,1,160,8|8,0:0|1:3,0:0:0:0:
192,243,100552,2,0,P|161:254|136:249,2,40
242,182,100809,2,0,P|296:167|340:172,2,80,0|0|8,0:0|1:0|0:3,0:0:0:0:
242,182,101409,5,0,0:0:0:0:
242,182,101495,2,0,P|258:105|245:18,1,160,8|0,0:0|0:0,0:0:0:0:
247,25,102180,5,0,1:0:0:0:
322,50,102352,1,0,1:0:0:0:
204,156,102523,5,0,1:0:0:0:
188,78,102695,1,0,1:0:0:0:
338,128,102866,5,0,1:0:0:0:
278,180,103037,1,0,1:0:0:0:
247,25,103209,6,0,L|313:48,1,40,0|0,1:0|0:0,0:0:0:0:
278,180,103380,2,0,L|212:157,1,40,0|0,1:0|0:0,0:0:0:0:
338,128,103552,5,0,1:0:0:0:
350,124,103637,1,0,1:0:0:0:
363,120,103723,1,0,1:0:0:0:
376,116,103809,1,0,1:0:0:0:
389,113,103895,5,8,1:3:0:0:
398,122,103980,1,0,1:0:0:0:
407,132,104066,1,0,1:0:0:0:
416,142,104152,1,0,1:0:0:0:
424,152,104237,5,0,1:0:0:0:
420,181,104322,1,0,1:0:0:0:
416,211,104408,1,0,1:0:0:0:
413,241,104494,1,0,1:0:0:0:
409,271,104579,5,8,0:0:0:0:
375,345,104752,1,0,0:0:0:0:
375,345,104837,1,0,0:0:0:0:
375,345,104923,6,0,P|350:354|314:355,3,40,4|0|0|0,1:2|0:0|0:0|0:0,0:0:0:0:
269,312,105266,2,0,P|242:307|211:290,1,40,8|0,0:0|0:0,0:0:0:0:
163,259,105437,6,0,L|149:312,3,40,0|0|0|0,0:0|0:0|0:0|0:0,0:0:0:0:
238,222,105780,2,0,L|290:207,1,40,0|0,1:0|0:0,0:0:0:0:
169,176,105952,2,0,L|130:137,1,40,8|0,0:0|0:0,0:0:0:0:
163,259,106123,1,0,0:0:0:0:
163,259,106209,1,0,0:0:0:0:
163,259,106295,6,0,P|141:284|114:290,3,40,0|0|0|0,1:0|0:0|0:0|0:0,0:0:0:0:
88,351,106637,2,0,P|56:361|30:353,1,40,8|0,0:0|0:0,0:0:0:0:
18,267,106809,6,0,P|54:276|76:291,3,40,0|0|0|0,0:0|0:0|0:0|0:0,0:0:0:0:
130,250,107152,6,0,P|162:268|179:288,1,40,0|0,1:0|0:0,0:0:0:0:
242,262,107323,2,0,P|268:287|280:311,1,40,8|0,0:0|0:0,0:0:0:0:
347,302,107495,2,0,P|366:333|371:359,1,40,0|0,0:0|0:0,0:0:0:0:
366,336,107666,6,0,P|351:268|358:187,1,120,0|0,1:0|0:0,0:0:0:0:
356,207,108009,1,8,0:0:0:0:
441,252,108180,6,0,P|438:280|428:309,3,40
428,171,108523,6,0,P|431:143|441:114,1,40,0|0,1:0|0:0,0:0:0:0:
356,207,108695,2,0,P|353:235|343:264,3,40,8|0|0|0,0:0|0:0|0:0|0:0,0:0:0:0:
325,131,109037,6,0,P|281:98|204:135,1,120,0|0,1:0|0:0,0:0:0:0:
164,166,109380,2,0,P|176:196|181:224,3,40,8|0|0|0,0:0|0:0|0:0|0:0,0:0:0:0:
109,108,109723,5,0,0:0:0:0:
109,108,109895,2,0,P|63:111|29:153,2,80,0|8|0,1:0|0:0|0:0,0:0:0:0:
116,110,110323,1,0,0:0:0:0:
123,112,110409,6,0,P|135:120|160:127,3,40,0|0|0|0,1:0|0:0|0:0|0:0,0:0:0:0:
236,146,110752,2,0,P|250:147|275:140,1,40,8|0,0:0|0:0,0:0:0:0:
350,118,110923,2,0,P|363:111|381:93,3,40,0|0|0|0,0:0|0:0|0:0|0:0,0:0:0:0:
380,93,111266,6,0,P|381:113|375:132,1,40,0|0,1:0|0:0,0:0:0:0:
430,187,111437,2,0,L|400:217,3,40,8|0|0|0,0:0|0:0|0:0|0:0,0:0:0:0:
375,131,111780,2,0,L|264:125,1,80,0|0,1:0|0:0,0:0:0:0:
435,77,112123,2,0,L|487:80,2,40,8|0|0,0:0|0:0|0:0,0:0:0:0:
304,24,112466,5,0,0:0:0:0:
304,24,112637,2,0,P|266:72|284:116,2,80,0|8|0,1:0|0:0|0:0,0:0:0:0:
321,149,113152,6,0,P|255:100|157:116,1,160,0|8,1:0|0:0,0:0:0:0:
142,172,113666,1,0,0:0:0:0:
142,172,113837,6,0,P|160:201|161:218,3,40,0|0|0|0,0:0|0:0|1:0|0:0,0:0:0:0:
199,276,114180,2,0,P|191:309|179:321,3,40,8|0|0|0,0:0|0:0|0:0|0:0,0:0:0:0:
155,383,114523,5,0,1:0:0:0:
278,295,114780,1,0,0:0:0:0:
278,295,114866,2,0,P|305:283|343:284,2,40,8|0|0,0:0|0:0|0:0,0:0:0:0:
362,350,115123,1,8,0:0:0:0:
362,350,115209,2,0,L|415:353,1,40,0|8,0:0|0:0,0:0:0:0:
473,321,115380,2,0,L|526:324,1,40,0|0,1:0|0:0,0:0:0:0:
500,243,115552,6,0,L|391:242,1,80,8|0,0:0|0:0,0:0:0:0:
413,237,115809,1,0,0:0:0:0:
406,232,115895,6,0,L|393:182,3,40,0|0|0|0,1:0|0:0|0:0|0:0,0:0:0:0:
323,160,116237,6,0,L|350:117,1,40,8|0,0:0|0:0,0:0:0:0:
428,120,116409,2,0,L|467:121,1,40
361,23,116580,2,0,L|384:67,1,40
345,132,116752,2,0,L|323:165,1,40,0|0,1:0|0:0,0:0:0:0:
245,174,116923,6,0,P|201:187|154:182,1,80,8|0,0:0|0:0,0:0:0:0:
159,182,117180,1,0,0:0:0:0:
151,179,117266,6,0,P|130:169|96:170,3,40,0|0|0|0,1:0|0:0|0:0|0:0,0:0:0:0:
49,122,117609,2,0,P|15:127|-6:141,1,40,8|0,0:0|0:0,0:0:0:0:
122,85,117780,6,0,P|138:60|140:39,3,40,0|0|0|0,0:0|0:0|0:0|0:0,0:0:0:0:
219,43,118123,6,0,P|245:29|257:12,1,40,0|0,1:0|0:0,0:0:0:0:
324,55,118295,2,0,P|353:56|372:47,1,40,8|0,0:0|0:0,0:0:0:0:
408,117,118466,2,0,P|433:133|454:134,1,40,0|0,0:0|0:0,0:0:0:0:
495,194,118637,6,0,L|482:253,3,40,0|0|0|0,1:0|0:0|0:0|0:0,0:0:0:0:
406,211,118980,2,0,L|419:152,1,40,8|0,0:0|0:0,0:0:0:0:
377,93,119152,6,0,P|413:55|491:98,1,120,0|0,0:0|0:0,0:0:0:0:
480,74,119495,2,0,P|480:107|467:128,1,40,0|0,1:0|0:0,0:0:0:0:
414,171,119666,2,0,L|362:168,3,40,8|0|0|0,0:0|0:0|0:0|0:0,0:0:0:0:
377,93,120009,6,0,P|342:140|263:119,1,120,0|0,1:0|0:0,0:0:0:0:
220,94,120352,2,0,P|206:69|212:42,3,40,8|0|0|0,0:0|0:0|0:0|0:0,0:0:0:0:
283,48,120695,1,0,0:0:0:0:
283,48,120866,2,0,L|386:39,2,80,0|8|0,1:0|0:0|0:0,0:0:0:0:
276,43,121295,1,0,0:0:0:0:
269,38,121380,6,0,P|281:102|280:183,1,120,0|0,1:0|0:0,0:0:0:0:
282,165,121723,6,0,P|279:202|276:216,1,40,8|0,0:0|0:0,0:0:0:0:
207,234,121895,2,0,P|181:253|154:253,3,40,0|0|0|0,0:0|0:0|0:0|0:0,0:0:0:0:
269,285,122237,1,0,1:0:0:0:
269,285,122409,2,0,P|297:309|309:333,3,40,8|0|0|0,0:0|0:0|0:0|0:0,0:0:0:0:
243,366,122752,6,0,P|318:344|369:347,1,120,0|0,1:0|0:0,0:0:0:0:
436,358,123095,2,0,P|466:364|485:374,2,40,8|0|0,0:0|0:0|0:0,0:0:0:0:
362,261,123437,1,0,0:0:0:0:
362,261,123609,2,0,L|350:165,2,80,0|8|0,1:0|0:0|0:0,0:0:0:0:
432,210,124123,6,0,P|423:148|401:49,1,160,0|8,1:0|0:0,0:0:0:0:
402,52,124637,1,0,0:0:0:0:
343,153,124809,2,0,P|288:174|247:159,1,80,0|0,0:0|1:0,0:0:0:0:
185,76,125152,6,0,L|130:69,3,40,8|0|0|0,0:0|0:0|0:0|0:0,0:0:0:0:
93,9,125495,6,0,P|106:83|107:159,1,120,0|0,1:0|0:0,0:0:0:0:
106,135,125837,2,0,P|91:94|107:52,1,80,8|0,0:0|0:0,0:0:0:0:
176,37,126095,1,8,0:0:0:0:
176,37,126180,1,0,0:0:0:0:
176,37,126266,2,0,L|226:44,1,40,8|0,0:0|1:0,0:0:0:0:
285,150,126523,2,0,L|335:143,1,40,8|0,0:0|0:0,0:0:0:0:
391,105,126694,1,0,0:0:0:0:
391,105,126780,1,0,0:0:0:0:
391,105,126866,6,0,P|352:167|393:250,1,160,4|8,1:2|0:3,0:0:0:0:
382,242,127380,1,0,1:0:0:0:
475,275,127552,2,0,P|433:253|385:263,1,80,8|0,0:0|0:0,0:0:0:0:
384,337,127895,2,0,P|426:359|474:349,1,80,8|0,1:3|0:0,0:0:0:0:
464,353,128152,1,0,0:0:0:0:
471,349,128237,6,0,L|364:356,1,80,0|0,1:0|1:0,0:0:0:0:
382,272,128580,2,0,L|489:265,1,80,8|0,0:3|0:0,0:0:0:0:
319,327,128923,2,0,P|251:353|173:298,1,160,8|8,0:0|0:3,0:0:0:0:
180,311,129437,1,2,0:0:0:0:
258,162,129609,6,0,B|298:125|360:144|360:144|336:166|322:208,1,160,0|8,1:0|0:3,0:0:0:0:
330,185,130123,1,0,1:0:0:0:
338,107,130295,2,0,L|346:24,1,80,8|0,0:0|0:0,0:0:0:0:
217,33,130637,2,0,L|212:85,3,40,8|0|0|0,1:3|0:0|0:0|0:0,0:0:0:0:
220,87,130980,6,0,P|176:68|122:78,1,80,0|0,1:0|1:0,0:0:0:0:
42,135,131323,2,0,P|77:152|117:152,1,80,0|0,0:0|0:0,0:0:0:0:
124,150,131580,1,0,0:0:0:0:
131,147,131666,6,0,L|151:240,1,80,8|0,0:0|0:0,0:0:0:0:
269,248,132009,2,0,L|262:298,1,40,8|0,0:3|0:0,0:0:0:0:
252,364,132180,1,0,1:0:0:0:
252,364,132352,6,0,P|309:332|404:357,1,160,0|8,1:0|0:3,0:0:0:0:
397,351,132866,1,0,1:0:0:0:
343,285,133037,2,0,P|331:229|345:187,1,80,8|0,0:0|0:0,0:0:0:0:
426,198,133380,2,0,P|438:254|424:296,1,80,8|0,1:3|0:0,0:0:0:0:
429,282,133637,1,0,0:0:0:0:
425,289,133723,6,0,L|318:278,1,80,0|0,1:0|1:0,0:0:0:0:
314,177,134066,2,0,L|421:188,1,80,8|0,0:3|0:0,0:0:0:0:
272,250,134409,1,8,0:0:0:0:
272,250,134580,2,0,B|242:255|242:255|228:268|228:268|180:277,2,80,0|8|0,0:0|0:3|0:0,0:0:0:0:
258,119,135095,5,0,1:0:0:0:
314,177,135266,1,0,1:0:0:0:
254,109,135437,5,0,1:0:0:0:
276,31,135608,1,0,1:0:0:0:
248,118,135780,5,0,1:0:0:0:
169,137,135951,1,0,1:0:0:0:
276,31,136123,6,0,L|332:20,3,40,8|0|0|2,1:3|0:0|1:0|0:0,0:0:0:0:
381,62,136466,5,0,1:0:0:0:
383,75,136551,1,0,1:0:0:0:
385,88,136637,1,0,1:0:0:0:
387,101,136723,1,0,1:0:0:0:
391,114,136809,5,8,1:3:0:0:
388,127,136894,1,0,1:0:0:0:
386,140,136980,1,0,1:0:0:0:
384,153,137066,1,0,1:0:0:0:
382,167,137152,5,0,1:0:0:0:
387,196,137237,1,0,1:0:0:0:
393,225,137323,1,0,1:0:0:0:
399,255,137409,1,0,1:0:0:0:
405,284,137494,5,8,0:0:0:0:
315,308,137666,1,0,0:0:0:0:
315,308,137752,1,0,0:0:0:0:
315,308,137837,6,0,B|303:260|303:260|312:241|312:241|299:186,2,120.000004577637,4|0|8,1:2|0:0|0:0,0:0:0:0:
125,196,138351,2,0,P|199:162|329:195,1,180.000006866455,0|0,0:0|0:0,0:0:0:0:
314,175,138694,2,0,B|326:205|326:205|315:197|298:192,1,60.0000022888184,0|0,1:0|0:0,0:0:0:0:
298,91,138865,1,8,0:0:0:0:
298,91,139037,6,0,P|327:78|368:77,1,60.0000022888184,2|2,0:0|0:0,0:0:0:0:
422,32,139208,2,0,B|478:25|512:52|512:52|493:54|477:78,2,120.000004577637,0|0|8,1:0|0:0|0:0,0:0:0:0:
298,91,139722,1,0,0:0:0:0:
298,91,139894,2,0,P|204:120|160:106,1,120.000004577637,0|0,0:0|1:0,0:0:0:0:
40,71,140237,1,8,0:0:0:0:
40,71,140408,6,0,B|72:61|85:33|85:33|57:89|54:138|54:138|63:100|106:78,1,240.000009155274,0|0,0:0|0:0,0:0:0:0:
14,0,140922,1,8,0:0:0:0:
14,0,141094,6,0,P|95:42|233:34,1,180.000006866455,0|0,0:0|0:0,0:0:0:0:
192,54,141437,2,0,P|229:51|278:38,1,60.0000022888184,0|0,1:0|0:0,0:0:0:0:
327,22,141608,2,0,P|271:54|257:122,1,120.000004577637,8|2,0:0|0:0,0:0:0:0:
256,116,141865,1,2,0:0:0:0:
261,127,141951,6,0,L|408:142,1,120.000004577637,0|0,1:0|0:0,0:0:0:0:
192,54,142294,2,0,L|45:39,1,120.000004577637,8|0,0:0|0:0,0:0:0:0:
104,196,142637,2,0,B|161:204|203:254|203:254|177:217|190:171,1,180.000006866455,0|0,0:0|0:0,0:0:0:0:
193,187,142979,5,8,0:0:0:0:
62,157,143151,2,0,P|68:189|65:232,1,60.0000022888184,0|0,0:0|0:0,0:0:0:0:
7,267,143322,6,0,P|75:241|234:252,1,180.000006866455,0|0,1:0|0:0,0:0:0:0:
196,241,143665,2,0,P|214:280|188:313,1,60.0000022888184,8|0,0:0|0:0,0:0:0:0:
147,340,143837,1,0,0:0:0:0:
147,340,144008,6,0,P|87:340|8:352,1,120.000004577637,0|0,0:0|1:0,0:0:0:0:
28,347,144351,5,8,0:0:0:0:
151,313,144522,2,0,P|189:319|233:340,1,60.0000022888184,2|2,0:0|0:0,0:0:0:0:
274,376,144694,6,0,P|267:298|276:236,1,120.000004577637,0|0,1:0|0:0,0:0:0:0:
354,165,145037,1,8,0:0:0:0:
354,165,145208,2,0,P|414:213|352:316,1,180.000006866455,0|0,0:0|0:0,0:0:0:0:
377,306,145551,1,0,1:0:0:0:
469,228,145722,2,0,B|495:249|495:249|454:239,1,60.0000022888184,8|0,0:0|0:0,0:0:0:0:
388,219,145894,1,2,0:0:0:0:
388,219,146065,6,0,P|328:232|249:241,1,120.000004577637,0|0,1:0|0:0,0:0:0:0:
261,372,146408,1,8,0:0:0:0:
261,372,146579,2,0,P|177:356|65:353,1,180.000006866455,0|0,0:0|0:0,0:0:0:0:
74,358,146922,1,0,1:0:0:0:
145,306,147094,5,8,0:0:0:0:
145,306,147265,2,0,P|145:275|116:242,1,60.0000022888184,2|2,0:0|0:0,0:0:0:0:
60,232,147437,2,0,P|15:271|8:356,1,120.000004577637,0|0,1:0|0:0,0:0:0:0:
74,358,147779,6,0,L|68:208,1,120.000004577637,8|2,0:0|0:0,0:0:0:0:
69,225,148037,1,10,0:0:0:0:
69,213,148122,2,0,L|64:125,2,60.0000022888184,0|10|0,0:0|0:0|1:0,0:0:0:0:
152,312,148465,6,0,P|227:349|275:309,1,120.000004577637,8|0,0:0|0:0,0:0:0:0:
261,326,148722,1,0,0:0:0:0:
266,314,148808,6,0,B|356:320|356:320|368:336|410:351,2,120.000004577637,0|0|8,1:0|0:0|0:0,0:0:0:0:
177,233,149322,6,0,P|257:176|346:211,1,180.000006866455,0|0,0:0|0:0,0:0:0:0:
343,207,149665,2,0,P|300:199|295:159,1,60.0000022888184,0|0,1:0|0:0,0:0:0:0:
315,103,149837,1,8,0:0:0:0:
315,103,150008,6,0,L|445:93,2,120.000004577637,2|0|0,0:0|1:0|0:0,0:0:0:0:
203,44,150522,1,8,0:0:0:0:
203,44,150694,2,0,P|125:9|65:36,1,120.000004577637,0|0,0:0|0:0,0:0:0:0:
4,103,151037,1,0,1:0:0:0:
84,93,151208,1,8,0:0:0:0:
84,93,151379,6,0,P|121:91|144:56,1,60.0000022888184,0|0,0:0|0:0,0:0:0:0:
64,8,151552,2,0,P|27:10|4:45,1,60.0000022888184,0|0,1:0|0:0,0:0:0:0:
4,103,151722,1,0,0:0:0:0:
4,103,151894,1,8,0:0:0:0:
4,103,152065,2,0,P|93:92|226:88,1,180.000006866455,0|0,0:0|0:0,0:0:0:0:
197,92,152408,2,0,P|183:54|187:30,1,60.0000022888184,0|0,1:0|0:0,0:0:0:0:
258,6,152579,5,8,0:0:0:0:
306,73,152751,1,2,0:0:0:0:
306,73,152837,1,2,0:0:0:0:
306,73,152922,2,0,P|399:89|455:88,1,120.000004577637,0|0,1:0|0:0,0:0:0:0:
243,156,153265,2,0,P|150:140|94:141,1,120.000004577637,8|0,0:0|0:0,0:0:0:0:
384,141,153608,6,0,B|413:80|380:-1|287:36|308:102,1,180.000006866455,0|0,0:0|0:0,0:0:0:0:
313,84,153951,1,8,0:0:0:0:
229,66,154122,2,0,P|196:58|141:56,1,60.0000022888184,0|0,0:0|0:0,0:0:0:0:
102,22,154294,6,0,P|39:29|12:83,1,120.000004577637,0|0,1:0|0:0,0:0:0:0:
108,242,154637,2,0,P|172:235|269:231,1,120.000004577637,8|0,0:0|0:0,0:0:0:0:
293,278,154979,5,0,0:0:0:0:
293,278,155151,2,0,B|253:234|253:234|286:171,1,120.000004577637,0|8,1:0|0:0,0:0:0:0:
383,146,155494,1,2,0:0:0:0:
383,146,155579,1,2,0:0:0:0:
383,146,155665,6,0,P|298:155|221:64,1,180.000006866455,0|0,1:0|0:0,0:0:0:0:
224,81,156008,1,8,0:0:0:0:
288,32,156179,6,0,B|345:32|372:88|345:136|345:136|323:127|298:125,1,180.000006866455,0|0,0:0|0:0,0:0:0:0:
303,132,156522,1,0,1:0:0:0:
230,97,156694,6,0,P|169:88|69:88,1,120.000004577637,8|0,0:0|0:0,0:0:0:0:
2,145,157037,6,0,P|64:137|63:79,1,120.000004577637,0|0,1:0|0:0,0:0:0:0:
95,0,157379,2,0,P|71:57|122:85,1,120.000004577637,8|0,0:0|0:0,0:0:0:0:
174,154,157722,2,0,P|137:104|87:134,1,120.000004577637,0|0,0:0|1:0,0:0:0:0:
85,133,157979,1,2,0:0:0:0:
78,142,158065,2,0,B|81:168|81:168|75:174|75:174|79:218,3,60.0000022888184,8|0|2|2,0:0|0:0|0:0|0:0,0:0:0:0:
84,211,158408,6,0,B|45:192|3:202|3:202|16:223|22:280,1,120.000004577637,0|0,1:0|0:0,0:0:0:0:
21,247,158665,1,0,0:0:0:0:
27,257,158751,2,0,P|112:248|188:255,1,120.000004577637,8|2,0:0|0:0,0:0:0:0:
159,251,159008,1,10,0:0:0:0:
171,252,159094,2,0,P|213:256|256:265,1,60.0000022888184,0|10,0:0|0:0,0:0:0:0:
283,315,159265,6,0,P|264:252|290:196,2,120.000004577637,0|8|0,1:0|0:0|0:0,0:0:0:0:
292,323,159694,1,0,0:0:0:0:
300,331,159780,6,0,P|396:318|478:318,1,160,4|8,1:2|0:3,0:0:0:0:
460,209,160466,6,0,P|405:205|368:196,1,80,0|0,0:0|0:0,0:0:0:0:
392,120,160809,2,0,P|447:124|484:133,1,80,8|0,0:3|0:0,0:0:0:0:
316,151,161152,1,2,0:0:0:0:
316,151,161323,2,0,P|349:92|340:63,1,80,0|8,0:0|0:3,0:0:0:0:
238,2,161666,6,0,B|234:69|234:69|242:83|242:83|234:185,2,160,0|0|0,0:0|0:0|0:0,0:0:0:0:
189,84,162523,2,0,P|158:118|43:112,1,160,2|8,0:0|0:3,0:0:0:0:
50,117,163209,2,0,P|118:122|144:147,1,80,0|0,0:0|0:0,0:0:0:0:
94,205,163552,2,0,P|59:202|47:195,3,40,8|0|0|0,0:3|0:0|0:0|0:0,0:0:0:0:
114,213,163895,6,0,L|220:202,1,80,2|0,0:0|0:0,0:0:0:0:
255,265,164237,1,8,0:3:0:0:
255,265,164409,2,0,L|423:247,1,160,0|0,0:0|0:0,0:0:0:0:
414,248,164923,5,8,0:3:0:0:
394,144,165095,2,0,P|376:163|375:189,1,40,0|0,0:0|0:0,0:0:0:0:
414,248,165266,6,0,P|456:291|482:210,1,160,2|8,0:0|0:3,0:0:0:0:
496,225,165780,1,0,0:0:0:0:
442,154,165952,2,0,L|353:148,1,80,0|0,0:0|0:0,0:0:0:0:
376,228,166295,2,0,L|415:230,3,40,8|0|0|0,0:3|0:0|0:0|0:0,0:0:0:0:
361,235,166637,6,0,B|352:174|352:174|319:152,1,80,2|0,0:0|0:0,0:0:0:0:
261,212,166980,2,0,B|270:273|270:273|303:295,1,80,8|0,0:3|0:0,0:0:0:0:
261,131,167323,1,0,0:0:0:0:
261,131,167495,2,0,P|194:79|111:106,1,160,0|0,0:0|0:0,0:0:0:0:
55,179,168009,6,0,P|124:176|151:148,1,80,2|0,0:0|0:0,0:0:0:0:
125,93,168352,2,0,P|56:96|29:124,1,80,8|0,0:3|0:0,0:0:0:0:
197,130,168695,2,0,L|286:139,1,80,0|0,0:0|0:0,0:0:0:0:
252,215,169037,2,0,L|207:210,3,40,8|0|0|0,0:3|0:0|0:0|0:0,0:0:0:0:
267,226,169380,6,0,P|295:260|312:307,1,80,2|0,0:0|0:0,0:0:0:0:
228,351,169723,2,0,P|200:317|183:270,1,80,8|0,0:3|0:0,0:0:0:0:
121,158,170066,6,0,L|226:173,1,80,0|0,0:0|0:0,0:0:0:0:
24,211,170409,2,0,B|35:196|38:171|38:171|41:194|59:205,1,80,8|0,0:0|0:0,0:0:0:0:
61,208,170666,1,0,0:0:0:0:
68,205,170752,6,0,P|116:267|75:352,1,160,0|0,1:0|0:0,0:0:0:0:
92,338,171266,1,0,1:0:0:0:
12,332,171438,2,0,L|107:339,1,80,8|0,0:0|0:0,0:0:0:0:
159,205,171781,2,0,L|64:198,1,80,0|0,1:0|0:0,0:0:0:0:
7,171,172038,1,0,0:0:0:0:
0,171,172123,6,0,B|13:273,2,80,0|0|0,0:0|1:0|0:0,0:0:0:0:
170,0,172809,2,0,B|191:161,1,160,8|0,0:0|0:0,0:0:0:0:
191,158,173323,1,0,0:0:0:0:
326,47,173495,6,0,P|404:4|476:33,1,160,0|0,1:0|0:0,0:0:0:0:
467,24,174009,1,0,1:0:0:0:
512,128,174181,2,0,P|446:114|426:85,1,80,8|0,0:0|0:0,0:0:0:0:
254,26,174523,2,0,P|320:40|340:69,1,80,0|0,1:0|0:0,0:0:0:0:
356,120,174781,1,0,0:0:0:0:
350,130,174866,6,2,L|363:238,2,80,0|0|0,0:0|1:0|0:0,0:0:0:0:
196,89,175552,2,0,L|218:270,1,160,8|0,0:0|0:0,0:0:0:0:
216,247,176066,1,0,1:0:0:0:
310,66,176238,6,0,P|354:54|419:99,1,120,0|0,1:0|0:0,0:0:0:0:
350,130,176581,2,0,L|357:240,1,80,0|0,0:0|1:0,0:0:0:0:
444,305,176923,2,0,L|276:282,1,160,8|0,0:0|1:0,0:0:0:0:
372,341,177438,1,0,0:0:0:0:
372,341,177523,1,0,0:0:0:0:
372,341,177609,6,0,L|461:335,2,80,0|0|0,0:0|1:0|0:0,0:0:0:0:
300,188,178295,2,0,L|484:175,1,160,8|0,0:0|0:0,0:0:0:0:
460,177,178809,1,0,0:0:0:0:
341,110,178980,6,0,L|246:102,1,80,0|0,1:0|0:0,0:0:0:0:
267,26,179323,2,0,L|362:34,1,80,0|0,0:0|0:0,0:0:0:0:
115,154,179666,6,0,L|210:146,1,80,0|0,0:0|0:0,0:0:0:0:
167,73,180009,2,0,L|119:77,3,40,0|0|0|0,0:0|0:0|0:0|0:0,0:0:0:0:
181,66,180352,6,0,B|190:12|190:12|177:28|165:37,1,80,0|0,0:0|0:0,0:0:0:0:
106,101,180695,2,0,B|97:155|97:155|109:138|122:130,1,80,0|0,0:0|0:0,0:0:0:0:
219,59,181037,2,0,P|181:65|158:88,1,40,8|0,0:0|0:0,0:0:0:0:
106,101,181209,1,0,1:0:0:0:
182,182,181380,2,0,P|249:170|281:150,1,80,0|0,0:0|1:0,0:0:0:0:
266,162,181637,1,0,0:0:0:0:
272,158,181723,6,0,L|385:141,1,80,6|0,1:2|0:0,0:0:0:0:
395,361,182066,2,0,L|475:350,1,80,8|0,0:0|0:0,0:0:0:0:
322,333,182409,6,0,B|318:321|318:321|327:226|327:226|343:208,2,120.000004577637,2|0|8,0:0|1:0|0:0,0:0:0:0:
444,286,182923,1,2,0:0:0:0:
444,286,183009,1,2,0:0:0:0:
444,286,183095,6,0,P|506:273|516:328,1,120.000004577637,0|2,1:0|0:0,0:0:0:0:
322,333,183438,2,0,P|279:285|322:249,1,120.000004577637,10|0,0:0|0:0,0:0:0:0:
322,333,183781,6,0,B|276:328|276:328|251:336|251:336|178:330,2,120.000004577637,2|0|10,0:0|1:0|0:0,0:0:0:0:
312,201,184466,6,0,P|358:241|355:263,2,80,2|0|8,1:2|0:0|0:0,0:0:0:0:
229,251,185152,6,0,L|235:114,2,120.000004577637,2|0|8,0:0|1:0|0:0,0:0:0:0:
117,187,185666,1,2,0:0:0:0:
117,187,185752,1,2,0:0:0:0:
117,187,185838,6,0,L|-8:199,1,120.000004577637,0|2,1:0|0:0,0:0:0:0:
229,251,186181,2,0,L|104:263,1,120.000004577637,10|0,0:0|0:0,0:0:0:0:
229,251,186523,2,0,B|235:218|263:198|299:207|299:207|323:255,2,120.000004577637,2|0|10,0:0|1:0|0:0,0:0:0:0:
173,341,187038,1,0,0:0:0:0:
173,341,187123,1,0,0:0:0:0:
173,341,187209,6,0,L|267:343,1,80,2|0,1:2|0:0,0:0:0:0:
310,230,187552,2,0,L|404:232,1,80,8|0,0:0|0:0,0:0:0:0:
414,309,187895,6,0,L|396:162,1,120.000004577637,2|0,0:0|1:0,0:0:0:0:
275,151,188238,2,0,L|293:298,1,120.000004577637,10|2,0:0|0:0,0:0:0:0:
291,281,188495,1,2,0:0:0:0:
292,292,188581,6,0,B|306:265|306:265|352:243|395:285,1,120.000004577637,0|0,1:0|0:0,0:0:0:0:
225,222,188923,2,0,B|194:223|194:223|152:194|167:136,1,120.000004577637,10|0,0:0|0:0,0:0:0:0:
202,318,189266,6,0,B|173:309|147:325|147:325|120:342|86:332,2,120.000004577637,2|0|10,0:0|1:0|0:0,0:0:0:0:
225,222,189781,1,0,0:0:0:0:
225,222,189952,6,0,L|219:319,1,80,0|0,1:0|0:0,0:0:0:0:
368,309,190295,2,0,L|374:212,1,80,10|0,0:0|0:0,0:0:0:0:
297,88,190638,6,0,P|233:93|249:163,1,120.000004577637,2|0,0:0|1:0,0:0:0:0:
411,111,190981,2,0,P|438:53|370:31,1,120.000004577637,10|2,0:0|0:0,0:0:0:0:
392,31,191238,1,0,0:0:0:0:
382,38,191323,6,0,L|395:181,1,120.000004577637,0|2,1:0|0:0,0:0:0:0:
272,167,191666,2,0,L|259:24,1,120.000004577637,10|0,0:0|0:0,0:0:0:0:
250,42,191923,1,8,0:0:0:0:
239,36,192009,2,0,P|198:37|173:70,1,60.0000022888184,2|8,0:0|0:0,0:0:0:0:
105,63,192181,2,0,P|85:99|101:137,1,60.0000022888184,0|0,1:0|0:0,0:0:0:0:
184,47,192352,6,0,L|52:36,1,120.000004577637,10|0,0:0|0:0,0:0:0:0:
52,36,192609,1,0,0:0:0:0:
39,35,192695,6,0,L|55:138,1,80,2|0,1:2|0:0,0:0:0:0:
197,125,193038,2,0,L|213:228,1,80,8|0,0:0|0:0,0:0:0:0:
9,211,193381,6,0,B|109:193|109:193|154:201,2,120.000004577637,2|0|8,0:0|1:0|0:0,0:0:0:0:
80,293,193895,1,2,0:0:0:0:
80,293,193981,1,2,0:0:0:0:
80,293,194066,6,0,P|146:293|145:347,1,120.000004577637,0|2,1:0|0:0,0:0:0:0:
58,201,194409,2,0,P|25:143|72:117,1,120.000004577637,10|0,0:0|0:0,0:0:0:0:
58,201,194752,2,0,B|51:249|51:249|57:267|57:267|46:345,2,120.000004577637,2|0|10,0:0|1:0|0:0,0:0:0:0:
243,304,195438,6,0,L|329:295,1,80,2|0,1:2|0:0,0:0:0:0:
309,166,195781,2,0,L|223:175,1,80,8|0,0:0|0:0,0:0:0:0:
370,224,196123,6,0,B|398:210|427:225|427:225|456:237|492:217,2,120.000004577637,2|0|8,0:0|1:0|0:0,0:0:0:0:
296,380,196638,1,2,0:0:0:0:
296,380,196723,1,2,0:0:0:0:
296,380,196809,6,0,P|316:290|274:245,1,120.000004577637,0|2,1:0|0:0,0:0:0:0:
211,263,197152,2,0,P|191:353|233:398,1,120.000004577637,10|0,0:0|0:0,0:0:0:0:
211,263,197495,6,0,B|215:221|239:196|239:196|212:192|181:170,2,120.000004577637,2|0|10,0:0|1:0|0:0,0:0:0:0:
242,113,198009,1,0,0:0:0:0:
242,113,198095,1,0,0:0:0:0:
242,113,198181,6,0,L|335:121,1,80,2|0,1:2|0:0,0:0:0:0:
231,19,198523,2,0,L|138:11,1,80,8|0,0:0|0:0,0:0:0:0:
349,46,198866,6,0,B|395:40|395:40|416:59|416:59|475:53,2,120.000004577637,2|0|10,0:0|1:0|0:0,0:0:0:0:
408,148,199381,1,2,0:0:0:0:
408,148,199466,1,2,0:0:0:0:
408,148,199552,6,0,P|372:205|426:248,1,120.000004577637,0|0,1:0|0:0,0:0:0:0:
368,61,199895,2,0,P|336:1|272:26,1,120.000004577637,10|0,0:0|0:0,0:0:0:0:
457,77,200238,6,0,B|514:57|514:57|492:-3,2,120.000004577637,2|0|10,0:0|1:0|0:0,0:0:0:0:
368,61,200752,1,0,0:0:0:0:
368,61,200923,6,0,L|281:56,1,80,0|0,1:0|0:0,0:0:0:0:
160,117,201266,2,0,L|240:122,1,80,2|0,1:2|0:0,0:0:0:0:
114,48,201609,2,0,L|27:43,1,80,2|0,0:0|1:0,0:0:0:0:
79,139,201952,5,10,0:0:0:0:
79,139,202037,1,2,0:0:0:0:
79,139,202123,1,2,0:0:0:0:
79,139,202209,1,2,0:0:0:0:
79,139,202295,5,0,1:0:0:0:
160,119,202466,1,2,1:2:0:0:
46,0,202638,5,2,1:2:0:0:
22,79,202809,1,0,1:0:0:0:
127,26,202981,6,0,L|123:56,4,20,2|0|0|0|0,1:2|0:0|1:0|1:0|1:0,0:0:0:0:
204,51,203323,6,0,B|233:46|233:46|248:58|248:58|281:54,1,80,10|2,0:0|0:0,0:0:0:0:
287,54,203580,1,2,0:0:0:0:
299,52,203666,6,0,B|287:100|287:100|296:119|296:119|283:174,2,120.000004577637,4|0|8,1:2|0:0|0:0,0:0:0:0:
125,188,204180,2,0,P|199:222|329:189,1,180.000006866455,0|0,0:0|0:0,0:0:0:0:
314,209,204523,2,0,B|326:179|326:179|315:187|298:192,1,60.0000022888184,0|0,1:0|0:0,0:0:0:0:
298,293,204694,1,8,0:0:0:0:
298,293,204866,6,0,P|327:306|368:307,1,60.0000022888184,2|2,0:0|0:0,0:0:0:0:
422,352,205037,2,0,B|478:359|512:332|512:332|493:330|477:306,2,120.000004577637,0|0|8,1:0|0:0|0:0,0:0:0:0:
298,293,205551,1,0,0:0:0:0:
298,293,205723,2,0,P|204:264|160:278,1,120.000004577637,0|0,0:0|1:0,0:0:0:0:
40,313,206066,1,8,0:0:0:0:
40,313,206237,6,0,B|72:323|85:351|85:351|57:295|54:246|54:246|63:284|106:306,1,240.000009155274,0|0,0:0|0:0,0:0:0:0:
14,384,206751,1,8,0:0:0:0:
14,384,206923,6,0,P|95:342|233:350,1,180.000006866455,0|0,0:0|0:0,0:0:0:0:
192,330,207266,2,0,P|229:333|278:346,1,60.0000022888184,0|0,1:0|0:0,0:0:0:0:
327,362,207437,2,0,P|271:330|257:262,1,120.000004577637,8|2,0:0|0:0,0:0:0:0:
256,268,207694,1,2,0:0:0:0:
261,257,207780,6,0,L|408:242,1,120.000004577637,0|0,1:0|0:0,0:0:0:0:
192,330,208123,2,0,L|45:345,1,120.000004577637,8|0,0:0|0:0,0:0:0:0:
104,188,208466,2,0,B|161:180|203:130|203:130|177:167|190:213,1,180.000006866455,0|0,0:0|0:0,0:0:0:0:
193,197,208808,5,8,0:0:0:0:
62,227,208980,2,0,P|68:195|65:152,1,60.0000022888184,0|0,0:0|0:0,0:0:0:0:
7,117,209151,6,0,P|75:143|234:132,1,180.000006866455,0|0,1:0|0:0,0:0:0:0:
196,143,209494,2,0,P|214:104|188:71,1,60.0000022888184,8|0,0:0|0:0,0:0:0:0:
147,44,209666,1,0,0:0:0:0:
147,44,209837,6,0,P|87:44|8:32,1,120.000004577637,0|0,0:0|1:0,0:0:0:0:
28,37,210180,5,8,0:0:0:0:
151,71,210351,2,0,P|189:65|233:44,1,60.0000022888184,2|2,0:0|0:0,0:0:0:0:
274,8,210523,6,0,P|267:86|276:148,1,120.000004577637,0|0,1:0|0:0,0:0:0:0:
354,219,210866,1,8,0:0:0:0:
354,219,211037,2,0,P|414:171|352:68,1,180.000006866455,0|0,0:0|0:0,0:0:0:0:
377,78,211380,1,0,1:0:0:0:
469,156,211551,2,0,B|495:135|495:135|454:145,1,60.0000022888184,8|2,0:0|0:0,0:0:0:0:
388,165,211723,1,2,0:0:0:0:
388,165,211894,6,0,P|328:152|249:143,1,120.000004577637,0|0,1:0|0:0,0:0:0:0:
261,12,212237,1,8,0:0:0:0:
261,12,212408,2,0,P|177:28|65:31,1,180.000006866455,0|0,0:0|0:0,0:0:0:0:
74,26,212751,1,0,1:0:0:0:
145,78,212923,5,8,0:0:0:0:
145,78,213094,2,0,P|145:109|116:142,1,60.0000022888184,2|2,0:0|0:0,0:0:0:0:
60,152,213266,2,0,P|15:113|8:28,1,120.000004577637,0|0,1:0|0:0,0:0:0:0:
74,26,213608,6,0,L|68:176,1,120.000004577637,8|2,0:0|0:0,0:0:0:0:
69,159,213866,1,10,0:0:0:0:
69,171,213951,2,0,L|64:259,2,60.0000022888184,0|10|0,0:0|0:0|1:0,0:0:0:0:
152,72,214294,6,0,P|227:35|275:75,1,120.000004577637,8|0,0:0|0:0,0:0:0:0:
261,58,214551,1,0,0:0:0:0:
266,70,214637,6,0,B|356:64|356:64|368:48|410:33,2,120.000004577637,0|0|8,1:0|0:0|0:0,0:0:0:0:
177,151,215151,6,0,P|257:208|346:173,1,180.000006866455,0|0,0:0|0:0,0:0:0:0:
343,177,215494,2,0,P|300:185|295:225,1,60.0000022888184,0|0,1:0|0:0,0:0:0:0:
315,281,215666,1,8,0:0:0:0:
315,281,215837,6,0,L|445:291,2,120.000004577637,2|0|0,0:0|1:0|0:0,0:0:0:0:
203,340,216351,1,8,0:0:0:0:
203,340,216523,2,0,P|125:375|65:348,1,120.000004577637,0|0,0:0|0:0,0:0:0:0:
4,281,216866,1,0,1:0:0:0:
84,291,217037,1,8,0:0:0:0:
84,291,217208,6,0,P|121:293|144:328,1,60.0000022888184,0|0,0:0|0:0,0:0:0:0:
64,376,217381,2,0,P|27:374|4:339,1,60.0000022888184,0|0,1:0|0:0,0:0:0:0:
4,281,217551,1,0,0:0:0:0:
4,281,217723,1,8,0:0:0:0:
4,281,217894,2,0,P|93:292|226:296,1,180.000006866455,0|0,0:0|0:0,0:0:0:0:
197,292,218237,2,0,P|183:330|187:354,1,60.0000022888184,0|0,1:0|0:0,0:0:0:0:
258,378,218408,5,8,0:0:0:0:
306,311,218580,1,2,0:0:0:0:
306,311,218666,1,2,0:0:0:0:
306,311,218751,2,0,P|399:295|455:296,1,120.000004577637,0|0,1:0|0:0,0:0:0:0:
243,228,219094,2,0,P|150:244|94:243,1,120.000004577637,8|0,0:0|0:0,0:0:0:0:
384,243,219437,6,0,B|413:304|380:385|287:348|308:282,1,180.000006866455,0|0,0:0|0:0,0:0:0:0:
313,300,219780,1,8,0:0:0:0:
229,318,219951,2,0,P|196:326|141:328,1,60.0000022888184,0|0,0:0|0:0,0:0:0:0:
102,362,220123,6,0,P|39:355|12:301,1,120.000004577637,0|0,1:0|0:0,0:0:0:0:
108,142,220466,2,0,P|172:149|269:153,1,120.000004577637,8|0,0:0|0:0,0:0:0:0:
293,106,220808,5,0,0:0:0:0:
293,106,220980,2,0,B|253:150|253:150|286:213,1,120.000004577637,0|8,1:0|0:0,0:0:0:0:
383,238,221323,1,2,0:0:0:0:
383,238,221408,1,2,0:0:0:0:
383,238,221494,6,0,P|298:229|221:320,1,180.000006866455,0|0,1:0|0:0,0:0:0:0:
224,303,221837,1,8,0:0:0:0:
288,352,222008,6,0,B|345:352|372:296|345:248|345:248|323:257|298:259,1,180.000006866455,0|0,0:0|0:0,0:0:0:0:
303,252,222351,1,0,1:0:0:0:
230,287,222523,6,0,P|169:296|69:296,1,120.000004577637,8|0,0:0|0:0,0:0:0:0:
2,239,222866,6,0,P|64:247|63:305,1,120.000004577637,0|0,1:0|0:0,0:0:0:0:
95,384,223208,2,0,P|71:327|122:299,1,120.000004577637,0|0,0:0|0:0,0:0:0:0:
174,230,223551,2,0,P|137:280|87:250,1,120.000004577637,0|0,0:0|1:0,0:0:0:0:
85,251,223808,1,2,0:0:0:0:
78,242,223894,2,0,B|81:216|81:216|75:210|75:210|79:166,3,60.0000022888184,8|0|2|2,0:0|0:0|0:0|0:0,0:0:0:0:
84,173,224237,6,0,B|45:192|3:182|3:182|16:161|22:104,1,120.000004577637,0|0,1:0|0:0,0:0:0:0:
21,137,224494,1,0,0:0:0:0:
27,127,224580,2,0,P|112:136|188:129,1,120.000004577637,8|2,0:0|0:0,0:0:0:0:
159,133,224837,1,10,0:0:0:0:
171,132,224923,2,0,P|213:128|256:119,1,60.0000022888184,0|10,0:0|0:0,0:0:0:0:
283,69,225094,6,0,P|264:132|290:188,2,120.000004577637,0|8|0,1:0|0:0|0:0,0:0:0:0:
292,61,225523,1,0,0:0:0:0:
300,52,225609,6,0,P|372:42|436:48,1,120.000004577637,4|0,1:2|0:0,0:0:0:0:
283,180,225952,2,0,P|211:190|147:184,1,120.000004577637,0|0,0:0|0:0,0:0:0:0:
351,125,226295,2,0,P|407:160|363:213,1,120.000004577637,0|0,0:0|0:0,0:0:0:0:
296,309,226637,6,0,B|294:334|294:334|298:340|298:340|294:374,3,60.0000022888184,0|0|0|0,0:0|0:0|0:0|0:0,0:0:0:0:
323,332,226980,6,0,B|411:311|411:311|395:326|397:354,1,120.000004577637,0|0,0:0|0:0,0:0:0:0:
253,241,227323,2,0,P|195:238|106:231,1,120.000004577637,0|0,0:0|0:0,0:0:0:0:
124,241,227580,1,0,0:0:0:0:
114,248,227666,6,0,B|129:148|129:148|85:129,2,120.000004577637,0|0|8,0:0|0:0|0:0,0:0:0:0:
28,348,228180,1,0,0:0:0:0:
28,348,228352,6,0,P|126:330|192:335,1,120.000004577637,0|0,1:0|0:0,0:0:0:0:
131,208,228695,2,0,P|33:226|-33:221,1,120.000004577637,8|0,0:0|0:0,0:0:0:0:
192,263,229037,2,0,B|216:252|231:232|231:232|211:263|220:318,1,120.000004577637,2|0,0:0|1:0,0:0:0:0:
195,159,229380,2,0,P|205:116|198:98,3,60.0000022888184,8|2|2|2,0:0|0:0|0:0|0:0,0:0:0:0:
195,159,229723,6,0,P|284:122|344:132,1,120.000004577637,0|2,1:0|0:0,0:0:0:0:
453,130,230066,2,0,P|491:189|454:215,1,120.000004577637,8|0,0:0|0:0,0:0:0:0:
385,26,230409,1,2,0:0:0:0:
385,26,230580,2,0,L|381:114,1,60.0000022888184,0|0,1:0|0:0,0:0:0:0:
305,122,230752,6,0,P|235:121|163:92,1,120.000004577637,10|0,0:0|0:0,0:0:0:0:
177,99,231009,1,0,0:0:0:0:
166,92,231095,6,0,P|157:51|155:22,3,60.0000022888184,0|0|0|0,1:0|0:0|0:0|0:0,0:0:0:0:
88,118,231437,2,0,P|79:77|77:48,3,60.0000022888184,8|0|0|0,0:0|0:0|0:0|0:0,0:0:0:0:
104,200,231780,6,0,P|95:241|93:270,3,60.0000022888184,2|0|0|0,0:0|0:0|0:0|0:0,0:0:0:0:
26,174,232122,2,0,P|17:215|15:244,3,60.0000022888184,8|0|2|0,0:0|0:0|0:0|0:0,0:0:0:0:
88,118,232466,6,0,P|162:105|254:115,1,120.000004577637,0|0,1:0|0:0,0:0:0:0:
216,225,232809,2,0,P|142:238|50:228,1,120.000004577637,10|0,0:0|0:0,0:0:0:0:
272,158,233152,1,2,0:0:0:0:
317,322,233323,1,0,1:0:0:0:
317,322,233495,2,0,B|320:228|320:228|335:245|360:259,1,120.000004577637,10|0,0:0|0:0,0:0:0:0:
395,363,233837,6,0,B|438:379|471:351|471:351|441:353|414:316,1,120.000004577637,0|0,1:0|0:0,0:0:0:0:
317,322,234180,2,0,L|162:313,1,120.000004577637,10|0,0:0|0:0,0:0:0:0:
5,358,234523,2,0,L|160:349,1,120.000004577637,2|0,0:0|1:0,0:0:0:0:
96,275,234866,2,0,L|34:278,3,60.0000022888184,10|0|2|0,0:0|0:0|0:0|0:0,0:0:0:0:
172,239,235209,5,0,1:0:0:0:
213,170,235380,2,0,P|188:131|156:126,1,60.0000022888184,2|0,0:0|0:0,0:0:0:0:
108,85,235552,2,0,P|51:92|-4:132,1,120.000004577637,10|2,0:0|0:0,0:0:0:0:
10,133,235809,1,10,0:0:0:0:
20,139,235895,2,0,L|74:175,2,60.0000022888184,0|10|0,0:0|0:0|1:0,0:0:0:0:
157,19,236237,6,0,P|147:78|141:157,1,120.000004577637,8|0,0:0|0:0,0:0:0:0:
150,145,236495,1,0,0:0:0:0:
159,152,236580,6,0,P|240:137|320:140,1,120.000004577637,0|0,1:0|0:0,0:0:0:0:
325,13,236923,2,0,P|407:19|483:43,1,120.000004577637,8|0,0:0|0:0,0:0:0:0:
416,222,237266,2,0,P|359:227|364:165,1,120.000004577637,2|0,0:0|1:0,0:0:0:0:
472,103,237609,2,0,B|499:111|499:111|480:154,3,60.0000022888184,8|2|2|2,0:0|0:0|0:0|0:0,0:0:0:0:
459,127,237952,6,0,L|328:141,1,120.000004577637,0|2,1:0|0:0,0:0:0:0:
324,14,238295,2,0,L|455:0,1,120.000004577637,10|0,0:0|0:0,0:0:0:0:
283,83,238637,2,0,B|220:63|220:63|214:91|186:123,1,120.000004577637,2|0,0:0|1:0,0:0:0:0:
32,36,238980,2,0,P|101:21|181:33,1,120.000004577637,10|0,0:0|0:0,0:0:0:0:
203,153,239323,6,0,L|65:143,1,120.000004577637,0|0,1:0|0:0,0:0:0:0:
94,12,239666,2,0,L|232:22,1,120.000004577637,8|0,0:0|0:0,0:0:0:0:
353,159,240009,2,0,P|325:212|277:178,1,120.000004577637,2|0,0:0|1:0,0:0:0:0:
311,57,240352,2,0,B|396:38|396:38|384:59|386:81,1,120.000004577637,8|2,0:0|0:0,0:0:0:0:
394,77,240609,1,2,0:0:0:0:
402,85,240695,6,0,P|451:134|495:98,1,120.000004577637,0|2,1:0|0:0,0:0:0:0:
312,20,241037,2,0,P|258:3|226:49,1,120.000004577637,8|0,0:0|0:0,0:0:0:0:
270,202,241380,5,2,0:0:0:0:
270,202,241552,2,0,P|244:187|200:181,1,60.0000022888184,0|0,1:0|0:0,0:0:0:0:
152,128,241723,2,0,P|51:145|1:171,1,120.000004577637,10|0,0:0|0:0,0:0:0:0:
30,162,241980,1,0,0:0:0:0:
25,173,242066,6,0,P|78:119|54:70,1,120.000004577637,0|0,1:0|0:0,0:0:0:0:
89,237,242409,2,0,B|104:270|109:313|109:313|109:286|131:262,1,120.000004577637,8|0,0:0|0:0,0:0:0:0:
189,127,242752,2,0,P|260:109|318:115,1,120.000004577637,2|0,0:0|1:0,0:0:0:0:
319,230,243095,2,0,P|248:248|190:242,1,120.000004577637,8|2,0:0|0:0,0:0:0:0:
194,234,243352,1,2,0:0:0:0:
186,224,243437,6,0,L|214:357,1,120.000004577637,0|0,1:0|0:0,0:0:0:0:
319,230,243780,2,0,L|291:97,1,120.000004577637,10|0,0:0|0:0,0:0:0:0:
290,309,244123,2,0,P|336:352|376:302,1,120.000004577637,2|0,0:0|1:0,0:0:0:0:
486,182,244466,2,0,B|454:179|432:149|432:149|426:183|392:210,1,120.000004577637,10|0,0:0|0:0,0:0:0:0:
294,112,244809,6,0,L|167:104,1,120.000004577637,0|0,1:0|0:0,0:0:0:0:
120,11,245152,2,0,L|-7:3,1,120.000004577637,2|0,0:0|0:0,0:0:0:0:
166,97,245495,6,0,L|285:104,1,120.000004577637,2|0,0:0|1:0,0:0:0:0:
343,24,245837,2,0,L|462:31,1,120.000004577637,10|0,0:0|0:0,0:0:0:0:
473,26,246095,1,0,0:0:0:0:
483,20,246180,6,0,B|476:91|476:91|467:66|442:50,1,120.000004577637,0|2,1:0|0:0,0:0:0:0:
273,64,246523,2,0,P|215:26|139:48,1,120.000004577637,10|2,0:0|0:0,0:0:0:0:
158,38,246780,1,10,0:0:0:0:
149,46,246866,2,0,P|156:78|163:125,2,60.0000022888184,0|10|0,0:0|0:0|1:0,0:0:0:0:
0,74,247209,6,0,P|88:144|109:188,1,120.000004577637,8|0,0:0|0:0,0:0:0:0:
96,159,247466,1,0,0:0:0:0:
101,169,247552,6,0,P|72:239|43:355,1,160,2|0,1:2|0:0,0:0:0:0:
49,320,248066,1,0,1:0:0:0:
155,258,248237,2,0,P|165:307|169:350,1,80,10|0,0:0|0:0,0:0:0:0:
234,238,248580,2,0,P|261:254|282:274,3,40,0|0|2|0,1:0|0:0|0:0|0:0,0:0:0:0:
234,238,248923,6,0,L|240:155,2,80,0|2|2,0:0|1:2|0:0,0:0:0:0:
382,309,249609,2,0,L|394:135,1,160,10|2,0:0|0:0,0:0:0:0:
264,86,250295,6,0,P|299:60|347:77,2,80,2|0|0,1:2|0:0|0:0,0:0:0:0:
264,86,250809,1,0,1:0:0:0:
246,176,250980,2,0,P|187:190|139:187,1,80,10|0,0:0|0:0,0:0:0:0:
112,119,251323,2,0,P|84:109|64:108,3,40,2|0|2|0,1:2|0:0|0:0|0:0,0:0:0:0:
112,119,251666,6,0,L|106:36,2,80,0|2|2,0:0|1:2|0:0,0:0:0:0:
283,159,252352,2,0,L|269:-22,1,160,10|2,0:0|0:0,0:0:0:0:
271,0,252866,2,0,P|284:29|305:46,1,40,0|0,1:0|0:0,0:0:0:0:
343,96,253037,6,0,P|406:87|506:91,1,160,2|0,1:2|0:0,0:0:0:0:
502,90,253552,1,0,1:0:0:0:
452,199,253723,2,0,P|385:182|362:157,1,80,10|0,0:0|0:0,0:0:0:0:
281,80,254066,2,0,P|303:70|333:70,3,40,2|0|2|0,1:2|0:0|0:0|0:0,0:0:0:0:
288,51,254409,6,0,P|311:120|310:155,1,80,0|0,0:0|0:0,0:0:0:0:
196,161,254752,2,0,P|173:92|174:57,1,80,2|0,0:0|0:0,0:0:0:0:
339,206,255095,2,0,P|311:248|207:238,1,160,10|2,0:0|0:0,0:0:0:0:
211,242,255609,1,0,0:0:0:0:
94,121,255780,6,0,L|272:134,1,160,0|2,1:0|0:0,0:0:0:0:
253,132,256295,1,0,1:0:0:0:
396,75,256466,2,0,L|307:68,1,80,10|0,0:0|0:0,0:0:0:0:
432,152,256809,2,0,L|476:155,3,40,2|0|2|0,1:2|0:0|0:0|0:0,0:0:0:0:
432,152,257152,6,0,P|454:204|457:235,2,80,0|2|2,0:0|1:2|0:0,0:0:0:0:
276,47,257837,6,0,P|306:69|321:84,1,40,10|0,0:0|0:0,0:0:0:0:
358,129,258009,1,0,1:0:0:0:
253,194,258180,6,0,P|287:180|306:169,1,40,2|0,0:0|0:0,0:0:0:0:
353,136,258352,2,0,L|406:132,1,40,0|0,1:0|0:0,0:0:0:0:
410,91,258523,6,0,L|240:108,1,160,2|8,1:2|0:3,0:0:0:0:
190,34,259209,2,0,P|227:68|230:97,1,80,2|0,0:0|0:0,0:0:0:0:
271,168,259552,2,0,P|260:217|236:234,1,80,8|2,0:3|0:0,0:0:0:0:
230,230,259809,1,0,0:0:0:0:
222,226,259895,6,0,L|118:221,2,80,0|2|10,0:0|0:0|0:3,0:0:0:0:
323,82,260580,2,0,P|359:157|346:240,1,160,2|10,0:0|0:3,0:0:0:0:
151,330,261266,6,0,L|320:320,1,160,2|8,1:2|0:3,0:0:0:0:
183,219,261952,2,0,P|135:192|94:214,1,80,2|0,0:0|0:0,0:0:0:0:
27,290,262295,2,0,L|41:377,1,80,10|2,0:3|0:0,0:0:0:0:
46,364,262552,1,0,0:0:0:0:
52,360,262637,6,0,B|84:356|84:356|96:358|96:358|146:351,2,80,0|2|10,0:0|0:0|0:3,0:0:0:0:
51,133,263323,2,0,P|28:218|28:300,1,160,2|10,0:0|0:3,0:0:0:0:
160,234,263837,1,0,0:0:0:0:
160,234,263923,1,0,0:0:0:0:
160,234,264009,5,4,0:0:0:0:
216,186,266752,6,0,B|266:83|458:153|352:344|352:344|309:259|230:254,1,480,2|2,0:0|0:0,0:0:0:0:
265,260,267952,1,2,0:0:0:0:
203,311,268123,6,0,L|56:325,1,143.999995605469,2|2,0:0|0:0,0:0:0:0:
