osu file format v14

[General]
AudioFilename: audio.mp3
AudioLeadIn: 0
PreviewTime: 60166
Countdown: 0
SampleSet: Soft
StackLeniency: 0.7
Mode: 2
LetterboxInBreaks: 0
WidescreenStoryboard: 0

[Editor]
DistanceSpacing: 1.2
BeatDivisor: 4
GridSize: 4
TimelineZoom: 1.9

[Metadata]
Title:Vidro Moyou (TV Size)
TitleUnicode:ビードロ模様 (TV Size)
Artist:yanaginagi
ArtistUnicode:やなぎなぎ
Creator:Yumeno Himiko
Version:Summer
Source:あの夏で待ってる
Tags:Ano Natsu de Matteru waiting in that summer 霧島海人 Kirishima Kaito 貴月イチカ Takatsuki Ichika 谷川柑菜 Tanigawa Kanna 石垣哲朗 Ishigaki Tetsurou 北原美桜 Kitahara Mio 山乃檸檬 Yamano Lemon
BeatmapID:2078126
BeatmapSetID:993826

[Difficulty]
HPDrainRate:5
CircleSize:3.8
OverallDifficulty:8.6
ApproachRate:8.6
SliderMultiplier:2.2
SliderTickRate:2

[Events]
//Background and Video events
0,0,"bg.jpg",0,0
//Break Periods
//Storyboard Layer 0 (Background)
//Storyboard Layer 1 (Fail)
//Storyboard Layer 2 (Pass)
//Storyboard Layer 3 (Foreground)
//Storyboard Sound Samples

[TimingPoints]
-62,458.015267175573,4,2,1,30,1,0
1770,-100,4,2,1,60,0,0
3602,-100,4,2,10,60,0,0
3716,-100,4,2,1,60,0,0
10930,-100,4,2,10,60,0,0
11044,-100,4,2,1,60,0,0
12762,-100,4,2,0,60,0,0
12876,-100,4,2,1,60,0,0
16426,-100,4,2,0,40,0,0
16655,-100,4,2,1,40,0,0
18716,-100,4,2,10,40,0,0
18831,-100,4,2,1,40,0,0
21006,-100,4,2,10,40,0,0
21121,-100,4,2,1,40,0,0
21922,-100,4,2,10,40,0,0
22037,-100,4,2,1,40,0,0
22380,-100,4,2,10,40,0,0
22495,-100,4,2,1,40,0,0
24670,-100,4,2,10,40,0,0
24785,-100,4,2,1,40,0,0
25586,-100,4,2,10,40,0,0
25701,-100,4,2,1,40,0,0
26044,-100,4,2,10,40,0,0
26159,-100,4,2,1,40,0,0
28334,-100,4,2,10,40,0,0
28449,-100,4,2,1,40,0,0
31083,-100,4,2,2,40,0,0
31197,-100,4,2,2,50,0,0
33831,-100,4,2,10,50,0,0
33945,-100,4,2,2,50,0,0
34747,-100,4,2,1,50,0,0
34861,-100,4,2,2,50,0,0
35663,-100,4,2,10,50,0,0
35777,-100,4,2,2,50,0,0
38411,-100,4,2,0,50,0,0
38525,-100,4,2,2,50,0,0
40243,-100,4,2,10,50,0,0
40357,-100,4,2,2,50,0,0
40701,-100,4,2,11,50,0,0
40815,-100,4,2,2,50,0,0
42991,-100,4,2,10,50,0,0
43105,-100,4,2,2,50,0,0
44365,-100,4,2,0,50,0,0
44479,-100,4,2,2,50,0,0
52838,-100,4,2,2,10,0,0
53067,-100,4,2,2,50,0,0
56731,-100,4,2,0,40,0,0
56846,-100,4,2,2,50,0,0
60395,-83.3333333333333,4,2,1,60,0,1
60510,-83.3333333333333,4,2,2,70,0,1
61312,-83.3333333333333,4,2,10,70,0,1
61426,-83.3333333333333,4,2,2,70,0,1
63144,-83.3333333333333,4,2,10,70,0,1
63258,-83.3333333333333,4,2,2,70,0,1
64976,-83.3333333333333,4,2,10,70,0,1
65090,-83.3333333333333,4,2,2,70,0,1
68640,-83.3333333333333,4,2,2,60,0,1
69556,-83.3333333333333,4,2,10,60,0,1
69670,-83.3333333333333,4,2,2,60,0,1
70472,-83.3333333333333,4,2,10,60,0,1
70586,-83.3333333333333,4,2,2,60,0,1
71388,-83.3333333333333,4,2,0,40,0,1
71502,-83.3333333333333,4,2,2,60,0,1
72304,-83.3333333333333,4,2,10,60,0,1
72418,-83.3333333333333,4,2,2,60,0,1
75052,-83.3333333333333,4,2,2,70,0,1
75968,-83.3333333333333,4,2,10,70,0,1
76083,-83.3333333333333,4,2,2,70,0,1
77800,-83.3333333333333,4,2,10,70,0,1
77915,-83.3333333333333,4,2,2,70,0,1
78716,-83.3333333333333,4,2,10,70,0,1
78831,-83.3333333333333,4,2,2,70,0,1
80090,-83.3333333333333,4,2,11,70,0,1
80205,-83.3333333333333,4,2,2,70,0,1
82380,-83.3333333333333,4,2,0,50,0,1
82495,-83.3333333333333,4,2,2,70,0,1
83296,-83.3333333333333,4,2,10,70,0,1
83411,-83.3333333333333,4,2,2,70,0,1
85128,-83.3333333333333,4,2,10,70,0,1
85243,-83.3333333333333,4,2,2,70,0,1
85586,-83.3333333333333,4,2,11,70,0,1
85701,-83.3333333333333,4,2,2,70,0,1
86044,-83.3333333333333,4,2,2,40,0,1
86960,-83.3333333333333,4,2,2,50,0,1
87876,-83.3333333333333,4,2,2,60,0,1
88792,-83.3333333333333,4,2,2,70,0,1
89708,-83.3333333333333,4,2,1,60,0,0

[Colours]
Combo1 : 245,224,137
Combo2 : 255,128,128
Combo3 : 95,101,226

[HitObjects]
268,296,1311,6,0,P|208:256|288:204,1,165,2|0,0:0|0:0,0:0:0:0:
458,168,1770,6,0,L|468:36,1,110,12|0,0:0|0:0,0:0:0:0:
268,56,2228,2,0,L|148:56,1,110,8|2,0:0|0:0,0:0:0:0:
344,128,2686,1,10,0:0:0:0:
395,141,2800,1,0,0:0:0:0:
417,190,2915,1,2,0:0:0:0:
394,238,3029,1,0,0:0:0:0:
343,251,3144,1,10,0:0:0:0:
48,224,3373,6,0,P|48:296|180:360,1,220,2|0,0:0|0:0,0:0:0:0:
360,336,4060,1,8,0:0:0:0:
196,272,4289,2,0,L|124:252,1,55,2|0,0:0|0:0,0:0:0:0:
228,212,4518,2,0,L|360:200,1,110,10|2,0:0|0:0,0:0:0:0:
156,120,4976,1,10,0:0:0:0:
348,72,5205,1,2,0:0:0:0:
60,64,5434,6,0,L|300:52,1,220,10|8,0:0|0:0,0:0:0:0:
108,152,6121,1,2,0:0:0:0:
284,240,6350,1,10,0:0:0:0:
229,236,6464,1,0,0:0:0:0:
174,232,6579,1,2,0:0:0:0:
119,228,6693,1,0,0:0:0:0:
64,224,6808,1,10,0:0:0:0:
244,144,7037,1,2,0:0:0:0:
296,151,7151,1,0,0:0:0:0:
320,198,7266,5,8,0:0:0:0:
296,245,7380,1,0,0:0:0:0:
244,253,7495,1,0,0:0:0:0:
44,256,7724,1,8,0:0:0:0:
11,213,7838,1,0,0:0:0:0:
13,159,7953,1,2,0:0:0:0:
50,120,8067,1,0,0:0:0:0:
104,115,8182,1,10,0:0:0:0:
280,108,8411,2,0,L|344:104,1,55,2|0,0:0|0:0,0:0:0:0:
236,112,8640,1,10,0:0:0:0:
192,148,8754,1,0,0:0:0:0:
200,208,8869,1,2,0:0:0:0:
256,228,8983,1,0,0:0:0:0:
464,224,9098,6,0,P|476:288|352:360,1,220,10|8,0:0|0:0,0:0:0:0:
164,340,9785,1,2,0:0:0:0:
332,236,10014,1,10,0:0:0:0:
285,209,10128,1,0,0:0:0:0:
273,157,10243,1,2,0:0:0:0:
303,112,10357,1,0,0:0:0:0:
355,103,10472,1,10,0:0:0:0:
168,88,10701,6,0,L|416:108,1,220,2|0,0:0|0:0,0:0:0:0:
196,164,11388,2,0,L|188:16,1,110,8|2,0:0|0:0,0:0:0:0:
364,276,11846,2,0,L|240:284,2,110,10|2|10,0:0|0:0|0:0,0:0:0:0:
184,192,12533,1,2,0:0:0:0:
484,176,12762,6,0,L|492:52,1,110,6|0,0:0|0:0,0:0:0:0:
292,76,13220,2,0,L|420:88,1,110,8|2,0:0|0:0,0:0:0:0:
204,104,13678,1,10,0:0:0:0:
151,94,13792,1,0,0:0:0:0:
114,131,13907,1,2,0:0:0:0:
124,183,14021,1,0,0:0:0:0:
172,205,14136,1,10,0:0:0:0:
360,200,14365,1,2,0:0:0:0:
68,344,14594,6,0,L|192:332,1,110,2|0,0:0|0:0,0:0:0:0:
216,304,14880,1,0,0:0:0:0:
236,260,14937,1,0,0:0:0:0:
216,212,14995,1,0,0:0:0:0:
180,180,15052,1,10,0:0:0:0:
4,172,15281,1,2,0:0:0:0:
312,100,15510,5,2,0:0:0:0:
339,102,15567,1,0,0:0:0:0:
362,116,15624,1,0,0:0:0:0:
375,140,15681,1,0,0:0:0:0:
376,167,15739,1,2,0:0:0:0:
364,192,15796,1,0,0:0:0:0:
342,207,15853,1,0,0:0:0:0:
315,211,15910,1,0,0:0:0:0:
272,212,15968,1,2,0:0:0:0:
460,224,16197,1,2,0:0:0:0:
148,232,16426,6,0,P|76:184|172:136,1,220,4|8,0:0|0:0,0:0:0:0:
335,107,17113,2,0,L|451:99,2,110,0|8|0,0:0|0:0|0:0,0:0:0:0:
156,124,17800,2,0,L|265:186,1,110,8|2,0:0|0:0,0:0:0:0:
375,259,18258,5,8,0:0:0:0:
137,335,18487,2,0,L|393:319,1,220,2|2,0:0|0:0,0:0:0:0:
200,232,19174,2,0,L|192:112,1,110,8|2,0:0|0:0,0:0:0:0:
356,112,19632,2,0,L|368:-4,1,110,10|0,0:0|0:0,0:0:0:0:
114,27,20090,6,0,P|50:75|150:151,1,220,10|8,0:0|0:0,0:0:0:0:
312,164,20777,2,0,P|376:188|288:280,1,220,2|2,0:0|0:0,0:0:0:0:
192,286,21464,1,0,0:0:0:0:
376,176,21693,6,0,L|148:208,2,220,2|2|2,0:0|0:0|0:0,0:0:0:0:
254,125,22838,1,8,0:0:0:0:
453,100,23067,2,0,L|322:115,1,110,2|8,0:0|0:0,0:0:0:0:
213,134,23525,1,0,0:0:0:0:
452,340,23754,6,0,P|508:273|414:200,1,220,10|10,0:0|0:0,0:0:0:0:
295,182,24441,2,0,L|68:156,1,220,2|0,0:0|0:0,0:0:0:0:
182,119,25128,1,10,0:0:0:0:
380,322,25357,6,0,L|148:306,2,220,2|2|2,0:0|0:0|0:0,0:0:0:0:
259,269,26502,2,0,L|176:192,1,110,8|2,0:0|0:0,0:0:0:0:
354,103,26960,1,8,0:0:0:0:
230,96,27189,1,2,0:0:0:0:
467,226,27418,6,0,P|482:286|357:347,1,220,10|10,0:0|0:0,0:0:0:0:
152,277,28105,2,0,P|100:221|220:146,1,220,2|0,0:0|0:0,0:0:0:0:
344,124,28792,2,0,L|463:122,1,110,8|0,0:0|0:0,0:0:0:0:
163,335,29250,6,0,L|44:318,1,110,10|2,0:0|0:0,0:0:0:0:
344,245,29708,2,0,L|208:226,1,110,8|2,0:1|0:0,0:0:0:0:
174,218,30052,1,0,0:0:0:0:
463,200,30166,2,0,L|492:70,1,110,8|0,0:0|0:0,0:0:0:0:
184,79,30624,1,10,0:0:0:0:
156,80,30681,1,0,0:0:0:0:
132,94,30738,1,0,0:0:0:0:
117,116,30795,1,0,0:0:0:0:
112,142,30853,1,0,0:0:0:0:
118,169,30910,1,0,0:0:0:0:
136,190,30967,1,0,0:0:0:0:
359,194,31082,6,0,L|489:195,1,110,4|0,0:0|0:0,0:0:0:0:
271,190,31540,2,0,L|257:318,1,110,8|0,0:0|0:0,0:0:0:0:
455,328,31999,2,0,L|314:337,1,110,2|0,0:0|0:0,0:0:0:0:
147,344,32457,2,0,L|22:351,1,110,8|0,0:0|0:0,0:0:0:0:
235,343,32915,6,0,L|245:224,1,110,2|0,0:0|0:0,0:0:0:0:
47,207,33373,1,8,0:0:0:0:
271,158,33602,2,0,P|331:210|236:312,1,220
490,304,34289,2,0,L|353:287,1,110,8|0,0:0|0:0,0:0:0:0:
81,249,34747,6,0,P|34:200|125:108,1,220,10|8,0:0|0:0,0:0:0:0:
343,99,35434,2,0,P|346:164|191:244,1,220
430,269,36121,1,8,0:0:0:0:
232,251,36350,6,0,L|227:128,1,110,2|2,0:1|0:0,0:0:0:0:
424,124,36808,2,0,L|433:7,1,110,2|8,0:1|0:0,0:0:0:0:
217,22,37266,2,0,L|99:17,1,110,2|2,0:1|0:0,0:0:0:0:
283,107,37724,2,0,L|423:97,1,110,0|8,0:0|0:0,0:0:0:0:
208,172,38182,1,0,0:0:0:0:
500,277,38411,6,0,P|470:338|305:375,1,220,4|8,0:0|0:0,0:0:0:0:
121,351,39098,2,0,L|114:225,1,110,0|2,0:0|0:0,0:0:0:0:
312,230,39556,2,0,L|321:107,1,110,0|8,0:0|0:0,0:0:0:0:
101,75,40014,6,0,L|331:98,2,220,2|2|2,0:1|0:1|0:1,0:0:0:0:
263,62,41159,1,2,0:0:0:0:
94,165,41388,2,0,L|214:154,2,110,2|8|2,0:1|0:0|0:1,0:0:0:0:
399,173,42075,6,0,P|452:218|348:324,1,220,2|8,0:1|0:0,0:0:0:0:
170,176,42762,2,0,P|117:221|221:327,1,220,0|8,0:0|0:0,0:0:0:0:
377,336,43449,2,0,L|260:324,1,110,2|8,0:0|0:0,0:0:0:0:
461,282,43907,5,2,0:1:0:0:
263,279,44136,1,2,0:1:0:0:
260,229,44193,1,0,0:0:0:0:
254,180,44250,1,0,0:0:0:0:
252,129,44308,1,0,0:0:0:0:
300,119,44365,2,0,L|423:102,1,110,4|2,0:0|0:1,0:0:0:0:
108,333,44823,6,0,L|47:314,1,55,8|0,0:0|0:0,0:0:0:0:
171,291,45052,2,0,L|183:205,1,55,2|0,0:1|0:0,0:0:0:0:
85,202,45281,2,0,L|27:186,1,55,8|0,0:0|0:0,0:0:0:0:
255,106,45510,2,0,L|329:91,1,55,2|0,0:1|0:0,0:0:0:0:
68,108,45739,6,0,L|54:226,1,110,4|2,0:0|0:0,0:0:0:0:
250,246,46197,1,8,0:0:0:0:
37,346,46426,2,0,L|291:330,1,220
476,312,47113,2,0,L|484:194,1,110,8|0,0:0|0:0,0:0:0:0:
244,108,47571,6,0,P|189:140|284:227,1,220,2|8,0:0|0:0,0:0:0:0:
458,242,48258,2,0,P|434:314|261:353,1,220,2|2,0:0|0:0,0:0:0:0:
112,345,48945,1,0,0:0:0:0:
86,335,49002,1,0,0:0:0:0:
65,318,49059,1,0,0:0:0:0:
50,295,49116,1,0,0:0:0:0:
44,268,49174,1,8,0:0:0:0:
47,241,49231,1,0,0:0:0:0:
58,216,49288,1,0,0:0:0:0:
183,164,49403,6,0,L|293:154,3,110,2|2|8|0,0:0|0:0|0:0|0:0,0:0:0:0:
95,267,50319,2,0,L|91:140,1,110,0|2,0:0|0:0,0:0:0:0:
282,103,50777,1,8,0:0:0:0:
87,68,51006,1,2,0:0:0:0:
389,67,51235,6,0,P|444:99|367:198,1,220,2|8,0:0|0:0,0:0:0:0:
177,212,51922,2,0,L|420:250,1,220,2|2,0:0|0:0,0:0:0:0:
226,313,52609,1,8,0:0:0:0:
129,289,52724,2,0,L|114:212,1,55,0|6,0:0|0:0,0:0:0:0:
433,149,53067,6,0,L|455:14,2,110,4|2|8,0:0|0:0|0:0,0:0:0:0:
236,169,53754,2,0,P|244:217|411:281,1,220
184,293,54441,2,0,L|48:298,1,110,8|2,0:0|0:0,0:0:0:0:
325,285,54899,6,0,P|394:278|487:132,1,220,2|8,0:0|0:0,0:0:0:0:
247,162,55586,2,0,P|116:152|38:76,1,220,2|2,0:0|0:0,0:0:0:0:
358,64,56273,1,0,0:0:0:0:
382,74,56330,1,0,0:0:0:0:
400,95,56387,1,0,0:0:0:0:
406,122,56444,1,0,0:0:0:0:
400,148,56502,1,8,0:0:0:0:
382,169,56559,1,0,0:0:0:0:
357,180,56616,1,0,0:0:0:0:
177,185,56731,6,0,L|58:184,1,110,4|0,0:0|0:0,0:0:0:0:
264,183,57189,2,0,L|283:50,1,110,8|0,0:0|0:0,0:0:0:0:
81,74,57647,2,0,L|62:224,1,110,2|0,0:0|0:0,0:0:0:0:
252,302,58105,2,0,L|94:280,1,110,8|0,0:0|0:0,0:0:0:0:
452,293,58563,5,2,0:1:0:0:
491,255,58677,1,2,0:0:0:0:
503,202,58792,1,2,0:0:0:0:
485,151,58906,1,2,0:0:0:0:
442,118,59021,1,2,0:0:0:0:
388,114,59135,1,2,0:0:0:0:
192,113,59250,1,2,0:1:0:0:
110,113,59365,1,2,0:0:0:0:
284,306,59479,5,0,0:0:0:0:
310,300,59536,1,0,0:0:0:0:
332,284,59593,1,0,0:0:0:0:
344,259,59650,1,0,0:0:0:0:
343,232,59708,1,0,0:0:0:0:
331,208,59765,1,0,0:0:0:0:
309,192,59822,1,0,0:0:0:0:
250,186,59880,1,0,0:0:0:0:
193,178,59937,1,0,0:0:0:0:
167,168,59994,1,0,0:0:0:0:
148,148,60051,1,0,0:0:0:0:
141,122,60108,1,0,0:0:0:0:
148,96,60166,1,0,0:0:0:0:
166,75,60223,1,0,0:0:0:0:
191,65,60280,1,0,0:0:0:0:
380,58,60395,6,0,L|526:55,2,131.99999597168,4|2|8,0:0|0:1|0:0,0:0:0:0:
85,77,61082,2,0,L|361:137,1,263.99999194336,2|2,0:1|0:1,0:0:0:0:
134,249,61770,2,0,L|126:116,1,131.99999597168,8|2,0:0|0:1,0:0:0:0:
432,306,62228,6,0,L|293:289,1,131.99999597168,2|0,0:1|0:0,0:0:0:0:
144,266,62686,1,8,0:0:0:0:
375,247,62915,2,0,P|448:181|314:105,1,263.99999194336,2|0,0:1|0:0,0:0:0:0:
167,71,63602,2,0,L|23:57,1,131.99999597168,8|2,0:0|0:1,0:0:0:0:
364,315,64060,6,0,L|383:170,1,131.99999597168,2|0,0:1|0:0,0:0:0:0:
226,149,64518,1,8,0:0:0:0:
463,51,64747,2,0,L|181:67,1,263.99999194336,2|2,0:1|0:1,0:0:0:0:
369,113,65434,2,0,L|517:145,1,131.99999597168,8|2,0:0|0:1,0:0:0:0:
140,308,65892,6,0,L|135:172,1,131.99999597168,2|0,0:1|0:0,0:0:0:0:
292,156,66350,2,0,L|303:16,1,131.99999597168,10|0,0:1|0:0,0:0:0:0:
11,53,66808,2,0,L|284:100,1,263.99999194336,2|10,0:1|0:1,0:0:0:0:
138,117,67495,2,0,L|128:194,1,65.9999979858399
330,291,67724,6,0,L|490:280,2,131.99999597168,2|0|8,0:1|0:0|0:0,0:0:0:0:
487,278,68411,1,2,0:1:0:0:
315,221,68640,2,0,L|308:66,1,131.99999597168,2|2,0:1|0:1,0:0:0:0:
465,66,69098,1,10,0:1:0:0:
245,150,69327,6,0,L|513:180,1,263.99999194336,2|2,0:1|0:1,0:0:0:0:
394,232,70014,1,10,0:1:0:0:
81,299,70243,2,0,L|358:329,1,263.99999194336,2|2,0:1|0:1,0:0:0:0:
483,253,70930,2,0,L|341:268,1,131.99999597168,10|0,0:1|0:0,0:0:0:0:
50,201,71388,6,0,P|22:136|176:49,1,263.99999194336,4|8,0:0|0:0,0:0:0:0:
456,151,72075,2,0,L|142:162,1,263.99999194336,2|2,0:1|0:1,0:0:0:0:
370,294,72762,2,0,L|385:134,1,131.99999597168,2|10,0:1|0:1,0:0:0:0:
89,69,73220,5,2,0:0:0:0:
236,126,73449,1,2,0:1:0:0:
254,152,73506,1,0,0:0:0:0:
259,185,73563,1,0,0:0:0:0:
248,216,73620,1,0,0:0:0:0:
225,239,73678,1,10,0:1:0:0:
384,232,73907,2,0,L|457:222,1,65.9999979858399,2|0,0:0|0:0,0:0:0:0:
234,322,74136,5,10,0:1:0:0:
348,310,74365,1,0,0:0:0:0:
316,300,74422,1,0,0:0:0:0:
284,291,74479,1,0,0:0:0:0:
252,282,74536,1,0,0:0:0:0:
221,273,74594,1,8,0:0:0:0:
384,217,74823,2,0,L|392:136,1,65.9999979858399
157,96,75052,6,0,L|5:71,2,131.99999597168,4|2|8,0:0|0:1|0:0,0:0:0:0:
345,116,75739,2,0,P|312:187|103:241,1,263.99999194336,2|2,0:1|0:1,0:0:0:0:
358,259,76426,2,0,L|513:263,1,131.99999597168,8|2,0:0|0:1,0:0:0:0:
128,349,76884,6,0,L|108:205,1,131.99999597168,2|0,0:1|0:0,0:0:0:0:
329,171,77342,1,8,0:0:0:0:
101,78,77571,2,0,P|210:88|295:230,1,263.99999194336,2|0,0:1|0:0,0:0:0:0:
132,207,78258,1,8,0:0:0:0:
492,178,78487,6,0,P|455:264|266:315,1,263.99999194336,2|2,0:1|0:1,0:0:0:0:
117,298,79174,1,8,0:0:0:0:
448,246,79403,6,0,L|459:110,1,131.99999597168,2|2,0:1|0:0,0:0:0:0:
153,63,79861,2,0,P|68:102|173:188,1,263.99999194336,2|2,0:1|0:1,0:0:0:0:
350,194,80548,6,0,L|501:192,1,131.99999597168,2|0,0:1|0:0,0:0:0:0:
239,317,81006,2,0,L|88:304,1,131.99999597168,10|0,0:1|0:0,0:0:0:0:
367,312,81464,2,0,P|414:261|289:147,1,263.99999194336,2|10,0:1|0:1,0:0:0:0:
144,148,82151,1,0,0:0:0:0:
222,137,82266,1,0,0:0:0:0:
401,122,82380,6,0,L|253:143,2,131.99999597168,4|0|8,0:0|0:0|0:0,0:0:0:0:
190,115,83067,2,0,P|135:158|260:259,1,263.99999194336,0|2,0:0|0:1,0:0:0:0:
423,276,83754,2,0,L|438:133,1,131.99999597168,10|2,0:1|0:1,0:0:0:0:
98,93,84212,6,0,L|420:131,1,263.99999194336,2|8,0:0|0:0,0:0:0:0:
44,298,84899,6,0,P|179:285|283:207,2,263.99999194336,2|2|2,0:1|0:1|0:1,0:0:0:0:
344,306,86044,5,6,0:1:0:0:
406,256,86159,1,0,0:0:0:0:
407,177,86273,1,0,0:0:0:0:
344,128,86388,1,0,0:0:0:0:
265,120,86502,1,8,0:0:0:0:
193,155,86617,1,0,0:0:0:0:
181,232,86731,1,0,0:0:0:0:
239,286,86846,1,0,0:0:0:0:
317,280,86960,5,2,0:0:0:0:
331,201,87075,1,0,0:0:0:0:
279,141,87189,1,0,0:0:0:0:
200,129,87304,1,0,0:0:0:0:
131,167,87418,1,8,0:0:0:0:
110,243,87533,1,0,0:0:0:0:
161,302,87647,1,0,0:0:0:0:
238,319,87762,1,0,0:0:0:0:
316,317,87876,5,2,0:0:0:0:
394,307,87991,1,0,0:0:0:0:
471,292,88105,1,0,0:0:0:0:
394,270,88220,1,0,0:0:0:0:
316,256,88334,1,8,0:0:0:0:
237,241,88449,1,0,0:0:0:0:
159,224,88563,1,0,0:0:0:0:
236,204,88678,1,0,0:0:0:0:
312,184,88792,5,2,0:0:0:0:
390,170,88907,1,0,0:0:0:0:
467,156,89021,1,8,0:0:0:0:
391,132,89136,1,0,0:0:0:0:
206,104,89250,1,2,0:0:0:0:
128,88,89365,1,0,0:0:0:0:
381,51,89479,6,0,L|472:88,1,87.9999973144532,0|0,0:0|0:0,0:0:0:0:
346,149,89708,1,2,0:0:0:0:
