osu file format v14

[General]
AudioFilename: audio.ogg
AudioLeadIn: 0
PreviewTime: 58297
Countdown: 0
SampleSet: Normal
StackLeniency: 0.7
Mode: 1
LetterboxInBreaks: 0
WidescreenStoryboard: 1

[Editor]
Bookmarks: 15301,29957,44614
DistanceSpacing: 0.5
BeatDivisor: 4
GridSize: 32
TimelineZoom: 1.2

[Metadata]
Title:Vidro Moyou (TV Size)
TitleUnicode:ビードロ模様 (TV Size)
Artist:yanaginagi
ArtistUnicode:やなぎなぎ
Creator:BlackBN
Version:Oni
Source:あの夏で待ってる
Tags:BlackBq anime japanese pop jpop j-pop ed ending Waiting in the Summer Ano Natsu de Matteru Nagi Yanagi 貴月イチカ Takatsuki Ichika 戸松遥 Tomatsu Haruka 谷川柑菜 Tanigawa Kanna 石原夏織 Ishihara Kaori 北原美桜 Kitahara Mio 阿澄佳奈 Asumi Kana 山乃檸檬 Yamano Remon 田村ゆかり Tamura Yukari
BeatmapID:4282867
BeatmapSetID:2050721

[Difficulty]
HPDrainRate:5.5
CircleSize:2
OverallDifficulty:5
ApproachRate:10
SliderMultiplier:1.4
SliderTickRate:1

[Events]
//Background and Video events
0,0,"v.jpg",0,-5
Video,475,"vidro.mp4"
//Break Periods
//Storyboard Layer 0 (Background)
//Storyboard Layer 1 (Fail)
//Storyboard Layer 2 (Pass)
//Storyboard Layer 3 (Foreground)
//Storyboard Layer 4 (Overlay)
//Storyboard Sound Samples

[TimingPoints]
645,458.015267175573,4,1,0,70,1,0
15415,-100,4,1,0,65,0,0
29900,-100,4,1,0,70,0,0
59213,-100,4,1,0,75,0,0
59270,-100,4,1,0,75,0,1
73698,-100,4,1,0,75,0,0
73927,-100,4,1,0,75,0,1
88583,-100,4,1,0,75,0,0

[HitObjects]
384,96,645,5,12,0:0:0:0:
256,192,1103,1,0,0:0:0:0:
256,192,1332,1,8,0:0:0:0:
256,192,1561,1,0,0:0:0:0:
256,192,1675,1,0,0:0:0:0:
256,192,1790,1,0,0:0:0:0:
256,192,2019,1,8,0:0:0:0:
256,192,2248,1,0,0:0:0:0:
256,192,2477,1,0,0:0:0:0:
256,192,2935,1,0,0:0:0:0:
256,192,3164,1,8,0:0:0:0:
256,192,3393,1,8,0:0:0:0:
256,192,3507,1,8,0:0:0:0:
256,192,3622,1,0,0:0:0:0:
256,192,3851,1,8,0:0:0:0:
256,192,4080,1,8,0:0:0:0:
256,192,4309,1,0,0:0:0:0:
256,192,4767,1,0,0:0:0:0:
256,192,4996,1,8,0:0:0:0:
256,192,5225,1,0,0:0:0:0:
256,192,5339,1,8,0:0:0:0:
256,192,5454,1,0,0:0:0:0:
256,192,5683,1,8,0:0:0:0:
256,192,5912,1,0,0:0:0:0:
256,192,6141,1,0,0:0:0:0:
256,192,6599,1,0,0:0:0:0:
256,192,6828,1,8,0:0:0:0:
256,192,7057,1,0,0:0:0:0:
256,192,7171,1,0,0:0:0:0:
256,192,7286,1,8,0:0:0:0:
256,192,7515,1,0,0:0:0:0:
256,192,7744,1,8,0:0:0:0:
256,192,7973,1,0,0:0:0:0:
256,192,8431,1,0,0:0:0:0:
256,192,8660,1,8,0:0:0:0:
256,192,8889,1,8,0:0:0:0:
256,192,9003,1,8,0:0:0:0:
256,192,9118,1,0,0:0:0:0:
256,192,9347,1,8,0:0:0:0:
256,192,9576,1,0,0:0:0:0:
256,192,9805,1,0,0:0:0:0:
256,192,10263,1,0,0:0:0:0:
256,192,10492,1,8,0:0:0:0:
256,192,10721,1,0,0:0:0:0:
256,192,10835,1,8,0:0:0:0:
256,192,10950,1,0,0:0:0:0:
256,192,11179,1,8,0:0:0:0:
256,192,11408,1,0,0:0:0:0:
384,96,11637,1,12,0:0:0:0:
256,192,12095,1,8,0:0:0:0:
256,192,12324,1,0,0:0:0:0:
256,192,12553,1,0,0:0:0:0:
256,192,12782,1,8,0:0:0:0:
256,192,12896,1,0,0:0:0:0:
256,192,13011,1,8,0:0:0:0:
256,192,13240,1,8,0:0:0:0:
256,192,13469,1,0,0:0:0:0:
256,192,13698,1,8,0:0:0:0:
256,192,13812,1,8,0:0:0:0:
256,192,13927,1,0,0:0:0:0:
256,192,14156,1,8,0:0:0:0:
256,192,14385,1,0,0:0:0:0:
256,192,14499,1,0,0:0:0:0:
256,192,14614,1,0,0:0:0:0:
256,192,14728,1,0,0:0:0:0:
256,192,14843,1,8,0:0:0:0:
256,192,15072,1,0,0:0:0:0:
384,96,15301,1,12,0:0:0:0:
256,192,15759,1,0,0:0:0:0:
256,192,15988,1,8,0:0:0:0:
256,192,16217,1,0,0:0:0:0:
256,192,16446,1,0,0:0:0:0:
256,192,16675,1,8,0:0:0:0:
256,192,16904,1,8,0:0:0:0:
256,192,17133,1,0,0:0:0:0:
256,192,17591,1,0,0:0:0:0:
256,192,17820,1,8,0:0:0:0:
256,192,18278,1,8,0:0:0:0:
256,192,18507,1,0,0:0:0:0:
256,192,18736,1,0,0:0:0:0:
256,192,18965,1,8,0:0:0:0:
256,192,19423,1,0,0:0:0:0:
256,192,19652,1,0,0:0:0:0:
256,192,20110,1,0,0:0:0:0:
256,192,20339,1,8,0:0:0:0:
256,192,20797,1,0,0:0:0:0:
256,192,21255,1,0,0:0:0:0:
256,192,21484,1,8,0:0:0:0:
256,192,21942,1,0,0:0:0:0:
256,192,22171,1,8,0:0:0:0:
256,192,22400,1,0,0:0:0:0:
256,192,22629,1,0,0:0:0:0:
256,192,23087,1,8,0:0:0:0:
256,192,23316,1,0,0:0:0:0:
256,192,23774,1,0,0:0:0:0:
256,192,24003,1,8,0:0:0:0:
256,192,24232,1,8,0:0:0:0:
256,192,24461,1,8,0:0:0:0:
256,192,24690,1,0,0:0:0:0:
256,192,25148,1,8,0:0:0:0:
256,192,25377,1,0,0:0:0:0:
256,192,25606,1,8,0:0:0:0:
256,192,25835,1,8,0:0:0:0:
256,192,26064,1,0,0:0:0:0:
256,192,26293,1,8,0:0:0:0:
256,192,26751,1,8,0:0:0:0:
256,192,26980,1,8,0:0:0:0:
256,192,27209,1,0,0:0:0:0:
256,192,27667,1,0,0:0:0:0:
256,192,28125,1,0,0:0:0:0:
256,192,28354,1,0,0:0:0:0:
256,192,28583,1,8,0:0:0:0:
256,192,28812,1,8,0:0:0:0:
256,192,28927,1,8,0:0:0:0:
256,192,29041,1,0,0:0:0:0:
256,192,29270,1,8,0:0:0:0:
256,192,29499,1,8,0:0:0:0:
256,192,29614,1,8,0:0:0:0:
256,192,29728,1,8,0:0:0:0:
384,96,29957,1,12,0:0:0:0:
256,192,30415,1,8,0:0:0:0:
256,192,30645,1,0,0:0:0:0:
256,192,30759,1,8,0:0:0:0:
256,192,30874,1,0,0:0:0:0:
256,192,31103,1,0,0:0:0:0:
256,192,31332,1,8,0:0:0:0:
256,192,31561,1,0,0:0:0:0:
256,192,31790,1,0,0:0:0:0:
256,192,32248,1,8,0:0:0:0:
256,192,32477,1,0,0:0:0:0:
256,192,32935,1,0,0:0:0:0:
256,192,33164,1,8,0:0:0:0:
256,192,33393,1,8,0:0:0:0:
256,192,33507,1,8,0:0:0:0:
256,192,33622,1,0,0:0:0:0:
256,192,34080,1,8,0:0:0:0:
256,192,34309,1,8,0:0:0:0:
256,192,34423,1,8,0:0:0:0:
256,192,34538,1,8,0:0:0:0:
256,192,34767,1,0,0:0:0:0:
256,192,34996,1,8,0:0:0:0:
256,192,35454,1,0,0:0:0:0:
256,192,35683,1,0,0:0:0:0:
256,192,35912,1,8,0:0:0:0:
256,192,36141,1,8,0:0:0:0:
256,192,36599,1,0,0:0:0:0:
256,192,36828,1,8,0:0:0:0:
256,192,36942,1,8,0:0:0:0:
256,192,37057,1,0,0:0:0:0:
384,96,37286,1,4,0:0:0:0:
256,192,37744,1,8,0:0:0:0:
256,192,37973,1,0,0:0:0:0:
256,192,38087,1,0,0:0:0:0:
256,192,38202,1,0,0:0:0:0:
256,192,38431,1,0,0:0:0:0:
256,192,38660,1,8,0:0:0:0:
256,192,38889,1,8,0:0:0:0:
256,192,39118,1,0,0:0:0:0:
256,192,39347,1,0,0:0:0:0:
256,192,39576,1,8,0:0:0:0:
256,192,39805,1,0,0:0:0:0:
256,192,40263,1,0,0:0:0:0:
256,192,40492,1,8,0:0:0:0:
256,192,40606,1,0,0:0:0:0:
256,192,40721,1,8,0:0:0:0:
256,192,40950,1,0,0:0:0:0:
256,192,41408,1,8,0:0:0:0:
256,192,41637,1,0,0:0:0:0:
256,192,41751,1,0,0:0:0:0:
256,192,41866,1,0,0:0:0:0:
256,192,42095,1,8,0:0:0:0:
256,192,42324,1,0,0:0:0:0:
256,192,42553,1,8,0:0:0:0:
256,192,42782,1,0,0:0:0:0:
384,96,43240,1,12,0:0:0:0:
256,192,43698,1,8,0:0:0:0:
256,192,43927,1,8,0:0:0:0:
256,192,44156,1,8,0:0:0:0:
256,192,44385,1,8,0:0:0:0:
384,96,44614,1,4,0:0:0:0:
256,192,44843,1,0,0:0:0:0:
256,192,45072,1,8,0:0:0:0:
256,192,45301,1,0,0:0:0:0:
256,192,45759,1,0,0:0:0:0:
256,192,45988,1,8,0:0:0:0:
256,192,46217,1,0,0:0:0:0:
256,192,46446,1,0,0:0:0:0:
256,192,46904,1,8,0:0:0:0:
256,192,47133,1,0,0:0:0:0:
256,192,47591,1,0,0:0:0:0:
256,192,47820,1,0,0:0:0:0:
256,192,47935,1,0,0:0:0:0:
256,192,48049,1,8,0:0:0:0:
256,192,48278,1,0,0:0:0:0:
256,192,48507,1,0,0:0:0:0:
256,192,48736,1,8,0:0:0:0:
256,192,48965,1,0,0:0:0:0:
256,192,49194,1,0,0:0:0:0:
256,192,49423,1,0,0:0:0:0:
256,192,49652,1,8,0:0:0:0:
256,192,49881,1,0,0:0:0:0:
256,192,50110,1,0,0:0:0:0:
256,192,50568,1,8,0:0:0:0:
256,192,50797,1,0,0:0:0:0:
256,192,51255,1,0,0:0:0:0:
256,192,51484,1,8,0:0:0:0:
256,192,51599,1,0,0:0:0:0:
256,192,51713,1,8,0:0:0:0:
384,96,51942,1,4,0:0:0:0:
256,192,52171,1,0,0:0:0:0:
256,192,52400,1,8,0:0:0:0:
256,192,52629,1,0,0:0:0:0:
256,192,53087,1,0,0:0:0:0:
256,192,53316,1,8,0:0:0:0:
256,192,53545,1,0,0:0:0:0:
256,192,53774,1,0,0:0:0:0:
256,192,54232,1,8,0:0:0:0:
256,192,54461,1,0,0:0:0:0:
256,192,54919,1,0,0:0:0:0:
256,192,55148,1,0,0:0:0:0:
256,192,55263,1,0,0:0:0:0:
256,192,55377,1,8,0:0:0:0:
384,96,55606,1,4,0:0:0:0:
256,192,56064,1,8,0:0:0:0:
256,192,56293,1,0,0:0:0:0:
256,192,56522,1,0,0:0:0:0:
256,192,56751,1,0,0:0:0:0:
256,192,56980,1,8,0:0:0:0:
256,192,57209,1,0,0:0:0:0:
256,192,57438,1,0,0:0:0:0:
256,192,57553,1,0,0:0:0:0:
256,192,57667,1,0,0:0:0:0:
256,192,57896,1,0,0:0:0:0:
256,192,58125,1,8,0:0:0:0:
256,192,58354,1,0,0:0:0:0:
256,192,58469,1,0,0:0:0:0:
256,192,58583,1,0,0:0:0:0:
256,192,58698,1,0,0:0:0:0:
256,192,58812,1,8,0:0:0:0:
256,192,59041,1,0,0:0:0:0:
384,96,59270,1,12,0:0:0:0:
256,192,59499,1,0,0:0:0:0:
256,192,59614,1,0,0:0:0:0:
256,192,59728,1,8,0:0:0:0:
256,192,59957,1,8,0:0:0:0:
256,192,60186,1,0,0:0:0:0:
256,192,60415,1,0,0:0:0:0:
256,192,60645,1,8,0:0:0:0:
256,192,60874,1,0,0:0:0:0:
256,192,60988,1,8,0:0:0:0:
256,192,61103,1,0,0:0:0:0:
256,192,61332,1,0,0:0:0:0:
256,192,61561,1,8,0:0:0:0:
256,192,61790,1,8,0:0:0:0:
256,192,62019,1,0,0:0:0:0:
256,192,62477,1,0,0:0:0:0:
256,192,62706,1,8,0:0:0:0:
256,192,62820,1,0,0:0:0:0:
256,192,62935,1,8,0:0:0:0:
256,192,63164,1,8,0:0:0:0:
256,192,63393,1,0,0:0:0:0:
256,192,63622,1,8,0:0:0:0:
256,192,63736,1,8,0:0:0:0:
256,192,63851,1,0,0:0:0:0:
256,192,64080,1,0,0:0:0:0:
256,192,64309,1,0,0:0:0:0:
256,192,64538,1,8,0:0:0:0:
256,192,64767,1,0,0:0:0:0:
256,192,65225,1,8,0:0:0:0:
256,192,65454,1,0,0:0:0:0:
256,192,65568,1,0,0:0:0:0:
256,192,65683,1,8,0:0:0:0:
256,192,65912,1,0,0:0:0:0:
256,192,66141,1,8,0:0:0:0:
256,192,66370,1,8,0:0:0:0:
384,96,66599,1,4,0:0:0:0:
256,192,67057,1,8,0:0:0:0:
256,192,67286,1,8,0:0:0:0:
256,192,67400,1,0,0:0:0:0:
256,192,67515,1,8,0:0:0:0:
256,192,67744,1,0,0:0:0:0:
256,192,67973,1,8,0:0:0:0:
256,192,68202,1,0,0:0:0:0:
256,192,68431,1,0,0:0:0:0:
256,192,68660,1,0,0:0:0:0:
256,192,68774,1,0,0:0:0:0:
256,192,68889,1,8,0:0:0:0:
256,192,69118,1,8,0:0:0:0:
256,192,69347,1,0,0:0:0:0:
256,192,69576,1,0,0:0:0:0:
256,192,69805,1,8,0:0:0:0:
256,192,70034,1,0,0:0:0:0:
384,96,70263,1,4,0:0:0:0:
256,192,70492,1,8,0:0:0:0:
256,192,70606,1,8,0:0:0:0:
256,192,70721,1,8,0:0:0:0:
256,192,70950,1,0,0:0:0:0:
256,192,71408,1,8,0:0:0:0:
256,192,71637,1,0,0:0:0:0:
256,192,71866,1,8,0:0:0:0:
256,192,72095,1,0,0:0:0:0:
256,192,72324,1,0,0:0:0:0:
256,192,72438,1,0,0:0:0:0:
256,192,72553,1,8,0:0:0:0:
256,192,72782,1,8,0:0:0:0:
256,192,73011,1,0,0:0:0:0:
384,96,73240,1,12,0:0:0:0:
256,192,73469,1,0,0:0:0:0:
384,96,73698,1,12,0:0:0:0:
384,96,73927,1,4,0:0:0:0:
256,192,74156,1,0,0:0:0:0:
256,192,74270,1,8,0:0:0:0:
256,192,74385,1,0,0:0:0:0:
256,192,74614,1,8,0:0:0:0:
256,192,74843,1,0,0:0:0:0:
256,192,75072,1,0,0:0:0:0:
256,192,75301,1,8,0:0:0:0:
256,192,75530,1,0,0:0:0:0:
256,192,75645,1,0,0:0:0:0:
256,192,75759,1,8,0:0:0:0:
256,192,75988,1,0,0:0:0:0:
256,192,76217,1,8,0:0:0:0:
256,192,76446,1,8,0:0:0:0:
256,192,76675,1,0,0:0:0:0:
256,192,77133,1,8,0:0:0:0:
256,192,77362,1,8,0:0:0:0:
256,192,77477,1,8,0:0:0:0:
256,192,77591,1,0,0:0:0:0:
256,192,77820,1,0,0:0:0:0:
256,192,78049,1,8,0:0:0:0:
256,192,78278,1,0,0:0:0:0:
256,192,78393,1,0,0:0:0:0:
256,192,78507,1,0,0:0:0:0:
256,192,78736,1,8,0:0:0:0:
256,192,78965,1,0,0:0:0:0:
256,192,79194,1,0,0:0:0:0:
256,192,79423,1,8,0:0:0:0:
256,192,79881,1,8,0:0:0:0:
256,192,80110,1,0,0:0:0:0:
256,192,80225,1,0,0:0:0:0:
256,192,80339,1,8,0:0:0:0:
256,192,80568,1,0,0:0:0:0:
256,192,80797,1,8,0:0:0:0:
256,192,81026,1,8,0:0:0:0:
256,192,81255,1,0,0:0:0:0:
256,192,81484,1,0,0:0:0:0:
256,192,81599,1,8,0:0:0:0:
256,192,81713,1,0,0:0:0:0:
256,192,81942,1,0,0:0:0:0:
256,192,82400,1,0,0:0:0:0:
256,192,82629,1,8,0:0:0:0:
256,192,82744,1,0,0:0:0:0:
256,192,82858,1,8,0:0:0:0:
256,192,83087,1,0,0:0:0:0:
256,192,83316,1,0,0:0:0:0:
256,192,83545,1,8,0:0:0:0:
256,192,83774,1,8,0:0:0:0:
256,192,83889,1,8,0:0:0:0:
256,192,84003,1,0,0:0:0:0:
256,192,84232,1,0,0:0:0:0:
256,192,84461,1,8,0:0:0:0:
256,192,84690,1,0,0:0:0:0:
256,192,84919,1,0,0:0:0:0:
256,192,85034,1,0,0:0:0:0:
256,192,85148,1,0,0:0:0:0:
256,192,85377,1,8,0:0:0:0:
256,192,85606,1,0,0:0:0:0:
256,192,85721,1,8,0:0:0:0:
256,192,85835,1,8,0:0:0:0:
256,192,85950,1,8,0:0:0:0:
256,192,86064,1,0,0:0:0:0:
256,192,86293,1,0,0:0:0:0:
256,192,86522,1,8,0:0:0:0:
256,192,86637,1,8,0:0:0:0:
256,192,86751,1,0,0:0:0:0:
256,192,86980,1,0,0:0:0:0:
256,192,87095,1,0,0:0:0:0:
256,192,87209,1,8,0:0:0:0:
256,192,87324,1,8,0:0:0:0:
256,192,87438,1,0,0:0:0:0:
256,192,87667,1,0,0:0:0:0:
256,192,87896,1,8,0:0:0:0:
256,192,88011,1,0,0:0:0:0:
256,192,88125,1,8,0:0:0:0:
256,192,88354,1,0,0:0:0:0:
384,96,88583,1,12,0:0:0:0:
