osu file format v14

[General]
AudioFilename: audio.mp3
AudioLeadIn: 0
PreviewTime: 59937
Countdown: 0
SampleSet: Soft
StackLeniency: 0.7
Mode: 0
LetterboxInBreaks: 0
EpilepsyWarning: 1
WidescreenStoryboard: 1

[Editor]
Bookmarks: 1770,16426,31082,45739,60395,75052
DistanceSpacing: 1.4
BeatDivisor: 8
GridSize: 4
TimelineZoom: 2.8

[Metadata]
Title:Vidro Moyou
TitleUnicode:ビードロ模様
Artist:yanaginagi
ArtistUnicode:やなぎなぎ
Creator:Hokichi
Version:Yamicchi's Light Insane
Source:あの夏で待ってる
Tags:waiting in that summer hoki linada yamicchi yami ano natsu de matteru
BeatmapID:1330488
BeatmapSetID:630223

[Difficulty]
HPDrainRate:6
CircleSize:3.6
OverallDifficulty:7
ApproachRate:8
SliderMultiplier:1.6
SliderTickRate:1

[Events]
//Background and Video events
0,0,"bg.jpg",0,0
//Break Periods
//Storyboard Layer 0 (Background)
//Storyboard Layer 1 (Fail)
//Storyboard Layer 2 (Pass)
//Storyboard Layer 3 (Foreground)
//Storyboard Sound Samples

[TimingPoints]
1770,458.015267175573,4,2,1,40,1,0
16426,-125,4,2,1,40,0,0
29250,-100,4,2,1,40,0,0
45739,-133.333333333333,4,2,1,40,0,0
58563,-100,4,2,1,40,0,0
60395,-100,4,2,1,40,0,1
89708,-100,4,2,1,40,0,0

[Colours]
Combo1 : 149,255,149
Combo2 : 255,183,255
Combo3 : 255,255,166
Combo4 : 145,200,255

[HitObjects]
88,104,1770,6,0,B|128:120|168:104|168:104|208:88|248:104,1,160,4|0,3:2|3:2,0:0:0:0:
244,102,2457,1,2,0:2:0:0:
208,184,2686,1,2,3:2:0:0:
350,247,2915,1,2,0:2:0:0:
333,93,3144,1,2,3:2:0:0:
296,174,3373,1,2,0:2:0:0:
296,174,4289,5,2,0:2:0:0:
333,93,4518,1,2,3:2:0:0:
384,165,4747,1,2,0:2:0:0:
259,255,4976,2,0,L|168:248,1,80,2|2,3:2|0:2,0:0:0:0:
224,368,5434,6,0,L|392:352,1,160,0|0,3:2|3:2,0:0:0:0:
383,352,6121,1,2,0:2:0:0:
432,272,6350,1,2,3:2:0:0:
295,189,6579,1,2,0:2:0:0:
480,193,6808,1,2,3:2:0:0:
339,270,7037,1,2,0:2:0:0:
339,270,7953,5,2,0:2:0:0:
328,176,8182,1,2,3:2:0:0:
240,208,8411,1,2,0:2:0:0:
427,238,8640,2,0,P|480:224|512:224,1,80,2|2,3:2|0:2,0:0:0:0:
411,331,9098,6,0,P|368:360|264:328,1,160,0|0,3:2|3:2,0:0:0:0:
269,334,9785,1,2,0:2:0:0:
256,240,10014,1,2,3:2:0:0:
168,384,10243,1,2,0:2:0:0:
88,236,10472,1,2,3:2:0:0:
171,287,10701,1,2,0:2:0:0:
171,287,11617,5,2,0:2:0:0:
72,272,11846,1,2,3:2:0:0:
234,209,12075,1,2,0:2:0:0:
208,381,12304,1,2,3:2:0:0:
171,287,12533,1,2,0:2:0:0:
333,224,12762,6,0,P|376:168|328:96,1,160,4|0,3:2|3:2,0:0:0:0:
335,98,13449,1,2,0:2:0:0:
240,120,13678,1,2,3:2:0:0:
352,240,13907,1,2,0:2:0:0:
221,104,14136,1,2,3:2:0:0:
152,200,14365,6,0,P|112:208|64:200,1,80,2|0,0:2|3:2,0:0:0:0:
32,312,14823,2,0,L|36:344,2,20,2|0|0,3:2|3:2|3:2,0:0:0:0:
48,304,15052,2,0,P|88:296|136:304,1,80,0|2,3:2|0:2,0:0:0:0:
168,192,15510,2,0,L|172:160,6,20,0|0|0|0|2|0|0,3:2|3:2|3:2|3:2|3:2|3:2|3:2,0:0:0:0:
152,200,15968,2,0,P|112:208|64:200,1,80,2|2,0:2|0:2,0:0:0:0:
192,64,16426,5,4,3:2:0:0:
200,80,16884,1,0,3:2:0:0:
296,88,17113,1,0,0:2:0:0:
392,96,17342,2,0,P|400:136|400:168,1,64,0|0,3:2|0:2,0:0:0:0:
336,260,17800,2,0,P|328:220|328:188,1,64,0|0,3:2|0:2,0:0:0:0:
480,180,18258,2,0,P|496:248|484:312,1,128,0|0,3:2|3:2,0:0:0:0:
408,356,18945,2,0,L|268:352,1,128,0|0,0:2|0:2,0:0:0:0:
200,312,19632,2,0,P|192:348|196:384,1,64,0|0,3:2|0:2,0:0:0:0:
275,262,20090,6,0,P|232:228|140:244,1,128,0|0,3:2|3:2,0:0:0:0:
77,265,20777,2,0,P|73:202|110:151,1,128,0|0,0:2|0:2,0:0:0:0:
200,124,21464,1,0,3:2:0:0:
208,140,21922,1,0,3:2:0:0:
216,156,22380,1,0,3:2:0:0:
224,172,22838,1,0,3:2:0:0:
312,192,23067,2,0,P|350:186|376:184,2,64,0|0|0,0:2|3:2|0:2,0:0:0:0:
204,280,23754,6,0,P|148:272|68:268,1,128,0|0,3:2|3:2,0:0:0:0:
8,212,24441,2,0,P|64:182|124:158,1,128,0|0,0:2|2:2,0:0:0:0:
212,188,25128,1,0,3:2:0:0:
287,240,25357,2,0,B|296:288|296:288|284:376,2,128,0|0|0,0:2|0:0|0:2,0:0:0:0:
252,68,26731,1,0,0:2:0:0:
320,128,26960,2,0,P|352:124|384:124,1,64,0|0,3:2|0:2,0:0:0:0:
252,68,27418,6,0,P|204:84|108:84,1,128,0|0,3:2|3:2,0:0:0:0:
40,112,28105,2,0,P|19:172|46:238,1,128,0|0,0:2|0:0,0:0:0:0:
132,231,28792,2,0,P|127:199|112:172,1,64,0|0,3:2|0:0,0:0:0:0:
212,88,29250,5,0,0:2:0:0:
320,156,29479,1,0,0:2:0:0:
224,0,29708,1,8,0:2:0:0:
200,104,29937,1,0,0:2:0:0:
200,104,30052,1,0,0:2:0:0:
200,104,30166,1,0,0:2:0:0:
344,52,30395,1,0,0:2:0:0:
423,125,30624,2,0,L|426:93,6,20,0|0|0|0|0|0|0,0:2|0:2|0:2|0:2|0:2|0:2|0:2,0:0:0:0:
420,144,31082,6,0,L|328:136,2,80,4|0|8,0:2|0:0|0:2,0:0:0:0:
476,232,31770,1,0,0:2:0:0:
386,287,31999,2,0,P|379:326|385:365,1,80,0|0,0:2|0:2,0:0:0:0:
280,260,32457,2,0,P|287:220|281:181,1,80,8|0,0:2|0:2,0:0:0:0:
208,112,32915,6,0,P|116:128|40:128,1,160,0|8,0:2|0:2,0:0:0:0:
60,12,33602,2,0,P|116:12|160:24,1,80,0|0,0:2|0:2,0:0:0:0:
208,112,34060,1,0,0:2:0:0:
96,200,34289,2,0,P|92:244|92:288,1,80,8|0,0:2|0:2,0:0:0:0:
104,296,34632,1,0,0:2:0:0:
116,312,34747,6,0,P|160:296|200:296,1,80,2|0,0:2|0:2,0:0:0:0:
272,360,35205,1,8,0:2:0:0:
424,252,35434,2,0,P|352:228|240:224,1,160,0|0,0:2|0:2,0:0:0:0:
272,360,36121,2,0,P|320:360|360:352,1,80,8|0,0:2|0:2,0:0:0:0:
424,252,36579,6,0,P|432:208|424:168,1,80,0|0,0:2|0:2,0:0:0:0:
308,40,37037,2,0,P|300:84|308:124,1,80,8|0,0:2|0:2,0:0:0:0:
426,173,37495,2,0,L|518:161,1,80,0|0,0:2|0:2,0:0:0:0:
328,228,37953,1,8,0:2:0:0:
305,118,38182,1,0,0:2:0:0:
179,234,38411,6,0,P|254:256|327:227,1,160,4|8,0:2|0:2,0:0:0:0:
426,173,39098,1,0,0:2:0:0:
504,252,39327,2,0,P|508:304|508:340,1,80,0|0,0:2|0:2,0:0:0:0:
356,376,39785,2,0,P|316:360|276:360,1,80,8|0,0:2|0:2,0:0:0:0:
172,376,40243,5,0,0:2:0:0:
160,268,40472,1,0,0:2:0:0:
328,208,40701,2,0,P|346:243|351:282,2,80,8|0|0,0:2|0:2|0:2,0:0:0:0:
204,169,41388,1,0,0:2:0:0:
140,308,41617,1,8,0:2:0:0:
52,184,41846,1,0,0:2:0:0:
224,129,42075,6,0,L|392:136,1,160,2|8,0:2|0:2,0:0:0:0:
460,16,42762,2,0,P|476:56|472:96,1,80,0|0,0:2|0:2,0:0:0:0:
376,233,43220,1,8,0:2:0:0:
383,135,43449,1,8,0:2:0:0:
458,289,43678,1,0,0:2:0:0:
320,315,43907,5,0,0:0:0:0:
294,177,44136,2,0,L|296:152,2,20,0|0|0,0:2|0:0|0:0,0:0:0:0:
292,196,44365,2,0,L|204:188,1,80,12|0,0:2|0:2,0:0:0:0:
48,252,44823,1,8,0:0:0:0:
184,362,45052,1,8,0:0:0:0:
212,188,45281,1,8,0:2:0:0:
28,248,45510,1,8,0:2:0:0:
164,360,45739,6,0,L|232:352,2,60.0000022888184,4|0|8,0:2|0:0|0:2,0:0:0:0:
248,272,46426,2,0,P|296:308|304:376,1,120.000004577637,0|0,0:2|0:2,0:0:0:0:
384,284,47113,2,0,L|452:276,1,60.0000022888184,8|0,0:2|0:2,0:0:0:0:
248,272,47571,2,0,L|120:264,1,120.000004577637,2|8,0:2|0:2,0:0:0:0:
152,152,48258,2,0,L|280:144,1,120.000004577637,0|0,0:2|0:2,0:0:0:0:
364,168,48945,1,8,0:0:0:0:
248,272,49174,1,8,0:0:0:0:
152,152,49403,6,0,L|148:84,2,60.0000022888184,2|0|8,0:2|0:2|0:2,0:0:0:0:
248,272,50090,2,0,P|276:260|328:256,1,60.0000022888184,0|0,0:2|0:0,0:0:0:0:
468,272,50548,1,0,0:2:0:0:
420,340,50777,1,8,0:2:0:0:
386,265,51006,1,0,0:2:0:0:
512,136,51235,6,0,B|468:124|468:124|372:128,1,120.000004577637,2|8,0:2|0:2,0:0:0:0:
284,220,51922,2,0,B|328:232|328:232|424:228,1,120.000004577637,0|0,0:2|0:2,0:0:0:0:
300,128,52609,1,8,0:2:0:0:
300,128,52724,2,0,L|252:120,1,30.0000011444092,0|0,0:2|0:2,0:0:0:0:
184,320,53067,6,0,L|192:384,2,60.0000022888184,4|0|8,0:2|0:2|0:2,0:0:0:0:
72,188,53754,2,0,L|56:332,1,120.000004577637,0|0,0:2|0:2,0:0:0:0:
184,320,54441,2,0,L|176:260,1,60.0000022888184,8|0,0:2|0:2,0:0:0:0:
44,100,54899,2,0,P|108:100|160:156,1,120.000004577637,2|8,0:2|0:2,0:0:0:0:
264,188,55586,2,0,L|272:120,1,60.0000022888184,0|0,0:2|0:0,0:0:0:0:
344,248,56044,2,0,L|336:316,1,60.0000022888184,0|8,0:2|3:2,0:0:0:0:
356,149,56502,1,0,3:3:0:0:
252,287,56731,6,0,P|197:307|128:276,1,120.000004577637,4|8,0:2|0:2,0:0:0:0:
96,208,57418,1,0,0:2:0:0:
201,151,57647,2,0,P|200:181|197:211,1,60.0000022888184,0|0,0:2|0:2,0:0:0:0:
247,346,58105,2,0,P|247:316|251:286,1,60.0000022888184,8|0,0:2|0:2,0:0:0:0:
312,200,58563,5,0,3:2:0:0:
331,194,58677,1,0,3:2:0:0:
351,192,58792,1,0,3:2:0:0:
370,194,58906,1,0,3:2:0:0:
389,201,59021,1,0,3:2:0:0:
407,210,59135,1,0,3:2:0:0:
426,215,59250,1,0,3:2:0:0:
446,215,59364,1,0,3:2:0:0:
466,210,59479,2,0,L|470:182,14,20,0|0|0|0|0|0|0|0|0|0|0|0|0|0|0,3:2|3:2|3:2|3:2|3:2|3:2|3:2|3:2|3:2|3:2|3:2|3:2|3:2|3:2|3:2,0:0:0:0:
432,116,60395,6,0,P|472:108|520:124,2,80,4|0|8,0:2|0:2|0:2,0:0:0:0:
295,33,61082,2,0,P|306:71|333:101,1,80,0|0,0:2|0:2,0:0:0:0:
370,194,61540,2,0,P|356:232|319:266,1,80,0|8,0:2|0:2,0:0:0:0:
236,256,61999,1,0,0:2:0:0:
174,122,62228,5,0,0:2:0:0:
308,60,62457,1,0,0:2:0:0:
370,194,62686,1,8,0:2:0:0:
216,248,62915,2,0,P|160:240|120:240,1,80,0|0,0:2|0:2,0:0:0:0:
60,300,63373,1,0,0:2:0:0:
236,348,63602,2,0,P|292:340|332:340,1,80,8|0,0:2|0:2,0:0:0:0:
440,252,64060,6,0,P|464:296|468:332,2,80,0|0|8,0:2|0:2|0:2,0:0:0:0:
341,120,64747,2,0,P|349:159|370:194,1,80,0|0,0:2|0:2,0:0:0:0:
476,156,65205,2,0,P|468:116|447:82,1,80,0|8,0:2|0:2,0:0:0:0:
348,32,65663,1,0,0:2:0:0:
256,144,65892,6,0,B|216:160|176:144|176:144|136:128|96:144,2,160,0|8|0,0:2|0:2|0:2,0:0:0:0:
368,16,67266,2,0,L|360:104,1,80,8|0,0:2|0:2,0:0:0:0:
348,216,67724,5,4,0:2:0:0:
384,0,68182,1,8,0:2:0:0:
448,96,68411,2,0,P|488:80|512:32,2,80,0|0|0,0:2|0:2|0:2,0:0:0:0:
304,64,69098,1,8,0:2:0:0:
224,128,69327,6,0,L|140:121,1,80,0|0,0:2|0:2,0:0:0:0:
0,104,69785,1,0,0:2:0:0:
40,192,70014,1,10,0:2:0:0:
6,283,70243,2,0,L|166:275,1,160,2|2,0:2|0:2,0:0:0:0:
257,376,70930,2,0,L|171:370,1,80,10|0,0:2|0:2,0:0:0:0:
320,296,71388,6,0,P|392:264|480:296,1,160,4|8,0:2|0:2,0:0:0:0:
344,168,72075,2,0,P|272:200|184:168,1,160,0|8,0:2|0:2,0:0:0:0:
338,88,72762,2,0,P|344:128|344:168,1,80,8|0,0:2|0:2,0:0:0:0:
176,96,73220,5,0,0:0:0:0:
88,215,73449,2,0,L|83:182,2,20,0|0|0,0:2|0:0|0:0,0:0:0:0:
92,235,73678,2,0,L|10:229,2,80,8|4|0,0:2|0:2|3:0,0:0:0:0:
296,280,74365,1,12,0:0:0:0:
208,184,74594,1,8,0:2:0:0:
256,384,74823,1,12,0:2:0:0:
376,344,75052,6,0,P|424:336|472:344,2,80,4|0|8,0:2|0:2|0:2,0:0:0:0:
176,344,75739,2,0,P|168:296|176:248,1,80,0|0,0:2|0:2,0:0:0:0:
304,152,76197,2,0,P|312:200|304:248,1,80,0|8,0:2|0:2,0:0:0:0:
264,368,76655,1,0,0:2:0:0:
176,240,76884,5,0,0:2:0:0:
304,152,77113,1,0,0:2:0:0:
392,280,77342,1,8,0:2:0:0:
240,368,77571,2,0,P|176:360|152:360,1,80,0|0,0:0|0:0,0:0:0:0:
48,368,78029,1,0,0:0:0:0:
176,240,78258,2,0,P|240:232|264:232,1,80,8|0,0:0|0:0,0:0:0:0:
106,289,78716,6,0,P|90:249|98:201,2,80,0|0|8,0:0|0:0|0:0,0:0:0:0:
160,152,79403,2,0,P|176:112|168:64,1,80,4|0,0:0|0:0,0:0:0:0:
32,60,79861,2,0,P|16:100|24:148,1,80,0|8,0:0|0:0,0:0:0:0:
93,212,80319,1,0,0:0:0:0:
248,124,80548,6,0,P|376:136|424:136,1,160,0|8,0:0|0:0,0:0:0:0:
284,312,81464,2,0,P|156:300|108:300,1,160,0|8,0:0|0:0,0:0:0:0:
93,212,82151,1,0,0:0:0:0:
247,124,82380,6,0,P|321:149|347:222,1,160,4|8,0:0|0:0,0:0:0:0:
251,217,83067,2,0,P|171:211|91:211,1,160,0|0,0:0|0:0,0:0:0:0:
8,276,83754,2,0,P|0:320|4:368,1,80,8|0,0:0|0:0,0:0:0:0:
92,212,84212,6,0,B|120:160|104:92|104:92|72:100|56:124,1,160,0|8,0:0|0:0,0:0:0:0:
192,144,84899,2,0,L|280:136,1,80,0|0,0:0|0:0,0:0:0:0:
364,240,85357,2,0,L|275:232,1,80,0|8,0:0|0:0,0:0:0:0:
184,128,85815,1,0,0:0:0:0:
412,176,86044,5,4,3:2:0:0:
417,156,86158,1,0,3:2:0:0:
419,137,86273,1,0,3:2:0:0:
418,117,86387,1,0,3:2:0:0:
414,97,86502,1,8,3:2:0:0:
406,79,86616,1,0,3:2:0:0:
395,62,86731,1,0,3:2:0:0:
381,48,86845,1,0,3:2:0:0:
364,36,86960,6,0,L|316:32,3,40,0|0|0|0,3:2|3:2|3:2|3:2,0:0:0:0:
248,52,87418,2,0,L|200:48,3,40,8|0|0|0,3:2|3:0|3:0|3:0,0:0:0:0:
132,72,87876,6,0,P|124:104|124:124,1,40,0|0,3:0|3:0,0:0:0:0:
48,140,88105,2,0,P|64:168|79:182,1,40,0|0,3:0|3:0,0:0:0:0:
36,247,88334,2,0,P|68:255|88:255,1,40,8|0,3:2|3:0,0:0:0:0:
104,331,88563,2,0,P|132:314|146:299,1,40,0|0,3:0|3:0,0:0:0:0:
211,343,88792,2,0,P|219:311|219:291,1,40,0|0,3:0|3:0,0:0:0:0:
312,232,89021,6,0,L|248:240,1,40,8|0,3:2|3:0,0:0:0:0:
408,268,89250,2,0,L|446:319,1,40,8|0,3:2|0:0,0:0:0:0:
391,166,89479,2,0,L|416:106,1,40,8|0,3:2|0:0,0:0:0:0:
236,152,89708,1,4,2:2:0:0:
