osu file format v14

[General]
AudioFilename: audio.mp3
AudioLeadIn: 0
PreviewTime: 59937
Countdown: 0
SampleSet: Soft
StackLeniency: 0.7
Mode: 0
LetterboxInBreaks: 0
EpilepsyWarning: 1
WidescreenStoryboard: 1

[Editor]
Bookmarks: 60395,75052
DistanceSpacing: 1.5
BeatDivisor: 4
GridSize: 4
TimelineZoom: 2.799999

[Metadata]
Title:Vidro Moyou
TitleUnicode:ビードロ模様
Artist:yanaginagi
ArtistUnicode:やなぎなぎ
Creator:Hokichi
Version:Linada's Glass Pattern
Source:あの夏で待ってる
Tags:waiting in that summer hoki linada yamicchi yami ano natsu de matteru
BeatmapID:1330489
BeatmapSetID:630223

[Difficulty]
HPDrainRate:6.2
CircleSize:4.2
OverallDifficulty:8.2
ApproachRate:8.2
SliderMultiplier:1.6
SliderTickRate:1

[Events]
//Background and Video events
0,0,"bg.jpg",0,0
//Break Periods
//Storyboard Layer 0 (Background)
//Storyboard Layer 1 (Fail)
//Storyboard Layer 2 (Pass)
//Storyboard Layer 3 (Foreground)
//Storyboard Sound Samples

[TimingPoints]
1770,458.015267175573,4,2,1,40,1,0
14880,-100,4,2,1,20,0,0
15052,-100,4,2,1,40,0,0
15567,-100,4,2,1,20,0,0
15968,-100,4,2,1,40,0,0
16426,-125,4,2,1,40,0,0
22838,-125,4,2,1,40,0,0
29250,-100,4,2,1,40,0,0
30624,-100,4,2,1,40,0,0
30682,-100,4,2,1,20,0,0
31082,-100,4,2,1,40,0,0
44136,-100,4,2,1,40,0,0
44193,-100,4,2,1,20,0,0
44365,-100,4,2,1,40,0,0
44823,-100,4,2,1,40,0,0
45052,-100,4,2,1,40,0,0
45281,-100,4,2,1,40,0,0
45739,-133.333333333333,4,2,1,40,0,0
48945,-133.333333333333,4,2,1,40,0,0
49002,-133.333333333333,4,2,1,10,0,0
49174,-133.333333333333,4,2,1,40,0,0
49231,-133.333333333333,4,2,1,10,0,0
49403,-133.333333333333,4,2,1,40,0,0
56273,-133.333333333333,4,2,1,40,0,0
56331,-133.333333333333,4,2,1,20,0,0
56731,-117.647058823529,4,2,1,40,0,0
58563,-100,4,2,1,40,0,0
59479,-100,4,2,1,40,0,0
59537,-100,4,2,1,15,0,0
60395,-83.3333333333333,4,2,1,40,0,1
73506,-83.3333333333333,4,2,1,20,0,1
73678,-83.3333333333333,4,2,1,40,0,1
74193,-83.3333333333333,4,2,1,20,0,1
74594,-83.3333333333333,4,2,1,40,0,1
89556,-83.3333333333333,4,2,1,5,0,1
89632,-83.3333333333333,4,2,1,40,0,1
89708,-100,4,2,1,40,0,0

[Colours]
Combo1 : 149,255,149
Combo2 : 255,183,255
Combo3 : 255,255,166
Combo4 : 145,200,255

[HitObjects]
226,345,1770,6,0,L|220:265,1,80,4|0,3:2|0:0,0:0:0:0:
212,153,2228,1,0,3:2:0:0:
212,153,2342,1,0,0:0:0:0:
212,153,2457,1,2,0:2:0:0:
396,200,2686,1,2,3:2:0:0:
314,96,2915,1,2,0:2:0:0:
300,263,3144,1,2,3:2:0:0:
315,81,3373,1,2,0:2:0:0:
224,183,3602,6,0,L|303:176,1,80,0|0,3:2|0:0,0:0:0:0:
413,277,4060,2,0,L|334:270,1,80,0|2,3:2|0:2,0:0:0:0:
208,304,4518,1,2,3:2:0:0:
336,382,4747,1,2,0:2:0:0:
274,187,4976,1,2,3:2:0:0:
410,260,5205,1,2,0:2:0:0:
274,172,5434,6,0,L|195:178,1,80,0|0,3:2|0:0,3:3:0:0:
64,201,5892,1,0,3:2:0:0:
145,302,6121,1,2,0:2:0:0:
194,179,6350,1,2,3:2:0:0:
50,297,6579,1,2,0:2:0:0:
122,119,6808,1,2,3:2:0:0:
238,270,7037,1,2,0:2:0:0:
116,109,7266,6,0,P|77:102|38:104,1,80,0|0,3:2|0:0,0:0:0:0:
159,276,7724,2,0,P|198:278|237:270,1,80,0|2,3:2|0:2,0:0:0:0:
353,211,8182,1,2,3:2:0:0:
311,331,8411,1,2,0:2:0:0:
230,187,8640,1,2,3:2:0:0:
363,222,8869,1,2,0:2:0:0:
222,177,9098,6,0,L|229:97,1,80,0|0,3:2|0:0,3:3:0:0:
231,73,9441,1,0,0:0:0:0:
232,48,9556,1,0,3:2:0:0:
158,229,9785,1,2,0:2:0:0:
42,127,10014,5,2,3:2:0:0:
168,239,10242,1,2,0:2:0:0:
29,116,10472,1,2,3:2:0:0:
176,250,10701,2,0,L|136:250,1,40,2|0,0:2|0:0,0:0:0:0:
42,249,10930,5,0,3:2:0:0:
221,184,11159,1,0,0:0:0:0:
188,372,11388,1,0,3:2:0:0:
111,175,11617,5,2,0:2:0:0:
249,292,11846,2,0,P|288:297|327:290,1,80,2|2,3:2|0:2,0:0:0:0:
215,164,12304,1,2,3:2:0:0:
119,322,12533,1,2,0:2:0:0:
222,154,12762,6,0,L|208:75,1,80,4|0,3:2|0:0,3:3:0:0:
94,186,13220,1,0,3:2:0:0:
266,227,13449,2,0,P|294:200|307:162,1,80,2|2,0:2|3:2,0:0:0:0:
310,139,13792,1,0,0:0:0:0:
307,114,13907,1,2,0:2:0:0:
178,223,14136,1,2,3:2:0:0:
336,270,14365,1,2,0:2:0:0:
222,154,14594,5,0,3:2:0:0:
53,208,14823,2,0,L|56:228,4,20,2|0|0|0|0,3:2|3:2|3:2|3:2|3:2,3:3:0:0:
102,66,15281,1,2,0:2:0:0:
178,223,15510,2,0,L|183:248,1,20,0|0,3:2|3:2,3:3:0:0:
171,241,15624,2,0,L|183:278,1,20,0|0,3:2|3:2,0:0:0:0:
167,259,15739,2,0,L|174:289,1,20,2|0,3:2|3:2,0:0:0:0:
161,277,15853,2,0,L|168:309,1,20,0|0,3:2|3:2,0:0:0:0:
150,305,15968,5,2,0:2:0:0:
36,191,16197,1,2,0:2:0:0:
260,276,16426,6,0,L|387:264,1,128,4|0,3:2|3:2,3:3:0:0:
387,263,17113,1,0,0:2:0:0:
486,161,17342,2,0,P|491:129|485:98,1,64,0|0,3:2|0:2,0:0:0:0:
302,99,17800,2,0,P|295:130|301:161,1,64,0|0,3:2|0:2,0:0:0:0:
370,48,18258,6,0,P|315:17|254:30,1,128,0|0,3:2|3:2,2:3:0:0:
254,29,18945,1,0,0:2:0:0:
300,160,19174,2,0,P|304:191|300:223,1,64,0|0,3:2|0:2,0:0:0:0:
242,370,19632,2,0,P|238:339|243:307,1,64,0|0,3:2|0:2,0:0:0:0:
322,136,20090,6,0,L|449:121,1,128,0|0,3:2|3:2,2:3:0:0:
301,223,20777,2,0,L|364:215,1,64,0|0,0:2|3:2,0:0:0:0:
453,203,21235,1,0,0:2:0:0:
285,311,21464,2,0,L|348:303,1,64,0|0,3:2|0:2,0:0:0:0:
321,135,21922,6,0,P|264:110|203:126,1,128,0|0,3:2|3:2,0:0:0:0:
202,126,22609,1,0,0:2:0:0:
249,271,22838,2,0,L|258:208,1,64,0|0,3:2|0:2,0:0:0:0:
274,73,23296,1,0,3:2:0:0:
345,224,23525,1,0,0:2:0:0:
203,126,23754,6,0,B|158:125|136:116|136:116|106:117|77:129,1,128,0|0,3:2|3:2,0:0:0:0:
77,129,24441,1,0,0:2:0:0:
169,265,24670,2,0,P|175:234|172:202,1,64,0|0,3:2|2:2,2:3:0:0:
61,42,25128,2,0,P|55:73|58:105,1,64,0|0,3:2|0:2,0:0:0:0:
212,237,25586,6,0,B|276:254|277:221|338:241,1,128,0|0,3:2|3:2,0:0:0:0:
338,241,26273,1,0,0:2:0:0:
217,383,26502,2,0,L|225:319,1,64,0|0,3:2|0:2,0:0:0:0:
249,158,26960,1,0,3:2:0:0:
304,313,27189,1,0,0:2:0:0:
232,133,27418,6,0,L|106:109,1,128,0|0,3:2|3:2,2:3:0:0:
18,91,28105,1,0,0:2:0:0:
219,38,28334,5,0,3:2:0:0:
253,158,28792,1,0,3:2:0:0:
182,248,29250,5,0,0:2:0:0:
344,214,29479,1,0,0:2:0:0:
172,262,29708,1,8,0:2:0:0:
106,109,29937,1,0,0:2:0:0:
101,98,30052,1,0,0:2:0:0:
96,87,30167,5,0,0:2:0:0:
271,160,30395,1,0,0:2:0:0:
111,192,30624,2,0,L|104:160,1,20,0|0,0:2|0:2,0:0:0:0:
91,197,30739,2,0,L|93:166,1,20,0|0,0:2|0:2,0:0:0:0:
71,197,30853,2,0,L|73:159,1,20,0|0,0:2|0:2,0:0:0:0:
52,192,30968,2,0,L|61:160,1,20,0|0,0:2|0:2,0:0:0:0:
35,182,31082,6,0,L|47:103,1,80,4|0,0:2|0:0,0:0:0:0:
158,314,31540,1,8,0:2:0:0:
9,262,31770,1,0,0:2:0:0:
197,157,31999,5,0,0:2:0:0:
155,324,32228,1,0,0:2:0:0:
200,147,32457,1,8,0:2:0:0:
152,334,32686,1,0,0:2:0:0:
203,137,32915,6,0,P|202:103|190:57,1,80,0|0,0:2|0:2,0:0:0:0:
22,195,33373,2,0,L|101:204,1,80,8|0,0:2|0:2,0:0:0:0:
296,249,33831,1,0,0:2:0:0:
143,319,34060,1,0,0:2:0:0:
203,137,34289,1,8,0:2:0:0:
139,328,34518,2,0,L|133:288,1,40,0|0,0:2|0:2,0:0:0:0:
115,174,34747,6,0,P|109:135|117:96,1,80,2|0,0:2|0:2,0:0:0:0:
258,0,35205,1,8,0:2:0:0:
281,151,35434,2,0,L|203:137,1,80,0|0,0:2|0:2,0:0:0:0:
159,28,35892,1,0,0:2:0:0:
373,102,36121,1,8,0:2:0:0:
203,137,36350,1,0,0:2:0:0:
382,99,36579,6,0,L|461:107,1,80,0|0,0:2|0:2,0:0:0:0:
308,230,37037,2,0,L|387:222,1,80,8|0,0:2|0:2,0:0:0:0:
268,364,37495,1,0,0:2:0:0:
394,325,37724,1,0,0:2:0:0:
174,227,37953,1,8,0:2:0:0:
308,230,38182,2,0,L|348:226,1,40,0|0,0:2|0:0,0:0:0:0:
455,145,38411,6,0,P|417:134|378:137,1,80,4|0,0:2|0:0,0:0:0:0:
289,236,38869,1,8,0:2:0:0:
468,160,39098,1,0,0:2:0:0:
405,284,39327,1,0,0:2:0:0:
361,121,39556,1,0,0:2:0:0:
411,303,39785,2,0,L|431:380,1,80,8|0,0:2|0:2,0:0:0:0:
267,238,40243,5,0,0:2:0:0:
407,208,40472,1,0,0:2:0:0:
299,320,40701,2,0,P|259:325|221:313,1,80,8|0,0:2|0:2,0:0:0:0:
104,223,41159,2,0,P|143:228|181:216,1,80,0|0,0:2|0:2,0:0:0:0:
290,103,41617,1,8,0:2:0:0:
136,154,41846,2,0,L|134:114,1,40,0|0,0:2|0:0,0:0:0:0:
53,25,42075,6,0,L|48:104,1,80,2|0,0:2|0:2,0:0:0:0:
109,302,42533,2,0,L|104:223,1,80,8|0,0:2|0:2,0:0:0:0:
146,28,42991,1,0,0:2:0:0:
12,216,43220,5,8,0:2:0:0:
262,71,43449,1,8,0:2:0:0:
48,104,43678,1,0,0:2:0:0:
212,214,43907,5,0,0:0:0:0:
149,47,44136,2,0,L|141:86,1,40
107,248,44365,5,12,0:2:0:0:
275,72,44594,1,0,0:2:0:0:
191,197,44823,5,8,0:0:0:0:
0,160,45052,1,8,0:0:0:0:
200,205,45281,1,8,0:2:0:0:
11,155,45510,1,8,0:2:0:0:
282,161,45739,5,4,0:2:0:0:
271,250,45968,1,0,0:0:0:0:
259,339,46197,1,8,0:2:0:0:
191,197,46426,6,0,P|137:176|80:190,1,120.000004577637,0|0,0:2|0:2,0:0:0:0:
134,277,47113,1,8,0:2:0:0:
134,277,47342,1,0,0:2:0:0:
210,177,47571,6,0,L|199:57,1,120.000004577637,2|8,0:2|0:2,0:0:0:0:
30,232,48258,2,0,P|86:252|143:237,1,120.000004577637,0|0,0:2|0:2,0:0:0:0:
314,163,48945,1,8,0:0:0:0:
230,279,49174,1,8,0:0:0:0:
232,127,49403,5,2,0:2:0:0:
314,163,49632,1,0,0:2:0:0:
400,138,49861,1,8,0:2:0:0:
305,253,50090,5,0,0:2:0:0:
408,326,50319,1,0,0:0:0:0:
408,326,50548,1,0,0:2:0:0:
315,241,50777,2,0,L|255:248,1,60.0000022888184,8|0,0:2|0:2,0:0:0:0:
112,218,51235,6,0,L|231:224,1,120.000004577637,2|8,0:2|0:2,0:0:0:0:
112,136,51922,2,0,P|57:153|30:205,1,120.000004577637,0|0,0:2|0:2,0:0:0:0:
129,326,52609,2,0,L|124:296,1,30.0000011444092,8|0,0:2|0:2,0:3:0:0:
112,218,52838,1,0,0:2:0:0:
223,349,53067,5,4,0:2:0:0:
308,376,53296,1,0,0:2:0:0:
391,341,53525,1,8,0:2:0:0:
239,230,53754,2,0,L|222:348,1,120.000004577637,0|0,0:2|0:2,0:0:0:0:
359,229,54441,1,8,0:2:0:0:
359,229,54670,1,0,0:2:0:0:
222,348,54899,6,0,P|164:361|111:336,1,120.000004577637,2|8,0:2|0:2,0:0:0:0:
25,224,55586,2,0,P|82:237|135:212,1,120.000004577637,0|0,0:2|0:2,0:0:0:0:
214,94,56273,2,0,P|215:86|215:79,6,15.0000005722046,8|0|0|0|0|0|0,3:2|0:0|3:2|3:3|3:3|3:3|3:3,3:3:0:0:
218,64,56731,6,0,L|285:57,1,68.0000012969971,4|0,0:2|0:2,0:0:0:0:
387,151,57189,2,0,L|319:144,1,68.0000012969971,8|0,0:2|0:2,0:0:0:0:
216,202,57647,1,0,0:2:0:0:
347,288,57876,1,0,0:2:0:0:
396,139,58105,2,0,L|328:132,1,68.0000012969971,8|0,0:2|0:2,0:0:0:0:
170,144,58563,5,0,3:2:0:0:
146,175,58677,1,0,3:2:0:0:
141,214,58792,1,0,3:2:0:0:
157,251,58906,1,0,3:2:0:0:
188,275,59021,1,0,3:2:0:0:
227,279,59135,1,0,3:2:0:0:
264,264,59250,1,0,3:2:0:0:
288,232,59364,1,0,3:2:0:0:
292,193,59479,6,0,L|278:178,1,20,0|0,3:2|3:2,3:3:0:0:
288,163,59594,2,0,L|277:136,1,20,0|0,3:2|3:2,0:0:0:0:
295,135,59708,2,0,L|291:102,1,20,0|0,3:2|3:2,0:0:0:0:
313,111,59823,2,0,L|313:78,1,20,0|0,3:2|3:2,0:0:0:0:
338,95,59937,2,0,L|353:80,1,20,0|0,3:2|3:2,3:3:0:0:
367,90,60052,2,0,L|394:78,1,20,0|0,3:2|3:2,0:0:0:0:
396,97,60166,2,0,L|429:92,1,20,0|0,3:2|3:2,0:0:0:0:
420,115,60281,2,0,L|453:114,1,20,0|0,3:2|3:2,0:0:0:0:
435,145,60395,6,0,P|445:191|437:238,1,95.9999970703126,4|0,0:2|0:2,0:0:0:0:
371,356,60853,1,8,0:2:0:0:
255,183,61082,2,0,L|350:190,1,95.9999970703126,0|0,0:2|0:2,0:0:0:0:
216,67,61540,2,0,L|120:74,1,95.9999970703126,0|8,0:2|0:2,0:0:0:0:
21,88,61999,1,0,0:2:0:0:
121,222,62228,5,0,0:2:0:0:
224,50,62457,1,0,0:2:0:0:
176,279,62686,1,8,0:2:0:0:
152,0,62915,1,0,0:2:0:0:
297,201,63144,2,0,P|252:213|206:203,1,95.9999970703126,0|0,0:2|0:2,0:0:0:0:
319,0,63602,1,8,0:2:0:0:
474,159,63831,1,0,0:2:0:0:
250,140,64060,5,0,0:2:0:0:
473,23,64289,1,0,0:2:0:0:
237,26,64518,1,8,0:2:0:0:
385,222,64747,2,0,L|396:127,1,95.9999970703126,0|0,0:2|0:2,0:0:0:0:
264,220,65205,1,0,0:2:0:0:
264,220,65320,1,0,0:0:0:0:
264,220,65434,2,0,L|274:315,1,95.9999970703126,8|0,0:2|0:2,0:0:0:0:
307,147,65892,6,0,P|262:135|216:149,1,95.9999970703126,0|0,0:2|0:2,0:0:0:0:
72,235,66350,2,0,P|117:247|163:233,1,95.9999970703126,8|0,0:2|0:2,0:0:0:0:
278,105,66808,2,0,B|291:61|291:61|280:11,1,95.9999970703126,0|0,0:2|0:2,0:0:0:0:
169,55,67266,1,8,0:2:0:0:
336,196,67495,1,0,0:2:0:0:
353,215,67609,1,0,0:0:0:0:
370,234,67724,6,0,L|465:224,1,95.9999970703126,4|0,0:2|0:2,0:0:0:0:
298,320,68182,2,0,L|202:310,1,95.9999970703126,8|0,0:2|0:2,0:0:0:0:
23,142,68640,1,0,0:2:0:0:
254,227,68869,1,0,0:2:0:0:
54,236,69098,1,8,0:2:0:0:
273,120,69327,1,0,0:2:0:0:
167,309,69556,6,0,L|157:213,1,95.9999970703126,0|0,0:2|0:2,0:0:0:0:
81,63,70014,5,10,0:2:0:0:
304,169,70243,1,2,0:2:0:0:
59,152,70472,5,2,0:2:0:0:
292,151,70701,1,2,0:2:0:0:
54,236,70930,5,10,0:2:0:0:
281,133,71159,1,2,0:2:0:0:
98,315,71388,6,0,P|51:326|6:312,1,95.9999970703126,4|0,0:2|0:2,0:0:0:0:
59,152,71846,1,8,0:2:0:0:
210,299,72075,2,0,L|306:288,1,95.9999970703126,0|0,0:2|0:2,0:0:0:0:
512,241,72533,5,8,0:2:0:0:
309,194,72762,1,8,0:2:0:0:
397,361,72991,5,0,0:2:0:0:
417,139,73220,1,0,0:0:0:0:
305,288,73449,6,0,L|281:291,4,23.9999992675781,0|0|0|0|8,0:2|0:0|0:0|0:0|0:2,0:0:0:0:
500,266,73907,1,4,0:2:0:0:
242,188,74136,5,0,3:0:0:0:
153,356,74365,2,0,L|157:295,1,47.9999985351563,12|8,0:0|0:0,0:0:0:0:
217,180,74594,2,0,P|170:189|126:173,1,95.9999970703126,8|12,0:2|0:2,0:0:0:0:
44,109,74937,1,8,0:0:0:0:
33,95,75052,6,0,L|39:-1,1,95.9999970703126,4|0,0:2|0:2,0:0:0:0:
50,230,75510,1,8,0:2:0:0:
180,104,75739,2,0,P|226:95|271:111,1,95.9999970703126,0|0,0:2|0:2,0:0:0:0:
441,225,76197,2,0,P|394:233|349:217,1,95.9999970703126,0|8,0:2|0:2,0:0:0:0:
221,23,76655,1,0,0:2:0:0:
401,153,76884,5,0,0:2:0:0:
217,180,77113,1,0,0:2:0:0:
390,47,77342,1,8,0:2:0:0:
156,95,77571,1,0,0:0:0:0:
401,153,77800,2,0,P|410:106|398:61,1,95.9999970703126
212,9,78258,1,8,0:0:0:0:
116,218,78487,1,0,0:0:0:0:
29,14,78716,5,0,0:0:0:0:
108,238,78945,1,0,0:0:0:0:
223,18,79174,1,8,0:0:0:0:
100,255,79403,2,0,L|4:265,1,95.9999970703126,4|0,0:0|0:0,0:0:0:0:
218,176,79861,1,0,0:0:0:0:
218,176,79976,1,0,0:0:0:0:
218,176,80090,2,0,L|313:186,1,95.9999970703126,8|0,0:0|0:0,0:0:0:0:
405,356,80548,6,0,P|411:308|397:263,1,95.9999970703126,0|0,0:0|0:0,0:0:0:0:
336,66,81006,2,0,P|322:111|328:158,1,95.9999970703126,8|0,0:0|0:0,0:0:0:0:
226,310,81464,5,0,0:0:0:0:
405,253,81693,1,0,0:0:0:0:
233,330,81922,1,8,0:0:0:0:
323,112,82151,1,0,0:0:0:0:
240,351,82380,6,0,B|190:359|190:359|146:345,1,95.9999970703126,4|0,0:0|0:0,0:0:0:0:
36,209,82838,2,0,B|86:217|86:217|129:203,1,95.9999970703126,8|0,0:0|0:0,0:0:0:0:
269,146,83296,1,0,0:0:0:0:
146,345,83525,1,0,0:0:0:0:
5,138,83754,1,8,0:0:0:0:
150,358,83983,1,0,0:0:0:0:
333,88,84212,6,0,P|352:131|348:178,1,95.9999970703126
283,308,84670,1,8,0:0:0:0:
446,109,84899,1,0,0:0:0:0:
269,146,85128,1,0,0:0:0:0:
461,202,85357,1,0,0:0:0:0:
256,141,85586,1,8,0:0:0:0:
425,287,85815,1,0,0:0:0:0:
317,66,86044,5,4,3:2:0:0:
269,50,86158,1,0,3:2:0:0:
220,59,86273,1,0,3:2:0:0:
184,93,86387,1,0,3:2:0:0:
151,131,86502,1,8,3:2:0:0:
115,163,86616,1,0,3:2:0:0:
65,171,86731,1,0,3:2:0:0:
19,154,86845,1,0,3:2:0:0:
1,115,86960,6,0,L|0:65,1,47.9999985351563,0|0,3:2|3:2,3:3:0:0:
113,115,87189,2,0,L|115:163,1,47.9999985351563,0|0,3:2|3:2,0:0:0:0:
214,253,87418,5,8,3:2:0:0:
235,301,87532,1,0,3:0:0:0:
283,323,87647,1,0,3:0:0:0:
335,317,87761,1,0,3:0:0:0:
374,281,87876,1,0,3:0:0:0:
382,229,87990,1,0,3:0:0:0:
359,180,88105,1,0,3:0:0:0:
312,156,88219,1,0,3:0:0:0:
259,179,88334,5,8,3:2:0:0:
206,201,88448,1,0,3:0:0:0:
149,188,88563,1,0,3:0:0:0:
115,141,88677,1,0,3:0:0:0:
113,83,88792,1,0,3:0:0:0:
145,35,88906,1,0,3:0:0:0:
198,13,89021,6,0,L|247:18,1,47.9999985351563,8|0,3:2|3:0,0:0:0:0:
430,112,89250,2,0,L|380:117,1,47.9999985351563,8|0,3:2|3:0,0:0:0:0:
260,280,89479,6,0,P|256:296|253:311,3,31.9999990234375,8|0|0|4,3:2|0:0|0:0|2:2,0:0:0:0:
