osu file format v14

[General]
AudioFilename: audio.mp3
AudioLeadIn: 0
PreviewTime: 59937
Countdown: 0
SampleSet: Soft
StackLeniency: 0.7
Mode: 0
LetterboxInBreaks: 0
EpilepsyWarning: 1
WidescreenStoryboard: 1

[Editor]
Bookmarks: 60395
DistanceSpacing: 1.5
BeatDivisor: 4
GridSize: 32
TimelineZoom: 1.8

[Metadata]
Title:Vidro Moyou
TitleUnicode:ビードロ模様
Artist:yanaginagi
ArtistUnicode:やなぎなぎ
Creator:Hokichi
Version:Hard
Source:あの夏で待ってる
Tags:waiting in that summer hoki linada yamicchi yami ano natsu de matteru
BeatmapID:1330487
BeatmapSetID:630223

[Difficulty]
HPDrainRate:4.6
CircleSize:3.3
OverallDifficulty:6
ApproachRate:7
SliderMultiplier:1.4
SliderTickRate:1

[Events]
//Background and Video events
0,0,"bg.jpg",0,0
//Break Periods
//Storyboard Layer 0 (Background)
//Storyboard Layer 1 (Fail)
//Storyboard Layer 2 (Pass)
//Storyboard Layer 3 (Foreground)
//Storyboard Sound Samples

[TimingPoints]
1770,458.015267175573,4,2,1,40,1,0
16426,-125,4,2,1,40,0,0
29250,-100,4,2,1,40,0,0
45739,-133.333333333333,4,2,1,40,0,0
56731,-117.647058823529,4,2,1,40,0,0
58563,-100,4,2,1,40,0,0
60395,-100,4,2,1,40,0,1
89708,-100,4,2,1,40,0,0

[Colours]
Combo1 : 149,255,149
Combo2 : 255,183,255
Combo3 : 255,255,166
Combo4 : 145,200,255

[HitObjects]
257,250,1770,6,0,P|216:271|119:245,1,140,4|0,3:2|3:2,0:0:0:0:
96,159,2457,1,2,0:2:0:0:
188,127,2686,2,0,P|194:92|184:50,2,70,2|2|2,3:2|0:2|3:2,0:0:0:0:
96,159,3373,1,2,0:2:0:0:
205,310,4289,5,2,0:2:0:0:
281,249,4518,2,0,P|321:241|366:251,1,70,2|2,3:2|0:2,0:0:0:0:
426,301,4976,2,0,P|460:305|497:298,1,70,2|2,3:2|0:2,0:0:0:0:
461,176,5434,6,0,P|389:153|310:172,1,140,0|0,3:2|3:2,0:0:0:0:
270,223,6121,1,2,0:2:0:0:
230,305,6350,2,0,P|264:313|299:310,2,70,2|2|2,3:2|0:2|3:2,0:0:0:0:
140,237,7037,1,2,0:2:0:0:
197,154,7953,6,0,L|267:155,1,70,2|2,0:2|3:2,0:0:0:0:
356,112,8411,1,2,0:2:0:0:
344,216,8640,2,0,L|424:215,1,70,2|2,3:2|0:2,0:0:0:0:
267,155,9098,6,0,P|245:210|284:293,1,140,0|0,3:2|3:2,0:0:0:0:
355,333,9785,1,2,0:2:0:0:
436,281,10014,2,0,P|475:273|521:285,2,70,2|0|2,3:2|0:0|3:2,0:0:0:0:
353,333,10701,1,2,0:2:0:0:
200,228,11617,5,2,0:2:0:0:
243,139,11846,2,0,P|254:97|245:53,2,70,2|2|2,3:2|0:2|3:2,0:0:0:0:
145,147,12533,1,2,0:2:0:0:
203,251,12762,6,0,B|222:298|203:357|203:357|233:331,1,140,4|0,3:2|3:2,0:0:0:0:
313,301,13449,1,2,0:2:0:0:
394,245,13678,2,0,P|448:235|479:254,2,70,2|2|2,3:2|0:2|3:2,0:0:0:0:
313,301,14365,1,2,0:2:0:0:
239,241,14594,5,0,3:2:0:0:
143,229,14823,2,0,L|119:238,2,17.5,2|0|0,3:2|3:2|3:2,0:0:0:0:
277,130,15281,1,2,0:2:0:0:
319,43,15510,2,0,P|261:35|220:51,1,70,0|2,3:2|3:2,0:0:0:0:
189,145,15968,1,2,0:2:0:0:
239,241,16197,1,2,0:2:0:0:
357,171,16426,6,0,P|407:143|473:143,2,112,4|0|0,3:2|3:2|3:2,0:0:0:0:
278,220,17571,1,0,0:2:0:0:
199,260,17800,2,0,P|192:217|198:189,1,56,0|0,3:2|0:2,0:0:0:0:
224,122,18258,6,0,L|353:115,2,112,0|0|0,3:2|3:2|3:2,0:0:0:0:
144,148,19403,1,0,0:2:0:0:
224,122,19632,2,0,P|245:87|248:56,1,56,0|0,3:2|0:2,0:0:0:0:
159,61,20090,6,0,P|106:68|59:113,2,112,0|0|0,3:2|3:2|3:2,0:0:0:0:
239,113,21235,1,0,0:2:0:0:
255,204,21464,2,0,P|261:239|254:269,1,56,0|0,3:2|0:2,0:0:0:0:
341,291,21922,6,0,P|350:236|336:168,2,112,0|0|0,3:2|3:2|3:2,0:0:0:0:
266,339,23067,1,0,0:2:0:0:
178,331,23296,1,0,3:2:0:0:
143,250,23525,1,0,0:2:0:0:
184,172,23754,6,0,P|185:117|140:57,2,112,0|0|0,3:2|3:2|3:2,0:0:0:0:
100,143,24899,1,0,2:2:0:0:
60,229,25128,2,0,P|90:235|125:231,1,56,0|0,3:2|0:2,0:0:0:0:
184,172,25586,6,0,B|198:226|198:226|189:286,2,112,0|0|0,3:2|3:2|3:2,0:0:0:0:
229,96,26731,1,0,0:2:0:0:
315,108,26960,2,0,P|362:115|392:107,1,56,0|0,3:2|0:2,0:0:0:0:
443,162,27418,6,0,P|453:205|437:269,1,112,0|0,3:2|3:2,0:0:0:0:
363,319,28105,1,0,0:2:0:0:
279,290,28334,2,0,P|269:247|285:183,1,112,0|0,3:2|3:2,0:0:0:0:
459,70,29250,5,0,0:2:0:0:
413,154,29479,1,0,0:2:0:0:
311,163,29708,1,8,0:2:0:0:
234,103,29937,2,0,P|212:114|180:111,2,35,0|0|0,0:2|0:2|0:2,0:0:0:0:
311,32,30395,1,0,0:2:0:0:
234,103,30624,2,0,L|233:195,1,70,0|0,0:2|0:2,0:0:0:0:
208,289,31082,6,0,P|170:311|134:318,1,70,4|0,0:2|0:0,0:0:0:0:
49,262,31540,2,0,P|33:220|34:184,1,70,8|0,0:2|0:2,0:0:0:0:
71,97,31999,1,0,0:2:0:0:
166,73,32228,1,0,0:2:0:0:
194,166,32457,1,8,0:2:0:0:
99,193,32686,1,0,0:2:0:0:
194,166,32915,6,0,P|237:158|263:138,1,70,0|0,0:2|0:2,0:0:0:0:
321,68,33373,1,8,0:2:0:0:
364,159,33602,2,0,P|366:214|445:277,1,140,0|0,0:2|0:2,0:0:0:0:
512,252,34289,1,8,0:2:0:0:
456,179,34518,1,0,0:2:0:0:
456,179,34632,1,0,0:2:0:0:
456,179,34747,6,0,L|436:88,1,70,2|0,0:2|0:2,0:0:0:0:
367,45,35205,1,8,0:2:0:0:
280,84,35434,2,0,P|210:94|134:70,1,140,0|0,0:2|0:2,0:0:0:0:
63,130,36121,1,8,0:2:0:0:
138,192,36350,1,0,0:2:0:0:
235,180,36579,6,0,P|301:192|379:179,2,140,0|8|0,0:2|0:2|0:2,0:0:0:0:
173,107,37724,1,0,0:2:0:0:
248,44,37953,2,0,L|325:46,1,70,8|0,0:2|0:2,0:0:0:0:
359,71,38296,1,0,0:0:0:0:
359,71,38411,6,0,P|352:124|360:151,1,70,4|0,0:2|0:0,0:0:0:0:
406,223,38869,1,8,0:2:0:0:
413,320,39098,1,0,0:2:0:0:
324,277,39327,2,0,L|229:284,1,70,0|0,0:2|0:2,0:0:0:0:
158,262,39785,1,8,0:2:0:0:
128,168,40014,1,0,0:2:0:0:
170,79,40243,6,0,P|214:56|254:56,1,70,0|0,0:2|0:2,0:0:0:0:
328,77,40701,2,0,P|351:121|351:161,1,70,8|0,0:2|0:2,0:0:0:0:
352,238,41159,1,0,0:2:0:0:
279,171,41388,2,0,P|223:173|191:188,2,70,0|8|0,0:2|0:2|0:2,0:0:0:0:
260,267,42075,6,0,L|259:353,1,70,2|0,0:2|0:2,0:0:0:0:
352,308,42533,2,0,L|352:238,1,70,8|0,0:2|0:2,0:0:0:0:
279,171,42991,1,0,0:2:0:0:
210,233,43220,1,8,0:2:0:0:
277,310,43449,1,8,0:2:0:0:
352,238,43678,1,0,0:2:0:0:
210,233,43907,6,0,L|63:234,1,140,0|12,0:0|0:2,0:0:0:0:
221,90,44823,1,8,0:0:0:0:
316,109,45052,1,8,0:0:0:0:
300,205,45281,1,8,0:2:0:0:
202,191,45510,1,8,0:2:0:0:
221,90,45739,6,0,P|160:76|152:77,2,52.5000020027161,4|0|8,0:2|0:0|0:2,0:0:0:0:
202,191,46426,2,0,L|194:315,1,105.000004005432,0|0,0:2|0:2,0:0:0:0:
263,353,47113,2,0,P|310:358|334:349,1,52.5000020027161,8|0,0:2|0:2,0:0:0:0:
346,274,47571,6,0,P|397:262|464:274,1,105.000004005432,2|8,0:2|0:2,0:0:0:0:
511,205,48258,2,0,P|499:154|511:87,1,105.000004005432,0|0,0:2|0:2,0:0:0:0:
508,13,48945,1,8,0:0:0:0:
344,102,49403,6,0,L|344:37,2,52.5000020027161,2|0|8,0:2|0:2|0:2,0:0:0:0:
338,191,50090,2,0,P|272:202|217:183,1,105.000004005432,0|0,0:2|0:2,0:0:0:0:
158,149,50777,2,0,P|117:140|93:144,1,52.5000020027161,8|0,0:2|0:2,0:0:0:0:
11,154,51235,6,0,B|-1:95|-1:95|10:36,1,105.000004005432,2|8,0:2|0:2,0:0:0:0:
104,38,51922,2,0,B|116:97|116:97|105:156,1,105.000004005432,0|0,0:2|0:2,0:0:0:0:
53,212,52609,2,0,L|55:252,2,26.2500010013581,8|0|0,0:2|0:2|0:2,0:0:0:0:
116,100,53067,6,0,P|68:83|43:86,2,52.5000020027161,4|0|8,0:2|0:2|0:2,0:0:0:0:
165,174,53754,2,0,P|216:182|274:177,1,105.000004005432,0|0,0:2|0:2,0:0:0:0:
354,148,54441,2,0,L|350:76,1,52.5000020027161,8|0,0:2|0:2,0:0:0:0:
302,24,54899,6,0,L|177:32,1,105.000004005432,2|8,0:2|0:2,0:0:0:0:
218,124,55586,2,0,L|343:132,1,105.000004005432,0|0,0:2|0:2,0:0:0:0:
382,205,56273,2,0,P|358:219|325:224,1,52.5000020027161,8|0,3:2|3:3,0:0:0:0:
228,200,56731,6,0,L|145:201,1,59.5000011348725,4|0,0:2|0:2,0:0:0:0:
212,107,57189,2,0,L|295:108,1,59.5000011348725,8|0,0:2|0:2,0:0:0:0:
382,205,57647,2,4,L|299:206,1,59.5000011348725,0|0,0:2|0:2,0:0:0:0:
366,112,58105,2,0,L|449:113,1,59.5000011348725,8|0,0:2|0:2,0:0:0:0:
460,196,58563,6,0,P|464:233|461:250,3,35,0|0|0|0,3:2|3:2|3:2|3:2,0:0:0:0:
418,270,59021,2,0,P|418:287|422:304,3,35,0|0|0|0,3:2|3:2|3:2|3:2,0:0:0:0:
443,348,59479,2,0,B|383:310|319:333|319:333|350:284|313:243,1,210,0|0,3:2|3:2,0:0:0:0:
105,167,60395,6,0,L|107:65,1,70,4|0,0:2|0:2,0:0:0:0:
188,31,60853,1,8,0:2:0:0:
212,133,61082,2,0,L|351:128,1,140,0|0,0:2|0:2,0:0:0:0:
457,123,61770,1,8,0:2:0:0:
396,208,61999,1,0,0:2:0:0:
497,283,62228,6,0,P|516:237|516:198,2,70,0|0|8,0:2|0:2|0:2,0:0:0:0:
411,340,62915,2,0,P|342:358|273:327,1,140,0|0,0:2|0:2,0:0:0:0:
349,254,63602,2,0,L|351:161,1,70,8|0,0:2|0:2,0:0:0:0:
300,69,64060,6,0,P|350:62|386:79,1,70,0|0,0:2|0:2,0:0:0:0:
442,144,64518,1,8,0:2:0:0:
333,162,64747,2,0,L|165:165,1,140,0|0,0:2|0:2,0:0:0:0:
94,129,65434,1,8,0:2:0:0:
141,223,65663,1,0,0:2:0:0:
195,332,65892,6,0,P|130:342|51:309,1,140,0|8,0:2|0:2,0:0:0:0:
45,201,66579,1,0,0:2:0:0:
113,119,66808,2,0,P|163:110|198:122,1,70,0|0,0:2|0:2,0:0:0:0:
150,226,67266,2,0,P|184:230|228:214,1,70,8|0,0:2|0:2,0:0:0:0:
313,120,67724,6,0,P|248:97|182:114,1,140,4|8,0:2|0:2,0:0:0:0:
244,197,68411,1,0,0:2:0:0:
344,220,68640,2,0,P|338:256|342:289,2,70,0|0|8,0:2|0:2|0:2,0:0:0:0:
391,130,69327,1,0,0:2:0:0:
391,130,69556,6,0,P|361:110|327:103,1,70,0|0,0:2|0:2,0:0:0:0:
229,161,70014,1,10,0:2:0:0:
103,137,70243,1,2,0:2:0:0:
214,79,70472,1,2,0:2:0:0:
166,209,70701,1,2,0:2:0:0:
137,63,70930,1,10,0:2:0:0:
166,209,71159,1,0,0:2:0:0:
166,209,71273,1,0,0:0:0:0:
166,209,71388,6,0,L|309:203,1,140,4|8,0:2|0:2,0:0:0:0:
409,262,72075,2,0,B|424:187|424:187|405:108,1,140,0|8,0:2|0:2,0:0:0:0:
318,32,72762,1,8,0:2:0:0:
293,163,72991,1,0,0:2:0:0:
204,82,73220,6,0,P|147:76|120:82,2,70,0|0|8,0:0|0:2|0:2,0:0:0:0:
293,163,73907,1,4,0:2:0:0:
289,289,74136,1,0,3:0:0:0:
392,223,74365,1,12,0:0:0:0:
293,163,74594,1,8,0:2:0:0:
163,208,74823,1,12,0:2:0:0:
163,208,74937,1,8,0:0:0:0:
163,208,75052,6,0,P|110:207|72:218,1,70,4|0,0:2|0:2,0:0:0:0:
134,307,75510,1,8,0:2:0:0:
234,275,75739,2,0,P|301:261|370:293,1,140,0|0,0:2|0:2,0:0:0:0:
454,342,76426,1,8,0:2:0:0:
506,251,76655,1,0,0:2:0:0:
442,152,76884,6,0,P|403:137|348:131,1,70,0|0,0:2|0:2,0:0:0:0:
273,156,77342,1,8,0:2:0:0:
182,102,77571,2,0,P|237:61|311:61,1,140,0|0,0:0|0:0,0:0:0:0:
359,147,78258,1,8,0:0:0:0:
369,251,78487,1,0,0:0:0:0:
265,232,78716,6,0,P|230:229|180:243,2,70,0|0|8,0:0|0:0|0:0,0:0:0:0:
310,338,79403,2,0,L|475:338,1,140,4|0,0:0|0:0,0:0:0:0:
446,235,80090,1,8,0:0:0:0:
485,139,80319,1,0,0:0:0:0:
380,83,80548,6,0,L|230:81,1,140,0|8,0:0|0:0,0:0:0:0:
145,144,81235,1,0,0:0:0:0:
165,247,81464,2,0,P|176:301|167:329,1,70,0|0,0:0|0:0,0:0:0:0:
68,306,81922,1,8,0:0:0:0:
41,204,82151,1,0,0:0:0:0:
145,144,82380,6,0,L|285:135,1,140,4|8,0:0|0:0,0:0:0:0:
374,188,83067,1,0,0:0:0:0:
334,285,83296,2,0,L|335:355,1,70,0|0,0:0|0:0,0:0:0:0:
242,304,83754,2,0,L|241:234,1,70,8|0,0:0|0:0,0:0:0:0:
303,128,84212,6,0,P|233:110|158:146,1,140,0|8,0:0|0:0,0:0:0:0:
240,213,84899,1,0,0:0:0:0:
172,306,85128,2,0,L|244:303,1,70,0|0,0:0|0:0,0:0:0:0:
309,211,85586,2,0,L|239:213,1,70,8|0,0:0|0:0,0:0:0:0:
220,115,86044,6,0,L|215:63,3,35,4|0|0|0,3:2|3:2|3:2|3:2,0:0:0:0:
232,25,86502,2,0,P|275:28|285:22,3,35,8|0|0|0,3:2|3:2|3:2|3:2,0:0:0:0:
325,32,86960,2,0,P|342:31|358:37,3,35,0|0|0|0,3:2|3:2|3:2|3:2,0:0:0:0:
367,96,87418,2,0,L|370:146,3,35,8|0|0|0,3:2|3:0|3:0|3:0,0:0:0:0:
365,190,87876,6,0,P|332:202|311:202,3,35,0|0|0|0,3:0|3:0|3:0|3:0,0:0:0:0:
272,203,88334,2,0,P|254:206|238:213,3,35,8|0|0|0,3:2|3:0|3:0|3:0,0:0:0:0:
202,249,88792,1,0,3:0:0:0:
71,254,89021,1,8,3:2:0:0:
165,174,89250,1,8,3:2:0:0:
136,300,89479,1,8,3:2:0:0:
84,173,89708,5,4,2:2:0:0:
