osu file format v14

[General]
AudioFilename: audio.mp3
AudioLeadIn: 0
PreviewTime: 59937
Countdown: 0
SampleSet: Soft
StackLeniency: 0.7
Mode: 0
LetterboxInBreaks: 0
EpilepsyWarning: 1
WidescreenStoryboard: 1

[Editor]
Bookmarks: 60395
DistanceSpacing: 1.2
BeatDivisor: 4
GridSize: 4
TimelineZoom: 1

[Metadata]
Title:Vidro Moyou
TitleUnicode:ビードロ模様
Artist:yanaginagi
ArtistUnicode:やなぎなぎ
Creator:Hokichi
Version:Yamicchi's Easy
Source:あの夏で待ってる
Tags:waiting in that summer hoki linada yamicchi yami ano natsu de matteru
BeatmapID:1330486
BeatmapSetID:630223

[Difficulty]
HPDrainRate:2
CircleSize:2.7
OverallDifficulty:2
ApproachRate:3.5
SliderMultiplier:0.8
SliderTickRate:1

[Events]
//Background and Video events
0,0,"bg.jpg",0,0
//Break Periods
//Storyboard Layer 0 (Background)
//Storyboard Layer 1 (Fail)
//Storyboard Layer 2 (Pass)
//Storyboard Layer 3 (Foreground)
//Storyboard Sound Samples

[TimingPoints]
1770,458.015267175573,4,2,1,40,1,0
60395,-100,4,2,1,40,0,1
89708,-100,4,2,1,40,0,0

[Colours]
Combo1 : 149,255,149
Combo2 : 255,183,255
Combo3 : 255,255,166
Combo4 : 145,200,255

[HitObjects]
255,42,1770,5,4,3:2:0:0:
192,160,2457,2,0,B|232:184|296:184|340:148|340:148|384:112|456:116|496:172|488:228,1,360,2|2,0:2|3:2,0:0:0:0:
400,216,4976,1,2,3:2:0:0:
408,304,5434,5,0,3:2:0:0:
288,356,6121,2,0,B|240:340|192:348|152:372|152:372|112:364|64:324|64:268|112:212|168:220,1,360,2|2,0:2|3:2,0:0:0:0:
240,220,8640,1,2,3:2:0:0:
320,260,9098,6,0,B|344:212|320:148|264:132|264:132|200:148|120:148|80:76|80:76|128:12|224:12|272:36,1,560,0|2,3:2|3:2,0:0:0:0:
340,57,12762,5,4,3:2:0:0:
256,192,12991,12,4,16426,3:2:0:0:
336,120,18258,6,0,P|368:168|360:244,2,120,0|0|0,3:2|0:2|3:2,0:0:0:0:
252,88,20090,2,0,L|132:92,1,120,0|0,3:2|0:2,0:0:0:0:
36,184,21464,2,0,L|280:196,1,240,0|0,3:2|3:2,0:0:0:0:
338,259,23296,1,0,3:2:0:0:
407,203,23754,5,0,3:2:0:0:
275,195,24441,2,0,B|228:244|246:326|309:342|309:342|408:320|392:380|496:336,1,360,0|0,0:2|3:2,0:0:0:0:
512,256,26960,1,0,3:2:0:0:
496,168,27418,5,0,3:2:0:0:
400,80,28105,2,0,B|336:112|272:80|272:80|208:48|128:80,1,280,0|8,0:2|0:2,0:0:0:0:
64,140,30166,2,0,L|68:232,1,80,0|0,0:2|0:2,0:0:0:0:
136,276,31082,6,0,P|176:264|228:264,1,80,4|8,0:2|0:2,0:0:0:0:
300,288,31999,2,0,P|338:299|378:301,1,80,0|8,0:2|0:2,0:0:0:0:
440,240,32915,2,0,P|464:292|440:364,2,120,0|0|8,0:2|0:2|0:2,0:0:0:0:
396,164,34747,6,0,P|372:112|396:40,1,120,2|0,0:2|0:2,0:0:0:0:
256,24,36121,2,0,B|212:40|168:24|168:24|148:40|124:48|124:48|68:28|16:48,1,240,8|0,0:2|0:2,0:0:0:0:
0,128,37953,1,8,0:2:0:0:
36,208,38411,6,0,P|44:240|48:296,1,80,4|8,0:2|0:2,0:0:0:0:
108,352,39327,2,0,P|140:360|196:364,1,80,0|8,0:2|0:2,0:0:0:0:
256,308,40243,2,0,P|328:272|412:308,1,160,0|0,0:2|0:2,0:0:0:0:
484,272,41617,1,8,0:2:0:0:
508,188,42075,6,0,B|524:148|516:104|516:104|496:84|468:80|468:80|436:92|404:80|404:80|372:68|332:84,2,280,2|0|8,0:2|0:2|0:2,0:0:0:0:
484,272,45739,5,4,0:2:0:0:
364,328,46426,2,0,P|304:320|244:320,1,120,0|8,0:2|0:2,0:0:0:0:
184,260,47571,2,0,P|160:312|188:384,2,120,2|0|8,0:2|0:2|0:0,0:0:0:0:
268,236,49403,5,2,0:2:0:0:
364,144,50090,2,0,P|316:112|241:106,1,120,0|8,0:2|0:2,0:0:0:0:
212,28,51235,2,0,P|172:80|272:188,1,240,2|8,0:2|0:2,0:0:0:0:
356,168,53067,5,4,0:2:0:0:
472,232,53754,2,0,L|464:360,1,120,0|8,0:2|0:2,0:0:0:0:
380,372,54899,2,0,P|324:352|256:368,2,120,2|0|8,0:2|0:2|3:2,0:0:0:0:
256,192,56731,12,0,58563,3:2:0:0:
284,100,60395,5,4,0:2:0:0:
368,72,60853,1,8,0:2:0:0:
425,141,61311,2,0,P|389:158|350:158,1,80,0|8,0:2|0:2,0:0:0:0:
284,100,62228,2,0,P|273:48|271:9,2,80,0|8|0,0:2|0:2|0:2,0:0:0:0:
164,232,64060,5,0,0:2:0:0:
84,196,64518,1,8,0:2:0:0:
12,248,64976,2,0,P|8:292|20:344,1,80,0|8,0:2|0:2,0:0:0:0:
92,364,65892,2,0,L|176:356,1,80,0|8,0:2|0:2,0:0:0:0:
252,316,66808,2,0,L|336:324,1,80,0|8,0:2|0:2,0:0:0:0:
404,376,67724,5,4,0:2:0:0:
492,224,68640,2,0,P|496:183|483:132,1,80,0|8,0:2|0:2,0:0:0:0:
428,84,69556,2,0,P|387:79|336:92,1,80,0|10,0:2|0:2,0:0:0:0:
264,112,70472,2,0,P|223:116|172:103,1,80,2|10,0:2|0:2,0:0:0:0:
108,148,71388,6,0,P|100:88|136:36,2,120,4|0|8,0:2|0:2|0:2,0:0:0:0:
180,200,73220,2,0,L|264:192,2,80,0|8|0,0:0|0:2|3:0,0:0:0:0:
64,332,75052,5,4,0:2:0:0:
144,368,75510,1,8,0:2:0:0:
220,328,75968,2,0,P|260:316|312:320,1,80,0|8,0:2|0:2,0:0:0:0:
384,332,76884,2,0,P|423:332|461:320,2,80,0|8|0,0:2|0:2|0:0,0:0:0:0:
292,180,78716,5,0,0:0:0:0:
304,92,79174,1,8,0:0:0:0:
216,80,79632,2,0,L|128:68,1,80,0|8,0:0|0:0,0:0:0:0:
68,124,80548,2,0,P|64:160|64:208,1,80,0|8,0:0|0:0,0:0:0:0:
136,252,81464,2,0,P|140:288|140:336,1,80,0|8,0:0|0:0,0:0:0:0:
220,368,82380,6,0,P|292:332|376:360,1,160,4|0,0:0|0:0,0:0:0:0:
448,324,83754,1,8,0:0:0:0:
484,244,84212,1,0,0:0:0:0:
400,140,84899,2,0,P|344:124|272:144,1,120,0|8,0:0|0:0,0:0:0:0:
256,192,86044,12,4,89708,2:2:0:0:
