osu file format v14

[General]
AudioFilename: audio.mp3
AudioLeadIn: 0
PreviewTime: 59937
Countdown: 0
SampleSet: Soft
StackLeniency: 0.7
Mode: 0
LetterboxInBreaks: 0
EpilepsyWarning: 1
WidescreenStoryboard: 1

[Editor]
Bookmarks: 16426,29250,45739,56731,60395
DistanceSpacing: 1
BeatDivisor: 2
GridSize: 32
TimelineZoom: 1

[Metadata]
Title:Vidro Moyou
TitleUnicode:ビードロ模様
Artist:yanaginagi
ArtistUnicode:やなぎなぎ
Creator:Hokichi
Version:Normal
Source:あの夏で待ってる
Tags:waiting in that summer hoki linada yamicchi yami ano natsu de matteru
BeatmapID:1330490
BeatmapSetID:630223

[Difficulty]
HPDrainRate:4
CircleSize:3
OverallDifficulty:4
ApproachRate:5
SliderMultiplier:1.1
SliderTickRate:1

[Events]
//Background and Video events
0,0,"bg.jpg",0,0
//Break Periods
//Storyboard Layer 0 (Background)
//Storyboard Layer 1 (Fail)
//Storyboard Layer 2 (Pass)
//Storyboard Layer 3 (Foreground)
//Storyboard Sound Samples

[TimingPoints]
1770,458.015267175573,4,2,1,40,1,0
60395,-100,4,2,1,40,0,1
89708,-100,4,2,1,40,0,0

[Colours]
Combo1 : 149,255,149
Combo2 : 255,183,255
Combo3 : 255,255,166
Combo4 : 145,200,255

[HitObjects]
421,231,1770,6,0,P|365:246|312:231,1,110,4|0,3:2|3:2,0:0:0:0:
281,189,2457,1,2,0:2:0:0:
281,189,2686,2,0,P|276:128|287:103,2,55,2|2|2,3:2|0:2|3:2,0:0:0:0:
198,261,3602,6,0,P|128:266|84:249,1,110,0|0,3:2|3:2,0:0:0:0:
71,201,4289,1,2,0:2:0:0:
71,201,4518,2,0,L|74:57,1,110,2|2,3:2|3:2,0:0:0:0:
181,73,5434,6,0,P|252:81|296:65,1,110,0|0,3:2|3:2,0:0:0:0:
338,90,6121,1,2,0:2:0:0:
338,90,6350,2,0,L|339:26,2,55,2|2|2,3:2|0:2|3:2,0:0:0:0:
260,167,7266,6,0,L|258:299,1,110,0|0,3:2|3:2,0:0:0:0:
224,320,7953,1,2,0:2:0:0:
224,320,8182,2,0,P|133:332|90:313,1,110,2|2,3:2|3:2,0:0:0:0:
165,228,9098,6,0,P|179:203|274:160,1,110,0|0,3:2|3:2,0:0:0:0:
295,187,9785,1,2,0:2:0:0:
295,187,10014,2,0,P|338:201|363:199,2,55,2|0|2,3:2|0:0|3:2,0:0:0:0:
347,90,10930,6,0,P|405:69|474:83,1,110,0|0,3:2|3:2,0:0:0:0:
492,111,11617,1,2,0:2:0:0:
492,111,11846,2,2,L|485:182,1,55,2|2,3:2|0:2,0:0:0:0:
437,191,12304,2,2,L|435:259,1,55,2|2,3:2|0:2,0:0:0:0:
396,284,12762,6,0,P|345:275|283:293,1,110,4|0,3:2|3:2,0:0:0:0:
239,312,13449,1,2,0:2:0:0:
239,312,13678,2,0,L|236:375,2,55,2|2|2,3:2|0:2|3:2,0:0:0:0:
249,202,14594,5,0,3:2:0:0:
249,202,14823,2,0,P|313:232|345:306,2,110,2|2|2,3:2|0:2|3:2,0:0:0:0:
194,203,15968,2,0,P|165:209|133:204,1,55,2|2,0:2|0:2,0:0:0:0:
110,159,16426,6,0,L|106:33,2,110,4|0|0,3:2|3:2|3:2,0:0:0:0:
148,261,17800,1,0,3:2:0:0:
242,204,18258,6,0,P|254:277|237:325,2,110,0|0|0,3:2|3:2|3:2,0:0:0:0:
186,108,19632,1,0,3:2:0:0:
295,117,20090,6,0,L|428:116,1,110,0|0,3:2|3:2,0:0:0:0:
498,174,21006,2,0,P|513:117|495:63,1,110,0|0,3:2|3:2,0:0:0:0:
404,116,21922,6,0,P|389:173|407:227,1,110,0|0,3:2|3:2,0:0:0:0:
436,264,22609,1,0,0:2:0:0:
335,308,23067,1,0,0:2:0:0:
335,308,23296,2,0,P|288:277|280:262,1,55,0|0,3:2|0:2,0:0:0:0:
274,225,23754,6,0,L|411:219,2,110,0|0|0,3:2|3:2|3:2,0:0:0:0:
189,154,25128,1,0,3:2:0:0:
81,130,25586,6,0,P|104:80|167:45,2,110,0|0|0,3:2|3:2|3:2,0:0:0:0:
123,233,26960,2,0,L|177:230,1,55,0|0,3:2|0:2,0:0:0:0:
228,252,27418,6,0,P|183:282|160:332,1,110,0|0,3:2|3:2,0:0:0:0:
211,352,28105,2,0,P|270:341|347:364,1,110,0|0,0:2|0:0,0:0:0:0:
370,367,28792,1,0,3:2:0:0:
340,260,29250,6,0,P|375:269|409:278,2,55,0|0|8,0:2|0:2|0:2,0:0:0:0:
290,250,29937,1,0,0:2:0:0:
290,250,30166,2,0,P|238:224|141:255,1,165,0|0,0:2|0:2,0:0:0:0:
88,270,31082,6,0,P|102:190|136:152,1,110,4|8,0:2|0:2,0:0:0:0:
163,137,31770,1,0,0:2:0:0:
163,137,31999,2,0,P|190:145|293:132,1,110,0|8,0:2|0:2,0:0:0:0:
369,91,32915,6,0,P|382:149|359:208,2,110,0|8|0,0:2|0:2|0:2,0:0:0:0:
347,39,34060,1,0,0:2:0:0:
347,39,34289,2,0,P|303:49|268:43,1,55,8|0,0:2|0:2,0:0:0:0:
239,38,34747,6,0,P|254:107|232:162,1,110,2|8,0:2|0:2,0:0:0:0:
191,161,35434,2,0,P|190:224|218:266,1,110,0|0,0:2|0:2,0:0:0:0:
258,294,36121,1,8,0:2:0:0:
288,188,36579,6,0,L|277:78,2,110,0|8|0,0:2|0:2|0:2,0:0:0:0:
294,242,37724,1,0,0:2:0:0:
294,242,37953,2,0,P|329:238|370:200,1,55,8|0,0:2|0:2,0:0:0:0:
376,182,38411,6,0,P|436:173|528:178,1,110,4|8,0:2|0:2,0:0:0:0:
502,120,39098,2,0,P|493:65|503:12,1,110,0|0,0:2|0:2,0:0:0:0:
452,32,39785,2,0,L|387:33,1,55,8|0,0:2|0:2,0:0:0:0:
359,73,40243,6,0,B|292:87|292:87|236:80,1,110,0|8,0:2|0:2,0:0:0:0:
196,70,40930,1,0,0:2:0:0:
195,179,41388,2,0,P|168:183|135:177,2,55,0|8|0,0:2|0:2|0:2,0:0:0:0:
244,159,42075,6,0,L|240:268,1,110,2|8,0:2|0:2,0:0:0:0:
155,339,42991,2,0,P|114:345|85:339,1,55,0|8,0:2|0:2,0:0:0:0:
60,306,43449,1,8,0:2:0:0:
60,306,43678,6,0,L|64:171,1,110,0|0,0:2|0:2,0:0:0:0:
78,143,44365,1,12,0:2:0:0:
139,52,44823,2,0,P|184:46|218:52,1,55,8|8,0:0|0:0,0:0:0:0:
226,90,45281,2,0,P|253:90|280:84,1,55,8|8,0:2|0:2,0:0:0:0:
310,39,45739,6,0,P|353:35|374:42,2,55,4|0|8,0:2|0:0|0:2,0:0:0:0:
280,84,46426,2,0,L|285:195,1,110,0|0,0:2|0:2,0:0:0:0:
285,248,47113,2,0,P|272:299|257:316,1,55,8|0,0:2|0:2,0:0:0:0:
218,317,47571,6,0,L|105:313,1,110,2|8,0:2|0:2,0:0:0:0:
68,274,48258,2,0,P|52:211|66:154,1,110,0|0,0:2|0:2,0:0:0:0:
97,127,48945,1,8,0:0:0:0:
168,211,49403,6,0,P|203:153|198:89,1,110,2|8,0:2|0:2,0:0:0:0:
227,62,50090,2,0,P|286:37|338:46,1,110,0|0,0:2|0:2,0:0:0:0:
366,84,50777,2,0,P|358:145|366:168,1,55,8|0,0:2|0:2,0:0:0:0:
341,190,51235,6,0,L|211:192,1,110,2|8,0:2|0:2,0:0:0:0:
178,182,51922,2,0,P|165:97|179:67,1,110,0|0,0:2|0:2,0:0:0:0:
211,37,52609,1,8,0:2:0:0:
305,93,53067,6,0,P|335:89|360:93,2,55,4|0|8,0:2|0:2|0:2,0:0:0:0:
285,147,53754,2,0,P|296:209|277:259,1,110,0|0,0:2|0:2,0:0:0:0:
230,273,54441,2,0,L|151:274,1,55,8|0,0:2|0:2,0:0:0:0:
120,264,54899,6,0,B|99:202|99:202|114:137,1,110,2|8,0:2|0:2,0:0:0:0:
141,114,55586,2,0,L|17:111,2,110,0|0|0,0:2|0:2|3:3,0:0:0:0:
195,121,56731,5,4,0:2:0:0:
220,227,57189,1,8,0:2:0:0:
326,200,57647,1,0,0:2:0:0:
304,94,58105,1,8,0:2:0:0:
326,200,58563,6,0,L|491:200,2,165,0|0|0,3:2|3:2|3:2,0:0:0:0:
249,278,60395,6,0,L|176:274,2,55,4|0|8,0:2|0:2|0:2,0:0:0:0:
298,253,61082,2,0,P|278:198|293:112,1,110,0|0,0:2|0:2,0:0:0:0:
322,111,61770,1,8,0:2:0:0:
430,92,62228,6,0,P|457:88|483:94,2,55,0|0|8,0:2|0:2|0:2,0:0:0:0:
432,146,62915,2,0,L|433:272,1,110,0|0,0:2|0:2,0:0:0:0:
385,279,63602,2,0,P|344:282|308:272,1,55,8|0,0:2|0:2,0:0:0:0:
276,271,64060,6,0,P|248:268|221:271,1,55,0|0,0:2|0:2,0:0:0:0:
166,270,64518,1,8,0:2:0:0:
166,270,64747,2,0,P|201:218|197:157,2,110,0|0|0,0:2|0:2|0:2,0:0:0:0:
114,289,65892,5,0,0:2:0:0:
64,190,66350,1,8,0:2:0:0:
101,86,66808,2,0,P|148:40|209:34,1,110,0|8,0:2|0:2,0:0:0:0:
242,47,67495,1,0,0:2:0:0:
242,47,67724,6,0,L|372:49,1,110,4|8,0:2|0:2,0:0:0:0:
383,93,68411,1,0,0:2:0:0:
383,93,68640,2,0,P|381:155|378:160,2,55,0|0|8,0:2|0:2|0:2,0:0:0:0:
328,88,69327,6,0,P|271:98|219:82,1,110,0|0,0:2|0:2,0:0:0:0:
167,77,70014,2,0,L|161:146,1,55,10|2,0:2|0:2,0:0:0:0:
203,167,70472,2,0,L|209:236,1,55,2|2,0:2|0:2,0:0:0:0:
232,270,70930,1,10,0:2:0:0:
314,343,71388,6,0,P|343:285|336:231,1,110,4|8,0:2|0:2,0:0:0:0:
293,210,72075,2,0,P|291:155|318:108,1,110,0|8,0:2|0:2,0:0:0:0:
343,59,72762,1,8,0:2:0:0:
343,59,72991,6,0,P|280:64|234:40,1,110,0|0,0:2|0:2,0:0:0:0:
188,22,73678,1,8,0:2:0:0:
223,126,74136,2,0,L|232:190,1,55,0|12,3:0|0:0,0:0:0:0:
177,195,74594,2,0,L|168:259,1,55,8|12,0:2|0:2,0:0:0:0:
124,281,75052,6,0,P|86:277|59:282,2,55,4|0|8,0:2|0:2|0:2,0:0:0:0:
172,307,75739,2,0,P|238:321|308:307,1,110,0|0,0:2|0:2,0:0:0:0:
323,282,76426,1,8,0:2:0:0:
407,211,76884,6,0,P|401:175|410:125,2,55,0|0|8,0:2|0:2|0:2,0:0:0:0:
426,263,77571,2,0,P|352:288|289:261,1,110,0|0,0:0|0:0,0:0:0:0:
280,246,78258,1,8,0:0:0:0:
254,139,78716,6,0,L|172:148,2,55,0|0|8,0:0|0:0|0:0,0:0:0:0:
274,88,79403,2,0,P|326:68|384:86,1,110,4|0,0:0|0:0,0:0:0:0:
399,131,80090,2,0,P|393:174|412:220,1,55,8|0,0:0|0:0,0:0:0:0:
424,231,80548,6,0,L|424:347,2,110,0|8|0,0:0|0:0|0:0,0:0:0:0:
438,121,81922,2,0,P|445:58|437:45,1,55,8|0,0:0|0:0,0:0:0:0:
402,39,82380,6,0,L|278:34,1,110,4|8,0:0|0:0,0:0:0:0:
199,129,83296,1,0,0:0:0:0:
199,129,83525,2,0,L|201:191,2,55,0|8|0,0:0|0:0|0:0,0:0:0:0:
224,80,84212,6,0,P|290:71|348:89,1,110,0|8,0:0|0:0,0:0:0:0:
362,126,84899,2,0,L|362:249,1,110,0|0,0:0|0:0,0:0:0:0:
332,282,85586,2,0,P|271:273|248:285,1,55,8|0,0:0|0:0,0:0:0:0:
256,192,86044,12,4,89708,2:2:0:0:
