osu file format v14

[General]
AudioFilename: audio.mp3
AudioLeadIn: 0
PreviewTime: 47430
Countdown: 0
SampleSet: Soft
StackLeniency: 0.4
Mode: 0
LetterboxInBreaks: 0
WidescreenStoryboard: 1

[Editor]
Bookmarks: 15817,32269,36140,40011,43882,47753,55495,63237,78721,87108,94204,98075,101946,105817,109688,117430,123237,125172,140656,171624
DistanceSpacing: 1.6
BeatDivisor: 8
GridSize: 32
TimelineZoom: 3.999998

[Metadata]
Title:Usotsuki
TitleUnicode:嘘月
Artist:yanaginagi
ArtistUnicode:やなぎなぎ
Creator:chaser01
Version:Heanday's Lie
Source:
Tags:japanese pop resahc heanday searasp lunala ameth fsjallink
BeatmapID:4196798
BeatmapSetID:2012683

[Difficulty]
HPDrainRate:6
CircleSize:4
OverallDifficulty:8
ApproachRate:9.4
SliderMultiplier:1.8
SliderTickRate:1

[Events]
//Background and Video events
0,0,"123.jpg",0,0
//Break Periods
2,78921,85308
//Storyboard Layer 0 (Background)
//Storyboard Layer 1 (Fail)
//Storyboard Layer 2 (Pass)
//Storyboard Layer 3 (Foreground)
//Storyboard Layer 4 (Overlay)
//Storyboard Sound Samples

[TimingPoints]
334,322.58064516129,3,2,0,30,1,0
334,-333.333333333333,3,2,0,30,0,0
15817,-200,3,2,0,30,0,0
32269,-111.111111111111,3,2,0,60,0,0
47753,-100,3,2,0,75,0,1
63237,-142.857142857143,3,2,0,55,0,0
78721,-142.857142857143,3,2,0,30,0,0
87108,-142.857142857143,3,2,0,30,0,0
92269,-250.000000000001,3,2,0,30,0,0
94204,-111.111111111111,3,2,0,60,0,0
109688,-100,3,2,0,75,0,1
123237,-200,3,2,0,40,0,0
124527,-100,3,2,0,60,0,1
125172,-100,3,2,0,75,0,1
140656,-100,3,2,0,65,0,0
171624,-100,3,2,0,30,0,0

[Colours]
Combo1 : 255,94,55
Combo2 : 173,255,95
Combo3 : 17,254,176
Combo4 : 255,88,100

[HitObjects]
76,142,15817,6,0,P|101:127|174:98,1,90
298,75,16463,1,0,0:0:0:0:
175,204,16785,2,0,P|148:259|211:361,1,180,2|0,0:0|0:0,0:0:0:0:
392,360,17753,6,0,P|350:349|297:344,1,90,2|0,0:0|0:0,0:0:0:0:
89,302,18398,1,0,0:0:0:0:
262,206,18721,2,0,P|273:164|278:111,1,90,2|0,0:0|0:0,0:0:0:0:
125,14,19366,1,0,0:0:0:0:
52,148,19688,6,0,L|73:332,1,180,2|0,0:0|0:0,0:0:0:0:
213,214,20656,2,0,P|255:203|348:198,1,135,2|0,0:0|0:0,0:0:0:0:
456,381,21463,1,0,0:0:0:0:
462,301,21624,2,0,P|465:258|471:150,1,135
437,42,22430,5,0,0:0:0:0:
437,42,22592,2,0,P|372:31|257:12,1,180
81,46,23559,1,0,0:0:0:0:
202,169,23882,6,0,P|157:161|137:119,1,90
161,39,24527,1,2,0:0:0:0:
381,258,24850,6,0,P|426:250|446:208,1,90
422,128,25495,1,2,0:0:0:0:
231,148,25817,6,0,L|254:249,1,90
423,197,26463,5,0,0:0:0:0:
293,83,26785,1,0,1:0:0:0:
169,217,27108,6,0,L|178:272,1,45
338,191,27430,2,0,L|351:91,2,90,2|0|0,0:0|0:0|0:0,0:0:0:0:
378,338,28398,2,0,P|419:329|472:321,1,90,0|0,0:0|1:0,0:0:0:0:
135,280,29204,1,0,0:0:0:0:
135,280,29366,2,0,P|106:272|34:264,1,90
94,182,30011,5,2,1:2:0:0:
233,241,30334,5,2,1:2:0:0:
107,210,30656,5,2,1:2:0:0:
218,114,30979,5,2,1:2:0:0:
338,220,31301,5,2,1:2:0:0:
201,154,31624,5,2,1:2:0:0:
162,28,31946,5,2,1:2:0:0:
178,243,32269,6,0,P|137:306|50:321,2,161.999995056153,6|0|0,1:2|0:0|0:0,0:0:0:0:
317,107,33075,1,0,0:0:0:0:
177,149,33237,2,0,B|262:147|232:210|328:198,1,161.999995056153,0|0,1:0|0:0,0:0:0:0:
359,371,33721,1,2,0:0:0:0:
462,303,33882,2,0,P|468:261|476:213,1,80.9999975280763
398,88,34204,6,0,P|316:88|259:146,1,161.999995056153,0|0,1:0|0:0,0:0:0:0:
188,286,34688,1,0,0:0:0:0:
42,239,34850,2,0,P|79:216|122:205,1,80.9999975280763
358,218,35172,2,0,L|190:188,1,161.999995056153,0|0,1:0|0:0,0:0:0:0:
291,113,35656,5,0,1:0:0:0:
453,222,35817,1,0,1:0:0:0:
262,309,35979,1,0,1:0:0:0:
405,136,36140,1,2,1:2:0:0:
405,136,36463,6,0,P|363:132|319:127,1,80.9999975280763,2|0,0:0|0:0,0:0:0:0:
193,127,36785,1,2,0:0:0:0:
297,219,36946,1,0,0:0:0:0:
237,33,37108,2,0,P|184:23|96:87,1,161.999995056153,2|0,1:2|0:0,0:0:0:0:
47,278,37592,1,0,0:0:0:0:
151,235,37753,2,0,P|195:224|233:221,1,80.9999975280763,0|0,1:0|0:0,0:0:0:0:
432,354,38075,6,0,P|388:343|350:340,1,80.9999975280763,0|0,1:0|0:0,0:0:0:0:
295,219,38398,1,0,1:0:0:0:
440,175,38559,1,0,1:0:0:0:
494,276,38721,1,0,0:0:0:0:
349,153,38882,1,0,0:0:0:0:
475,26,39043,1,2,1:2:0:0:
200,162,39366,5,0,1:0:0:0:
224,275,39527,1,0,1:0:0:0:
371,244,39689,1,0,1:0:0:0:
233,166,39850,1,0,1:0:0:0:
96,320,40011,6,0,B|181:318|148:379|247:369,2,161.999995056153,0|2|0,1:0|0:0|0:0,0:0:0:0:
35,222,40817,1,0,0:0:0:0:
97,134,40979,2,0,P|113:89|120:41,1,80.9999975280763,0|0,1:0|0:0,0:0:0:0:
343,177,41301,2,0,P|350:216|364:254,1,80.9999975280763,0|0,1:0|0:0,0:0:0:0:
207,186,41624,1,0,0:0:0:0:
325,77,41785,1,0,0:0:0:0:
487,219,41946,6,0,P|421:173|331:182,1,161.999995056153,0|0,1:0|0:0,0:0:0:0:
163,320,42430,1,2,0:0:0:0:
151,217,42592,2,0,P|190:224|228:238,1,80.9999975280763,0|0,1:0|1:0,0:0:0:0:
434,334,42914,2,0,P|394:341|356:355,1,80.9999975280763,0|0,1:0|0:0,0:0:0:0:
242,147,43237,5,0,1:0:0:0:
327,254,43398,1,0,1:0:0:0:
385,97,43559,5,0,1:0:0:0:
238,11,43721,1,0,1:0:0:0:
436,201,43882,6,0,P|485:136|485:55,1,161.999995056153,0|0,1:0|0:0,0:0:0:0:
320,31,44366,1,0,0:0:0:0:
179,213,44527,2,0,P|217:200|250:176,1,80.9999975280763
385,97,44850,2,0,L|220:72,1,161.999995056153,0|0,1:0|0:0,0:0:0:0:
89,46,45333,1,0,0:0:0:0:
182,29,45495,2,0,L|164:120,1,80.9999975280763,2|0,0:0|0:0,0:0:0:0:
366,340,45817,6,0,P|318:282|234:258,1,161.999995056153,2|2,1:2|1:0,0:0:0:0:
166,108,46301,1,0,1:0:0:0:
364,248,46463,1,2,1:0:0:0:
154,283,46624,1,0,1:0:0:0:
365,95,46785,2,0,P|388:66|404:21,1,80.9999975280763,2|0,1:2|0:0,0:0:0:0:
217,27,47108,6,0,L|193:18,1,20.2499993820191,2|2,0:0|0:0,0:0:0:0:
194,57,47188,2,0,L|164:51,1,20.2499993820191,2|2,0:0|0:0,0:0:0:0:
207,94,47269,2,0,L|184:106,1,20.2499993820191,2|2,0:0|0:0,0:0:0:0:
244,105,47350,2,0,L|234:133,1,20.2499993820191,2|2,0:0|0:0,0:0:0:0:
275,82,47430,2,0,L|293:102,1,20.2499993820191,2|2,0:0|0:0,0:0:0:0:
275,43,47511,2,0,L|301:44,1,20.2499993820191,2|2,0:0|0:0,0:0:0:0:
242,19,47591,1,0,1:2:0:0:
53,299,47753,5,6,1:1:0:0:
53,299,47914,2,0,L|75:149,1,135,2|0,0:0|0:0,0:0:0:0:
81,120,48237,1,2,0:0:0:0:
328,259,48398,1,0,0:0:0:0:
225,353,48559,1,0,0:0:0:0:
172,183,48721,2,0,P|210:158|262:155,1,90,0|0,1:0|0:0,0:0:0:0:
367,172,49043,5,8,1:2:0:0:
512,281,49204,1,0,0:0:0:0:
460,141,49366,5,8,1:2:0:0:
256,276,49527,1,0,0:0:0:0:
438,231,49688,5,2,1:2:0:0:
379,88,49850,2,0,B|275:79|321:149|207:127,1,180,0|2,1:0|0:0,0:0:0:0:
16,199,50333,1,0,1:0:0:0:
96,85,50495,2,0,B|115:129|115:129|112:170,1,90,0|0,1:0|1:0,0:0:0:0:
323,288,50817,5,0,0:0:0:0:
172,355,50979,1,8,1:2:0:0:
219,224,51140,5,0,0:0:0:0:
432,327,51301,1,8,1:2:0:0:
215,193,51463,1,0,1:0:0:0:
212,166,51544,1,0,1:0:0:0:
210,140,51624,1,0,1:0:0:0:
359,160,51785,6,0,P|405:183|453:184,1,90,2|0,0:0|0:0,0:0:0:0:
442,185,52108,1,0,0:0:0:0:
281,97,52269,2,0,L|272:-16,1,90,2|0,0:0|0:0,0:0:0:0:
339,267,52592,5,2,1:2:0:0:
211,347,52753,1,0,0:0:0:0:
59,210,52914,5,10,1:2:0:0:
165,263,53075,1,0,0:0:0:0:
296,246,53237,5,10,1:2:0:0:
429,102,53398,1,0,0:0:0:0:
236,125,53559,5,2,1:2:0:0:
416,360,53721,2,0,L|432:216,1,135
441,184,54043,2,0,P|399:176|358:149,1,90,2|0,0:1|0:0,0:0:0:0:
259,90,54366,1,0,0:0:0:0:
73,215,54527,2,0,P|115:207|156:180,1,90,2|0,1:1|0:0,0:0:0:0:
361,129,54850,1,8,1:2:0:0:
365,102,54930,1,0,1:0:0:0:
369,75,55011,1,0,1:0:0:0:
280,227,55172,5,8,1:2:0:0:
445,314,55333,1,0,1:0:0:0:
445,314,55414,1,0,1:0:0:0:
445,314,55495,2,0,B|381:304|381:304|325:328|325:328|251:320,1,180,0|2,1:0|0:0,0:0:0:0:
180,205,55979,1,0,0:0:0:0:
49,348,56140,2,0,P|97:365|141:360,1,90
280,195,56463,6,0,P|287:144|306:13,1,180,0|8,1:0|1:2,0:0:0:0:
435,169,56946,1,0,0:0:0:0:
306,350,57108,1,0,1:2:0:0:
217,134,57269,1,0,0:0:0:0:
491,307,57430,6,0,P|416:259|299:274,1,180,0|10,1:0|1:2,0:0:0:0:
139,183,57914,1,0,0:0:0:0:
287,69,58075,2,0,P|304:117|299:161,1,90,2|0,1:0|0:0,0:0:0:0:
239,310,58398,6,0,P|188:303|57:284,1,180,2|8,1:0|1:2,0:0:0:0:
28,196,58882,1,0,1:0:0:0:
133,364,59043,1,8,1:2:0:0:
267,160,59205,1,0,1:2:0:0:
273,133,59285,1,0,1:0:0:0:
281,105,59366,6,0,B|300:12,1,90,0|2,1:0|0:0,0:0:0:0:
114,54,59688,1,2,0:0:0:0:
222,270,59850,1,0,0:0:0:0:
232,154,60011,1,0,0:0:0:0:
124,347,60172,1,0,1:0:0:0:
308,290,60333,5,0,1:0:0:0:
141,237,60495,1,2,0:0:0:0:
311,202,60656,5,10,1:2:0:0:
203,79,60817,1,0,1:0:0:0:
365,131,60979,5,8,1:2:0:0:
154,199,61140,1,0,1:0:0:0:
404,213,61301,5,8,1:2:0:0:
203,79,61463,1,0,1:0:0:0:
203,79,61785,6,0,P|274:68|317:14,1,135,2|0,0:0|0:0,0:0:0:0:
323,5,62108,1,2,1:2:0:0:
490,283,62269,6,0,P|433:218|339:200,1,180,4|0,1:0|1:0,0:0:0:0:
216,350,62753,1,0,1:0:0:0:
201,251,62914,5,2,1:2:0:0:
245,253,62994,1,2,0:0:0:0:
283,275,63075,1,2,1:2:0:0:
324,293,63155,1,2,0:0:0:0:
369,290,63237,6,2,P|441:243|438:73,1,251.999992309571,6|0,1:1|0:1,0:1:0:0:
289,65,64043,1,0,0:0:0:0:
129,193,64204,2,2,P|181:171|271:153,1,125.999996154785,2|0,1:2|0:1,0:1:0:0:
467,289,64688,1,0,0:0:0:0:
347,150,64850,2,2,P|332:178|321:207,1,62.9999980773926,2|0,1:1|0:1,0:1:0:0:
139,374,65172,6,2,P|209:318|376:345,1,251.999992309571,6|0,1:1|1:1,0:1:0:0:
469,384,65979,1,0,0:0:0:0:
362,334,66140,2,0,P|336:272|323:199,1,125.999996154785,2|0,1:0|0:0,0:0:0:0:
274,115,66624,1,0,1:0:0:0:
425,212,66785,1,2,1:0:0:0:
217,202,66946,1,0,1:0:0:0:
349,64,67108,6,2,P|392:48|475:29,1,125.999996154785,2|2,1:1|0:2,0:1:0:0:
510,135,67592,1,0,0:0:0:0:
331,270,67753,2,0,P|318:238|305:203,1,62.9999980773926
148,104,68075,6,2,B|278:103|209:209|372:193,1,251.999992309571,2|0,1:2|0:1,0:1:0:0:
333,105,68882,1,0,0:0:0:0:
162,211,69043,2,0,P|146:300|139:363,1,125.999996154785,0|0,1:0|0:0,0:0:0:0:
372,322,69527,5,0,0:0:0:0:
293,228,69688,1,0,0:0:0:0:
172,297,69850,1,0,0:0:0:0:
415,216,70011,2,0,P|377:209|344:207,1,62.9999980773926,2|0,1:2|0:0,0:0:0:0:
43,112,70333,5,0,1:2:0:0:
105,227,70495,1,0,1:2:0:0:
310,85,70656,5,0,1:2:0:0:
182,166,70817,1,0,1:2:0:0:
397,145,70979,6,2,B|347:139|316:107|316:107|263:143|263:143|226:116|150:126,1,251.999992309571,2|2,1:1|0:2,0:1:0:0:
170,123,71785,1,0,0:0:0:0:
272,287,71946,2,2,P|243:332|156:363,1,125.999996154785,2|0,1:2|0:1,0:1:0:0:
181,256,72430,1,0,0:0:0:0:
420,337,72592,2,0,P|391:312|378:289,1,62.9999980773926,2|0,1:2|0:0,0:0:0:0:
249,144,72914,6,2,P|290:109|428:123,1,188.999994232178,2|0,1:1|0:1,0:1:0:0:
351,193,73559,1,0,0:0:0:0:
74,329,73721,1,0,0:0:0:0:
167,305,73882,6,0,P|205:257|226:185,1,125.999996154785,0|0,1:0|1:0,0:0:0:0:
247,101,74366,1,0,1:0:0:0:
100,177,74527,1,0,1:0:0:0:
245,253,74688,1,0,1:0:0:0:
146,24,74850,1,0,1:0:0:0:
146,24,75172,6,0,L|109:27,2,31.4999990386963,2|0|0,0:0|0:0|0:0,0:0:0:0:
240,90,75495,2,0,L|312:81,1,62.9999980773926
392,154,75817,2,0,L|521:136,1,125.999996154785,2|0,1:2|0:0,0:0:0:0:
490,234,76301,1,0,0:0:0:0:
380,345,76463,6,0,P|324:355|246:323,2,125.999996154785,2|2|0,1:2|1:2|0:0,0:0:0:0:
251,232,77269,1,0,3:2:0:0:
119,260,77430,1,0,3:2:0:0:
47,361,77592,1,0,3:2:0:0:
181,338,77753,1,0,1:2:0:0:
315,163,78075,5,2,1:2:0:0:
464,253,78237,1,2,1:2:0:0:
251,232,78398,1,2,1:2:0:0:
365,71,78559,1,2,1:2:0:0:
365,71,78721,5,0,0:2:0:0:
458,328,87108,5,0,3:2:0:0:
440,327,87430,1,0,3:2:0:0:
78,257,88075,1,0,3:2:0:0:
92,252,88398,1,0,3:2:0:0:
322,23,90656,5,0,0:0:0:0:
265,73,90979,1,0,0:0:0:0:
259,148,91301,1,0,0:0:0:0:
305,208,91624,1,0,0:0:0:0:
333,278,91946,1,0,0:0:0:0:
278,330,92269,6,0,B|174:321|220:391|106:369,1,180,0|0,1:0|0:0,0:0:0:0:
92,363,93237,5,2,3:2:0:0:
79,354,93559,1,2,3:2:0:0:
220,207,93882,1,2,0:0:0:0:
89,55,94204,6,0,P|59:126|92:204,2,161.999995056153,6|0|0,1:2|0:0|0:0,0:0:0:0:
227,157,95010,1,0,0:0:0:0:
308,205,95172,2,0,B|393:203|363:266|459:254,1,161.999995056153,0|0,1:0|0:0,0:0:0:0:
439,165,95656,1,0,0:0:0:0:
314,298,95817,2,0,P|287:332|251:357,1,80.9999975280763
94,308,96140,6,0,P|72:267|48:145,1,161.999995056153,0|0,1:0|0:0,0:0:0:0:
221,157,96624,1,0,0:0:0:0:
48,155,96786,2,0,P|85:132|128:121,1,80.9999975280763
353,144,97108,2,0,P|415:120|468:30,1,161.999995056153,0|0,1:0|1:0,0:0:0:0:
259,96,97592,1,0,1:0:0:0:
412,282,97753,2,0,P|435:245|446:202,1,80.9999975280763,0|0,1:0|1:0,0:0:0:0:
359,35,98075,6,0,L|194:10,1,161.999995056153,0|0,1:0|0:0,0:0:0:0:
90,57,98559,1,0,0:0:0:0:
159,150,98721,2,0,P|171:198|176:231,1,80.9999975280763
266,349,99043,6,0,P|200:303|110:312,1,161.999995056153,0|0,1:0|0:0,0:0:0:0:
77,227,99527,1,0,0:0:0:0:
227,189,99688,2,0,P|281:181|323:175,1,80.9999975280763
456,318,100011,6,0,P|392:318|323:254,1,161.999995056153,0|0,1:0|0:0,0:0:0:0:
333,166,100495,1,0,0:0:0:0:
352,78,100656,1,0,0:0:0:0:
237,150,100817,1,0,0:0:0:0:
445,99,100979,2,0,L|468:-1,1,80.9999975280763,0|0,1:0|0:0,0:0:0:0:
228,59,101301,5,0,1:0:0:0:
464,182,101463,1,0,1:0:0:0:
238,227,101624,1,0,1:0:0:0:
435,384,101785,1,0,1:0:0:0:
435,300,101946,6,0,B|350:298|383:359|284:349,2,161.999995056153,0|2|0,1:0|0:0|0:0,0:0:0:0:
419,100,102753,1,0,0:0:0:0:
479,194,102914,2,0,P|423:140|332:126,1,161.999995056153,0|0,1:0|0:0,0:0:0:0:
165,76,103398,1,0,0:0:0:0:
283,209,103559,1,0,0:0:0:0:
216,326,103721,1,0,0:0:0:0:
54,223,103882,6,0,P|91:210|145:203,1,80.9999975280763,0|0,1:0|0:0,0:0:0:0:
317,181,104204,2,0,P|356:187|397:199,1,80.9999975280763,0|0,1:0|0:0,0:0:0:0:
384,318,104527,1,0,0:0:0:0:
219,151,104688,1,0,0:0:0:0:
420,298,104850,2,0,P|413:338|399:376,1,80.9999975280763,0|0,1:0|0:0,0:0:0:0:
237,264,105173,5,0,1:0:0:0:
339,176,105334,1,0,1:0:0:0:
182,118,105495,5,0,1:0:0:0:
96,265,105657,1,0,1:0:0:0:
286,67,105818,6,0,P|221:18|140:18,1,161.999995056153,0|0,1:0|0:0,0:0:0:0:
66,171,106301,1,0,0:0:0:0:
134,351,106463,2,0,P|166:330|189:278,1,80.9999975280763
326,180,106786,2,0,P|308:267|355:330,1,161.999995056153,0|0,1:0|0:0,0:0:0:0:
185,207,107269,1,0,0:0:0:0:
405,94,107430,2,0,L|325:81,1,80.9999975280763,2|0,0:0|0:0,0:0:0:0:
72,188,107752,6,0,P|117:124|204:106,1,161.999995056153,2|2,1:2|1:0,0:0:0:0:
447,234,108237,1,0,0:0:0:0:
344,356,108398,1,0,0:0:0:0:
179,190,108559,1,0,1:0:0:0:
397,199,108721,2,0,P|416:246|427:290,1,80.9999975280763,0|0,1:2|0:0,0:0:0:0:
243,341,109043,6,2,L|228:305,1,20.2499993820191
213,323,109124,2,2,L|201:299,1,20.2499993820191
175,297,109204,2,2,L|165:276,1,20.2499993820191
137,284,109285,2,2,L|115:261,1,20.2499993820191
97,279,109366,2,2,L|81:268,1,20.2499993820191
56,280,109446,2,2,L|37:273,1,20.2499993820191
21,293,109527,1,2,0:0:0:0:
245,235,109688,5,6,1:2:0:0:
123,18,109850,2,0,L|99:168,1,135
95,175,110172,2,0,L|203:162,1,90,2|0,1:1|0:0,0:0:0:0:
273,68,110495,1,2,0:0:0:0:
27,88,110656,2,0,L|127:77,1,90,2|0,1:0|0:0,0:0:0:0:
298,330,110979,5,8,1:2:0:0:
462,225,111140,1,0,0:0:0:0:
301,210,111301,5,8,1:2:0:0:
496,346,111463,1,0,0:0:0:0:
387,167,111624,5,6,1:2:0:0:
105,230,111785,2,0,P|176:221|234:259,1,135,2|0,0:1|0:0,0:0:0:0:
273,305,112108,2,0,L|286:206,1,90,2|0,1:1|0:0,0:0:0:0:
402,24,112431,1,2,0:2:0:0:
358,379,112592,2,0,L|369:279,1,90,2|0,1:0|0:0,0:0:0:0:
169,194,112914,5,8,1:2:0:0:
241,81,113075,1,0,0:0:0:0:
366,298,113237,5,8,1:2:0:0:
241,81,113398,2,0,L|236:24,2,45,0|0|0,1:0|1:0|1:0,1:0:0:0:
365,200,113721,6,0,L|341:382,2,180,2|0|0,0:0|0:0|0:0,0:0:0:0:
183,259,114527,1,0,1:0:0:0:
81,99,114688,1,2,0:0:0:0:
275,240,114850,5,8,1:2:0:0:
191,355,115011,1,0,1:0:0:0:
236,159,115172,5,8,1:2:0:0:
450,224,115333,1,0,1:0:0:0:
236,159,115495,5,2,1:2:0:0:
317,24,115656,2,0,P|349:68|356:110,1,90
308,296,115979,2,0,P|237:254|123:244,1,180,2|0,0:0|0:0,0:0:0:0:
190,354,116463,1,0,1:0:0:0:
386,248,116624,1,0,0:0:0:0:
252,73,116785,1,0,1:0:0:0:
252,73,116866,1,0,1:0:0:0:
252,73,116946,1,0,1:0:0:0:
151,266,117108,1,0,0:0:0:0:
387,151,117268,5,0,1:0:0:0:
387,151,117349,1,0,1:0:0:0:
387,151,117430,2,0,B|323:141|323:141|267:165|267:165|193:157,1,180,0|2,1:0|0:0,0:0:0:0:
54,178,117914,1,0,0:0:0:0:
193,331,118075,2,0,P|223:283|234:237,1,90
347,78,118398,6,0,P|418:42|524:57,1,180,2|8,1:2|1:2,0:0:0:0:
404,296,118882,1,0,0:0:0:0:
180,199,119043,2,0,P|232:183|282:178,1,90,8|0,1:2|0:0,0:0:0:0:
364,186,119366,6,0,P|474:155|516:88,1,180,6|0,1:2|0:0,0:0:0:0:
180,199,119850,1,0,0:0:0:0:
390,106,120011,2,0,P|338:90|288:85,1,90,8|0,1:2|0:0,0:0:0:0:
184,103,120334,6,0,P|74:72|32:5,1,180,6|8,1:2|1:2,0:0:0:0:
150,10,120817,1,0,0:0:0:0:
348,163,120979,1,8,1:2:0:0:
69,336,121140,6,0,L|23:328,2,45,0|0|0,1:0|1:0|1:0,0:0:0:0:
214,212,121463,1,0,0:0:0:0:
400,304,121624,1,2,0:0:0:0:
325,375,121785,6,0,P|309:323|304:273,1,90,2|0,1:2|0:0,0:0:0:0:
451,212,122108,6,0,L|497:204,2,45,0|0|0,1:0|1:0|1:0,0:0:0:0:
309,74,122431,1,0,0:0:0:0:
119,186,122592,1,2,0:0:0:0:
194,257,122753,6,0,P|210:205|215:155,1,90,2|0,1:2|0:0,0:0:0:0:
334,47,123237,5,2,0:0:0:0:
177,209,123559,1,0,0:0:0:0:
330,370,123882,1,0,0:0:0:0:
75,240,124204,2,0,L|68:189,1,45,2|0,0:2|0:0,0:0:0:0:
165,62,124527,6,2,L|190:41,1,22.5,6|0,0:0|0:0,0:0:0:0:
193,94,124608,2,2,L|226:71,1,22.5,2|0,0:0|0:0,0:0:0:0:
209,136,124688,2,2,L|237:121,1,22.5,2|0,0:0|0:0,0:0:0:0:
207,185,124769,2,2,L|239:174,1,22.5,2|0,0:0|0:0,0:0:0:0:
194,231,124850,2,2,L|226:232,1,22.5,2|0,0:0|0:0,0:0:0:0:
166,262,124930,2,2,L|209:266,1,22.5,2|0,0:0|0:0,0:0:0:0:
136,297,125011,1,0,1:0:0:0:
276,352,125172,5,6,1:2:0:0:
438,204,125333,2,0,P|374:189|321:106,1,135,2|0,1:2|0:0,0:0:0:0:
317,106,125656,1,0,0:0:0:0:
116,172,125817,1,2,0:0:0:0:
327,368,125979,1,0,0:0:0:0:
411,148,126140,5,0,1:0:0:0:
255,314,126301,1,0,0:0:0:0:
0,203,126463,5,8,1:2:0:0:
185,181,126624,1,0,0:0:0:0:
19,256,126785,5,8,1:2:0:0:
113,65,126946,1,0,0:0:0:0:
302,203,127108,5,0,1:0:0:0:
378,316,127269,2,0,L|393:168,1,135,2|0,2:0|0:0,0:0:0:0:
333,114,127592,2,0,P|383:89|430:89,2,90
232,307,128075,2,0,B|134:291|172:374|49:340,1,180,0|8,1:0|1:2,0:0:0:0:
24,162,128559,1,0,1:0:0:0:
232,307,128721,1,8,1:2:0:0:
34,265,128882,6,0,L|79:257,1,45,0|0,1:0|1:0,0:0:0:0:
170,170,129043,1,0,1:0:0:0:
377,257,129204,2,0,P|305:228|281:156,1,135
274,137,129527,1,2,0:0:0:0:
359,39,129688,2,0,P|307:16|262:16,1,90
156,178,130011,5,0,1:2:0:0:
371,192,130172,1,0,0:0:0:0:
236,82,130333,5,8,1:2:0:0:
69,206,130495,1,0,0:0:0:0:
296,181,130656,5,8,1:2:0:0:
77,81,130817,1,0,0:0:0:0:
153,275,130979,5,0,1:2:0:0:
205,28,131140,2,0,L|192:176,1,135
197,262,131463,2,0,P|154:250|97:249,1,90,2|0,0:0|0:0,0:0:0:0:
233,147,131785,1,0,0:0:0:0:
379,78,131946,2,0,P|422:69|482:71,1,90,0|0,1:0|0:0,0:0:0:0:
504,284,132269,2,0,L|495:337,3,30,0|0|0|0,1:0|1:0|1:0|0:0,0:0:0:0:
434,161,132592,1,0,1:0:0:0:
323,199,132753,5,0,1:2:0:0:
323,199,132833,1,0,1:0:0:0:
323,199,132914,2,0,L|519:177,1,180,0|2,1:0|0:1,0:0:0:0:
501,178,133398,1,0,0:0:0:0:
350,65,133559,1,2,0:1:0:0:
214,277,133721,1,0,0:0:0:0:
420,195,133882,2,0,L|424:97,1,90,6|0,1:2|0:0,0:0:0:0:
272,91,134204,5,8,1:2:0:0:
96,135,134366,1,2,0:0:0:0:
214,277,134527,5,8,1:2:0:0:
351,139,134688,1,2,0:0:0:0:
208,32,134850,6,0,P|193:110|264:180,1,180,2|2,1:2|0:1,0:0:0:0:
311,305,135333,1,0,0:0:0:0:
412,260,135495,2,0,B|456:248|456:248|512:263,1,90,2|0,0:1|0:0,0:0:0:0:
337,134,135817,6,0,P|414:81|513:103,1,180,2|0,1:2|1:0,0:0:0:0:
484,243,136301,1,0,0:0:0:0:
365,355,136463,1,2,1:2:0:0:
143,351,136624,5,0,1:0:0:0:
114,348,136704,1,0,1:0:0:0:
87,345,136785,1,0,1:0:0:0:
227,217,136946,1,0,0:0:0:0:
66,91,137108,2,0,P|70:143|74:188,1,90,2|0,0:0|0:0,0:0:0:0:
283,364,137430,2,0,P|287:312|291:267,1,90,2|0,0:0|0:0,0:0:0:0:
329,122,137753,5,2,1:2:0:0:
227,93,137914,1,0,0:0:0:0:
366,18,138075,5,8,1:2:0:0:
203,83,138237,1,0,0:0:0:0:
141,224,138398,5,8,1:2:0:0:
176,71,138559,1,0,0:0:0:0:
80,132,138721,6,0,P|92:196|107:317,1,180,2|0,1:2|0:0,0:0:0:0:
249,316,139204,1,0,0:0:0:0:
370,240,139366,2,0,P|418:230|463:225,1,90
512,349,139688,2,0,P|464:339|419:334,1,90,0|0,1:0|0:0,0:0:0:0:
188,90,140011,6,0,L|175:39,2,45,2|0|0,1:0|1:0|1:0,0:0:0:0:
271,268,140333,1,2,1:2:0:0:
313,255,140414,1,2,1:0:0:0:
340,218,140495,1,2,1:2:0:0:
346,173,140575,1,2,1:0:0:0:
324,132,140656,6,0,B|226:116|264:199|141:165,1,180,4|0,1:0|0:0,0:0:0:0:
46,115,141140,2,0,P|61:157|72:209,1,90,2|0,0:0|0:0,0:0:0:0:
181,356,141463,1,0,0:0:0:0:
316,288,141624,2,0,P|378:262|493:241,1,180,0|0,1:0|1:0,0:0:0:0:
378,384,142108,1,0,0:0:0:0:
196,262,142269,5,0,1:0:0:0:
415,309,142430,1,0,0:0:0:0:
286,200,142592,6,0,P|260:138|239:23,1,180,0|0,1:0|0:0,0:0:0:0:
378,0,143075,2,0,P|362:43|353:87,1,90,2|0,0:0|0:0,0:0:0:0:
191,119,143398,1,0,0:0:0:0:
302,253,143559,2,0,P|240:227|125:206,1,180,0|8,1:0|1:2,0:0:0:0:
17,270,144043,1,0,0:0:0:0:
253,186,144204,1,8,1:2:0:0:
103,121,144366,5,0,1:0:0:0:
103,121,144446,1,0,1:0:0:0:
103,121,144527,2,0,P|114:179|132:209,1,90,0|0,1:0|0:0,0:0:0:0:
261,345,144850,1,0,0:0:0:0:
399,271,145011,2,0,P|443:263|496:260,1,90,2|0,0:0|0:0,0:0:0:0:
497,56,145333,1,0,0:0:0:0:
442,118,145495,6,0,P|342:117|275:52,1,180,0|8,1:0|1:2,0:0:0:0:
135,187,145979,1,0,1:0:0:0:
259,105,146140,1,8,1:2:0:0:
390,245,146301,1,0,1:0:0:0:
135,187,146463,2,0,P|205:178|239:180,1,90,0|0,1:0|0:0,0:0:0:0:
356,203,146785,5,2,0:0:0:0:
462,124,146946,2,0,P|478:74|483:30,1,90
220,135,147269,1,0,0:0:0:0:
348,335,147430,5,2,1:0:0:0:
324,158,147592,1,0,0:0:0:0:
107,244,147753,1,0,1:0:0:0:
131,241,147833,1,0,1:0:0:0:
153,240,147914,1,0,1:0:0:0:
414,219,148075,1,0,1:0:0:0:
277,66,148237,5,0,1:0:0:0:
277,66,148317,1,0,1:0:0:0:
277,66,148398,2,0,P|222:136|258:232,1,180,0|2,1:0|0:0,0:0:0:0:
365,191,148882,1,0,0:0:0:0:
511,347,149043,1,2,0:0:0:0:
317,284,149204,1,0,0:0:0:0:
477,133,149366,6,0,P|471:186|467:230,1,90,2|0,1:0|0:0,0:0:0:0:
270,374,149688,5,8,1:2:0:0:
96,261,149850,1,0,0:0:0:0:
298,254,150011,5,8,1:2:0:0:
119,270,150172,1,0,0:0:0:0:
165,73,150333,6,0,B|263:57|225:140|348:106,1,180,2|0,1:2|0:0,0:0:0:0:
403,197,150817,1,0,0:0:0:0:
266,341,150979,2,0,P|240:296|234:250,1,90,2|0,0:2|0:0,0:0:0:0:
403,197,151301,6,0,P|429:135|450:20,1,180,0|8,1:0|1:2,0:0:0:0:
186,57,151785,1,0,1:0:0:0:
294,235,151946,1,8,1:2:0:0:
370,73,152108,5,0,1:0:0:0:
346,69,152188,1,0,1:0:0:0:
324,66,152269,1,0,1:0:0:0:
154,169,152430,1,2,0:0:0:0:
387,333,152592,5,2,0:0:0:0:
305,174,152753,1,2,0:0:0:0:
97,306,152914,1,2,0:0:0:0:
278,291,153075,1,2,0:0:0:0:
435,48,153237,5,0,1:0:0:0:
402,272,153398,1,2,0:0:0:0:
223,209,153559,5,8,1:2:0:0:
358,158,153721,1,0,1:0:0:0:
462,261,153882,1,8,1:2:0:0:
324,324,154043,1,0,1:0:0:0:
230,157,154204,5,2,1:0:0:0:
293,76,154366,2,0,P|383:59|458:106,2,180,2|2|2,0:2|0:0|1:2,0:0:0:0:
146,249,155172,2,0,P|72:212|101:136,1,180,2|8,1:2|1:2,0:0:0:0:
210,129,155656,1,0,1:0:0:0:
369,219,155817,1,8,1:2:0:0:
281,362,155979,5,0,1:0:0:0:
281,362,156059,1,0,1:0:0:0:
281,362,156140,2,0,L|265:181,1,180,0|2,1:0|1:0,0:0:0:0:
412,126,156624,2,0,P|426:68|430:34,1,90,2|0,0:2|0:0,0:0:0:0:
211,220,156946,1,2,1:2:0:0:
399,295,157108,2,0,P|359:270|317:253,1,90,2|0,1:0|0:0,0:0:0:0:
247,134,157430,5,8,1:2:0:0:
112,225,157592,1,0,0:0:0:0:
295,290,157753,5,8,1:2:0:0:
141,368,157914,1,0,0:0:0:0:
243,371,158075,6,0,L|264:182,1,180,0|2,1:0|0:0,0:0:0:0:
101,141,158559,2,0,P|86:103|76:54,1,90
251,48,158881,1,0,0:0:0:0:
382,170,159043,2,0,P|344:148|288:135,1,90,0|0,1:0|0:0,0:0:0:0:
128,215,159365,5,0,1:2:0:0:
203,136,159527,1,0,1:0:0:0:
241,264,159688,5,0,1:2:0:0:
318,183,159850,1,0,1:0:0:0:
318,183,159930,1,0,1:0:0:0:
318,183,160011,6,0,L|512:161,1,180,0|2,1:0|0:0,0:0:0:0:
426,42,160495,2,0,L|329:52,1,90,2|0,0:0|0:0,0:0:0:0:
131,222,160817,1,0,0:0:0:0:
335,162,160979,6,0,P|264:195|239:287,1,180,2|8,1:0|1:2,0:0:0:0:
347,264,161463,1,0,1:2:0:0:
223,156,161624,1,8,1:2:0:0:
55,317,161785,1,0,1:2:0:0:
216,195,161946,6,0,P|234:131|239:12,1,180,2|0,1:0|0:0,0:0:0:0:
241,12,162430,1,0,0:0:0:0:
300,262,162592,1,8,1:2:0:0:
465,184,162753,1,0,1:2:0:0:
365,178,162914,2,0,P|347:242|342:361,1,180,2|0,1:0|1:0,0:0:0:0:
144,282,163398,5,0,1:0:0:0:
187,287,163479,1,0,1:0:0:0:
219,302,163559,1,0,1:0:0:0:
236,323,163640,1,0,1:0:0:0:
245,338,163721,1,0,1:0:0:0:
256,364,163801,1,0,1:0:0:0:
262,380,163882,2,0,L|255:184,1,180,0|2,1:0|0:0,0:0:0:0:
375,120,164366,5,0,0:0:0:0:
354,225,164527,2,0,P|308:199|288:158,1,90
288,59,164850,2,0,P|366:74|450:12,1,180,2|8,1:0|1:2,0:0:0:0:
470,236,165333,1,0,1:0:0:0:
290,282,165495,2,0,P|313:244|353:224,1,90,8|0,1:2|1:0,0:0:0:0:
228,89,165817,6,0,P|243:167|181:251,1,180,2|0,1:0|0:0,0:0:0:0:
206,292,166301,2,0,B|108:276|146:359|23:325,1,180,2|0,0:1|0:0,0:0:0:0:
277,360,166785,5,2,1:0:0:0:
371,301,166946,1,0,1:0:0:0:
179,319,167108,5,2,1:0:0:0:
359,175,167269,1,0,1:0:0:0:
188,227,167430,5,2,1:0:0:0:
463,141,167591,1,0,1:0:0:0:
473,114,167672,1,0,1:0:0:0:
483,84,167753,2,0,L|466:265,1,180
267,377,168237,1,2,0:0:0:0:
357,355,168398,5,0,1:0:0:0:
356,337,168479,1,0,1:0:0:0:
356,320,168559,1,0,1:0:0:0:
356,302,168640,1,0,1:0:0:0:
356,284,168721,2,0,L|351:104,1,180,2|8,1:0|1:2,0:0:0:0:
351,104,169204,1,0,1:2:0:0:
275,287,169366,1,8,1:2:0:0:
147,142,169527,1,0,1:2:0:0:
361,192,169688,5,2,1:0:0:0:
128,248,169850,2,0,P|173:245|223:219,1,90,2|0,0:0|0:0,0:0:0:0:
361,192,170172,2,0,P|316:189|266:163,1,90,2|0,0:0|0:0,0:0:0:0:
147,142,170495,1,2,1:2:0:0:
343,111,170656,6,0,P|409:102|506:41,1,180,2|8,1:0|1:2,0:0:0:0:
310,14,171140,1,0,1:0:0:0:
240,214,171301,5,8,1:2:0:0:
369,209,171463,1,0,1:2:0:0:
61,272,171624,5,2,0:0:0:0:
76,262,171946,1,2,0:0:0:0:
387,243,172592,1,2,0:0:0:0:
369,237,172914,1,2,0:0:0:0:
144,148,173559,5,2,0:0:0:0:
162,148,173882,1,2,0:0:0:0:
431,59,174527,1,2,0:0:0:0:
413,55,174850,1,2,0:0:0:0:
