osu file format v14

[General]
AudioFilename: audio.mp3
AudioLeadIn: 0
PreviewTime: 47430
Countdown: 0
SampleSet: Soft
StackLeniency: 0.4
Mode: 0
LetterboxInBreaks: 0
WidescreenStoryboard: 1

[Editor]
Bookmarks: 15817,18237,32269,36140,40011,43882,47753,55495,63237,78721,94204,98075,101946,105817,109688,117430,123237,125172,140656,171624
DistanceSpacing: 1.1
BeatDivisor: 4
GridSize: 4
TimelineZoom: 1.9

[Metadata]
Title:Usotsuki
TitleUnicode:嘘月
Artist:yanaginagi
ArtistUnicode:やなぎなぎ
Creator:chaser01
Version:Normal
Source:
Tags:japanese pop resahc heanday searasp lunala ameth fsjallink
BeatmapID:4214436
BeatmapSetID:2012683

[Difficulty]
HPDrainRate:3
CircleSize:3.6
OverallDifficulty:5
ApproachRate:5
SliderMultiplier:1.1
SliderTickRate:1

[Events]
//Background and Video events
0,0,"Konachan.com - 272983 sample.jpg",0,0
//Break Periods
2,78920,85908
//Storyboard Layer 0 (Background)
//Storyboard Layer 1 (Fail)
//Storyboard Layer 2 (Pass)
//Storyboard Layer 3 (Foreground)
//Storyboard Layer 4 (Overlay)
//Storyboard Sound Samples

[TimingPoints]
334,322.58064516129,3,2,1,40,1,0
15817,-133.333333333333,3,2,1,40,0,0
29366,-133.333333333333,3,2,1,30,0,0
29527,-133.333333333333,3,2,1,5,0,0
29688,-133.333333333333,3,2,1,35,0,0
29850,-133.333333333333,3,2,1,5,0,0
30011,-133.333333333333,3,2,1,40,0,0
30172,-133.333333333333,3,2,1,5,0,0
30333,-133.333333333333,3,2,1,45,0,0
30495,-133.333333333333,3,2,1,5,0,0
30656,-133.333333333333,3,2,1,50,0,0
30817,-133.333333333333,3,2,1,5,0,0
30979,-133.333333333333,3,2,1,55,0,0
31140,-133.333333333333,3,2,1,5,0,0
31301,-133.333333333333,3,2,1,60,0,0
31463,-133.333333333333,3,2,1,5,0,0
31624,-133.333333333333,3,2,1,65,0,0
31785,-133.333333333333,3,2,1,5,0,0
31946,-133.333333333333,3,2,1,70,0,0
32108,-133.333333333333,3,2,1,5,0,0
32269,-117.647058823529,3,3,1,60,0,0
47753,-105.263157894737,3,3,1,65,0,1
63237,-117.647058823529,3,2,1,55,0,0
78721,-133.333333333333,3,2,1,55,0,0
92269,-133.333333333333,3,2,1,45,0,0
94204,-117.647058823529,3,3,1,60,0,0
109688,-105.263157894737,3,3,1,65,0,1
123237,-105.263157894737,3,3,1,55,0,1
123559,-105.263157894737,3,3,1,25,0,1
123640,-105.263157894737,3,3,1,5,0,1
124527,-105.263157894737,3,3,1,60,0,1
125172,-105.263157894737,3,3,1,65,0,1
140656,-105.263157894737,3,3,1,65,0,0
171624,-105.263157894737,3,2,1,45,0,0

[Colours]
Combo1 : 253,169,151
Combo2 : 250,240,201
Combo3 : 185,255,233
Combo4 : 193,241,253
Combo5 : 172,203,234

[HitObjects]
131,293,15817,5,4,0:1:0:0:
403,288,16785,1,2,3:2:0:0:
270,50,17753,2,0,P|259:109|264:188,2,123.750004720688,2|0|2,0:0|0:0|0:0,0:0:0:0:
453,251,19688,6,0,L|197:277,1,247.500009441376,2|2,3:2|3:2,0:0:0:0:
12,85,21624,2,0,L|151:96,2,123.750004720688,2|0|2,0:0|0:0|0:0,0:0:0:0:
12,85,23559,1,6,3:2:0:0:
49,262,24204,5,2,0:0:0:0:
138,279,24527,1,0,3:0:0:0:
310,334,25172,1,2,0:0:0:0:
399,318,25495,1,0,3:0:0:0:
399,318,27108,5,0,3:0:0:0:
444,239,27430,2,0,P|430:154|276:115,2,247.500009441376,4|6|6,0:0|0:0|3:2,0:0:0:0:
256,192,29688,12,6,32269,1:3:0:0:
256,192,33075,5,2,0:2:0:0:
256,192,33237,2,0,P|290:146|425:151,1,187.000003566742,0|0,1:0|0:0,0:0:0:0:
351,224,34204,2,0,L|333:276,1,46.7500008916855,0|2,1:0|0:2,0:0:0:0:
251,327,34688,2,0,P|180:331|98:314,1,140.250002675056,2|4,0:2|1:2,0:0:0:0:
37,246,35495,2,0,L|43:181,1,46.7500008916855,0|0,0:0|1:0,0:0:0:0:
35,148,35817,2,0,L|44:89,1,46.7500008916855,2|0,1:2|1:0,0:0:0:0:
74,61,36140,6,0,B|157:52|133:77|224:61,1,140.250002675056,4|0,1:0|0:0,0:0:0:0:
314,41,36946,2,0,L|370:43,1,46.7500008916855,2|0,1:2|1:0,0:0:0:0:
463,46,37430,1,2,1:2:0:0:
463,148,37753,1,0,1:2:0:0:
360,147,38075,2,0,B|237:163|271:207|119:218,1,233.750004458427,4|2,1:2|0:2,0:0:0:0:
87,219,39043,1,0,1:0:0:0:
34,307,39366,1,2,0:2:0:0:
124,354,39688,2,0,L|181:351,1,46.7500008916855,2|0,1:2|1:0,0:0:0:0:
221,342,40011,6,0,P|274:284|255:124,1,233.750004458427,4|2,1:0|0:2,0:0:0:0:
218,114,40979,2,0,P|304:54|438:66,1,233.750004458427,0|0,1:0|2:0,0:0:0:0:
471,89,41946,2,0,L|469:162,2,70.1250013375282,4|0|0,1:2|0:0|1:0,0:0:0:0:
321,50,42914,1,2,1:2:0:0:
218,60,43237,2,0,L|155:66,1,46.7500008916855,0|0,1:0|1:0,0:0:0:0:
125,86,43559,2,0,L|60:92,1,46.7500008916855,2|0,1:2|0:0,0:0:0:0:
30,109,43882,5,4,1:0:0:0:
258,316,44850,1,0,1:0:0:0:
427,58,45817,1,4,1:2:0:0:
256,192,45979,12,6,47108,0:2:0:0:
255,192,47753,6,0,L|242:256,1,52.2499986047745,6|2,1:3|1:2,0:0:0:0:
143,298,48237,2,0,L|81:293,1,52.2499986047745,2|2,1:2|0:1,0:0:0:0:
40,277,48560,1,2,1:2:0:0:
40,277,48721,2,0,P|29:231|45:160,2,104.499997209549,0|10|10,1:0|1:0|1:0,0:0:0:0:
144,226,49688,5,4,1:0:0:0:
144,226,49850,1,0,1:0:0:0:
240,288,50172,2,0,L|360:305,1,104.499997209549,0|2,1:0|0:2,0:0:0:0:
399,283,50656,2,0,P|433:278|472:262,1,52.2499986047745,2|0,1:0|1:0,0:0:0:0:
490,231,50979,1,8,1:2:0:0:
472,117,51301,2,0,L|419:69,1,52.2499986047745,8|0,1:2|0:0,0:0:0:0:
391,50,51624,5,4,1:0:0:0:
391,50,51785,2,0,L|279:58,2,104.499997209549,2|0|0,1:2|1:0|0:0,0:0:0:0:
393,108,52592,1,2,1:2:0:0:
303,179,52914,1,2,1:0:0:0:
204,119,53237,1,2,1:0:0:0:
95,146,53559,5,6,1:0:0:0:
95,146,53721,2,0,P|76:200|77:266,1,104.499997209549,0|0,0:0|1:0,0:0:0:0:
103,358,54366,2,0,L|171:353,1,52.2499986047745,0|8,1:0|1:2,0:0:0:0:
214,371,54688,1,2,0:2:0:0:
214,371,54850,2,0,L|335:364,1,104.499997209549,8|2,1:2|1:2,0:0:0:0:
375,373,55333,1,2,1:2:0:0:
375,373,55495,6,0,P|464:313|433:164,1,261.249993023873,4|2,1:0|0:2,0:0:0:0:
389,190,56463,1,2,1:0:0:0:
302,264,56785,1,0,1:0:0:0:
187,271,57108,1,8,1:0:0:0:
75,244,57430,2,0,P|27:143|113:22,1,261.249993023873,6|0,1:0|1:0,0:0:0:0:
159,23,58398,1,2,1:0:0:0:
258,81,58721,1,8,1:2:0:0:
369,52,59043,1,8,1:2:0:0:
464,115,59366,5,4,1:0:0:0:
388,201,59688,2,0,L|322:196,1,52.2499986047745,0|2,1:0|0:2,0:0:0:0:
278,204,60011,2,0,L|207:200,1,52.2499986047745,2|2,1:2|0:2,0:0:0:0:
172,211,60333,1,2,1:0:0:0:
172,211,60495,2,0,L|10:205,1,156.749995814324,0|2,0:0|1:2,0:0:0:0:
61,310,61301,5,4,1:2:0:0:
61,310,61463,2,0,L|183:314,2,104.499997209549,2|0|2,1:2|1:0|1:2,0:0:0:0:
40,256,62269,1,4,1:0:0:0:
52,141,62592,2,0,L|99:84,1,52.2499986047745,2|0,0:2|0:0,0:0:0:0:
133,69,62914,2,0,L|202:50,1,52.2499986047745,2|2,1:2|0:2,0:0:0:0:
240,45,63237,5,6,1:3:0:0:
442,101,63882,1,0,0:0:0:0:
442,101,64204,1,0,0:0:0:0:
277,223,64850,1,0,0:0:0:0:
277,223,65171,1,2,0:0:0:0:
224,28,65817,1,0,0:0:0:0:
224,28,66140,1,2,1:2:0:0:
224,28,66463,2,0,L|286:37,1,46.7500008916855
314,60,66785,2,0,L|379:73,1,46.7500008916855
386,113,67108,5,6,1:3:0:0:
218,232,67753,1,0,0:0:0:0:
218,232,68075,1,0,0:0:0:0:
224,28,68721,1,0,0:0:0:0:
224,28,69042,1,2,0:0:0:0:
410,106,69688,1,0,0:0:0:0:
410,106,70011,1,2,1:2:0:0:
410,106,70334,2,0,L|364:149,1,46.7500008916855
336,170,70656,2,0,L|285:213,1,46.7500008916855
261,234,70979,5,6,1:3:0:0:
194,36,71624,1,0,0:0:0:0:
194,36,71946,1,0,0:0:0:0:
388,104,72592,1,0,0:0:0:0:
388,104,72913,1,2,0:0:0:0:
256,257,73559,1,0,0:0:0:0:
256,257,73882,1,2,1:2:0:0:
256,257,74205,2,0,L|228:200,1,46.7500008916855
197,180,74527,2,0,L|171:118,1,46.7500008916855
146,96,74850,5,6,1:3:0:0:
352,57,75495,1,0,0:0:0:0:
352,57,75817,1,0,0:0:0:0:
257,239,76463,1,0,0:0:0:0:
257,239,76784,1,2,0:0:0:0:
124,87,77430,1,0,0:0:0:0:
124,87,77753,1,2,1:2:0:0:
124,87,78076,2,0,L|183:67,1,46.7500008916855
219,77,78398,2,0,L|283:60,2,46.7500008916855
447,35,87108,5,0,0:0:0:0:
360,58,87430,1,0,0:0:0:0:
183,100,88075,1,0,0:0:0:0:
93,86,88398,1,0,0:0:0:0:
93,86,90656,5,0,0:0:0:0:
454,54,91946,1,0,0:0:0:0:
256,192,92269,12,6,94204,1:3:0:0:
256,192,95011,5,0,3:0:0:0:
256,192,95173,2,0,P|222:238|87:233,1,187.000003566742,2|0,1:2|1:0,0:0:0:0:
161,160,96140,2,0,L|179:108,1,46.7500008916855,4|2,1:2|0:2,0:0:0:0:
276,90,96624,2,0,P|351:135|365:196,1,140.250002675057,2|4,0:2|1:2,0:0:0:0:
307,267,97430,1,0,1:0:0:0:
207,280,97753,2,0,L|147:279,1,46.7500008916855,2|0,1:2|1:0,0:0:0:0:
121,313,98075,6,0,P|177:363|291:358,1,187.000003566742,4|2,1:0|0:2,0:0:0:0:
333,345,98882,2,0,L|392:338,1,46.7500008916855,0|0,0:0|1:0,0:0:0:0:
481,325,99366,1,0,1:0:0:0:
478,222,99689,1,2,1:2:0:0:
375,232,100011,2,0,P|305:269|155:231,1,233.750004458428,4|2,1:2|1:2,0:0:0:0:
124,199,100979,1,2,1:3:0:0:
80,105,101302,1,2,0:2:0:0:
135,18,101624,2,0,L|192:21,1,46.7500008916855,2|0,1:2|1:0,0:0:0:0:
228,41,101947,6,0,L|270:285,1,233.750004458428,4|2,1:0|0:2,0:0:0:0:
304,306,102914,2,0,L|366:68,1,233.750004458428,0|2,1:0|0:2,0:0:0:0:
413,67,103882,2,0,L|432:140,2,70.1250013375283,4|0|0,1:2|0:0|1:0,0:0:0:0:
262,32,104850,1,2,1:2:0:0:
175,88,105173,2,0,L|164:142,1,46.7500008916855,0|0,1:0|1:0,0:0:0:0:
120,157,105495,2,0,L|103:215,1,46.7500008916855,2|0,1:2|0:0,0:0:0:0:
65,233,105818,5,4,1:0:0:0:
324,66,106786,1,2,1:2:0:0:
387,367,107753,1,4,1:2:0:0:
256,192,107915,12,6,109044,0:2:0:0:
256,192,109688,6,0,L|186:185,1,52.2499986047745,6|2,1:3|1:2,0:0:0:0:
195,301,110172,2,0,L|246:306,1,52.2499986047745,2|2,1:2|0:1,0:0:0:0:
301,338,110495,1,2,0:2:0:0:
301,338,110656,2,0,P|347:348|417:330,1,104.499997209549,4|10,1:0|1:0,0:0:0:0:
495,270,111301,1,10,1:0:0:0:
471,162,111623,5,4,1:0:0:0:
471,162,111785,2,0,P|423:139|350:141,1,104.499997209549,0|0,1:0|1:0,0:0:0:0:
282,208,112430,1,2,0:2:0:0:
282,208,112592,1,2,1:0:0:0:
181,262,112914,2,0,L|107:249,1,52.2499986047745,8|2,1:2|0:2,0:0:0:0:
74,236,113237,2,0,L|53:175,1,52.2499986047745,8|0,1:2|0:0,0:0:0:0:
20,149,113559,5,4,1:0:0:0:
20,149,113720,2,0,L|42:45,2,104.499997209549,2|0|0,0:2|0:0|1:0,0:0:0:0:
10,206,114527,1,2,1:2:0:0:
48,313,114849,1,2,1:0:0:0:
154,356,115172,1,2,1:0:0:0:
271,341,115495,5,6,1:0:0:0:
271,341,115656,2,0,P|290:287|289:221,1,104.499997209549,0|0,0:0|1:0,0:0:0:0:
202,167,116301,2,0,L|271:151,1,52.2499986047745,0|8,1:0|1:2,0:0:0:0:
303,125,116623,1,2,0:2:0:0:
303,125,116785,2,0,L|422:100,1,104.499997209549,8|2,1:2|1:2,0:0:0:0:
457,75,117268,1,2,1:2:0:0:
457,75,117430,6,0,P|507:169|410:286,1,261.249993023873,4|0,1:0|0:0,0:0:0:0:
369,297,118398,1,2,1:0:0:0:
261,257,118720,1,2,0:2:0:0:
182,341,119043,1,2,1:0:0:0:
81,285,119366,6,0,P|0:190|49:76,1,261.249993023873,6|0,1:0|1:0,0:0:0:0:
99,48,120333,1,2,1:0:0:0:
195,110,120656,1,8,1:2:0:0:
280,33,120978,1,8,1:2:0:0:
356,119,121301,5,6,1:2:0:0:
279,204,121623,2,0,L|221:212,1,52.2499986047745,0|2,1:0|1:0,0:0:0:0:
171,225,121946,2,0,L|102:237,1,52.2499986047745,0|0,0:0|1:0,0:0:0:0:
63,249,122269,1,6,1:2:0:0:
161,309,122592,2,0,L|219:317,1,52.2499986047745,0|2,1:0|1:0,0:0:0:0:
269,330,122915,2,0,L|338:342,1,52.2499986047745,2|0,0:2|0:0,0:0:0:0:
377,354,123238,1,2,0:3:0:0:
377,354,124527,5,6,0:2:0:0:
377,354,124688,2,0,L|383:286,1,52.2499986047745,2|2,0:2|0:2,0:0:0:0:
394,245,125011,1,2,0:2:0:0:
394,245,125172,2,0,L|401:172,1,52.2499986047745,6|2,1:3|1:2,0:0:0:0:
340,93,125656,2,0,P|296:88|266:94,1,52.2499986047745,0|2,1:0|1:0,0:0:0:0:
237,116,125979,1,2,1:2:0:0:
237,116,126140,2,0,P|192:122|124:115,1,104.499997209549,4|10,1:0|1:0,0:0:0:0:
26,161,126785,1,10,1:0:0:0:
81,261,127108,5,4,1:0:0:0:
81,261,127269,2,0,P|139:248|208:249,1,104.499997209549,0|0,1:0|1:0,0:0:0:0:
286,309,127914,1,2,0:2:0:0:
286,309,128075,2,0,L|358:310,1,52.2499986047745,2|0,1:0|1:0,0:0:0:0:
394,297,128398,2,0,L|459:272,1,52.2499986047745,8|0,1:2|0:0,0:0:0:0:
475,230,128721,2,0,L|485:166,1,52.2499986047745,8|2,1:2|0:2,0:0:0:0:
480,121,129043,6,0,L|465:50,1,52.2499986047745,4|2,1:0|1:2,0:0:0:0:
373,133,129527,2,0,P|325:160|266:164,1,104.499997209549,0|0,1:0|0:0,0:0:0:0:
218,166,130011,1,2,1:2:0:0:
303,242,130333,1,2,1:0:0:0:
191,270,130656,1,2,1:0:0:0:
278,344,130979,1,6,1:0:0:0:
278,344,131140,2,0,P|351:337|388:301,2,104.499997209549,0|0|0,0:0|1:0|1:0,0:0:0:0:
222,329,131946,2,0,L|158:312,1,52.2499986047745,8|2,1:2|0:2,0:0:0:0:
118,292,132269,2,0,P|65:251|54:203,1,104.499997209549,8|2,1:2|1:2,0:0:0:0:
61,159,132753,1,2,1:2:0:0:
61,159,132914,1,4,1:0:0:0:
254,35,133559,5,0,1:0:0:0:
367,56,133882,1,2,1:0:0:0:
185,196,134527,1,10,1:0:0:0:
67,209,134850,1,6,1:2:0:0:
443,301,136301,2,0,L|511:290,2,52.2499986047745,0|8|2,0:0|1:2|1:2,0:0:0:0:
397,336,136785,6,0,L|329:346,1,52.2499986047745,4|2,1:0|1:2,0:0:0:0:
294,370,137108,2,0,P|260:337|262:260,1,104.499997209549,2|2,1:0|1:0,0:0:0:0:
284,171,137753,2,0,L|302:99,1,52.2499986047745,6|0,1:2|1:0,0:0:0:0:
291,63,138075,1,8,1:2:0:0:
291,63,138237,2,0,P|222:35|180:41,1,104.499997209549,0|2,0:0|0:2,0:0:0:0:
136,42,138721,1,6,1:2:0:0:
15,364,139688,1,0,1:0:0:0:
128,347,140011,2,0,L|236:329,1,104.499997209549,6|2,0:2|1:2,0:0:0:0:
287,316,140495,1,2,1:2:0:0:
287,316,140656,6,0,P|351:200|246:55,2,313.499991628647,6|0|6,1:3|1:0|1:2,0:0:0:0:
64,258,143237,1,2,0:2:0:0:
59,143,143559,1,2,1:0:0:0:
153,76,143882,2,0,L|224:64,1,52.2499986047745,8|0,1:0|1:0,0:0:0:0:
260,54,144204,2,0,L|335:52,1,52.2499986047745,2|2,1:2|0:2,0:0:0:0:
369,43,144527,2,0,P|413:77|395:321,1,313.499991628647,4|6,1:0|1:2,0:0:0:0:
67,248,146463,1,4,1:0:0:0:
165,187,146785,5,2,0:2:0:0:
165,187,146946,2,0,P|183:234|174:302,1,104.499997209549,0|2,1:0|0:2,0:0:0:0:
235,299,147430,2,0,L|306:286,1,52.2499986047745,4|0,1:2|0:0,0:0:0:0:
339,266,147753,2,0,L|385:221,1,52.2499986047745,10|2,1:0|1:2,0:0:0:0:
414,186,148075,2,0,L|427:77,1,104.499997209549,2|4,1:3|1:0,0:0:0:0:
328,21,148721,5,2,0:2:0:0:
213,24,149043,1,0,1:0:0:0:
98,30,149366,2,0,P|27:114|118:271,1,313.499991628647,6|4,1:2|1:2,0:0:0:0:
206,199,150656,5,2,1:2:0:0:
316,167,150978,1,0,1:0:0:0:
428,140,151301,2,0,P|499:224|408:381,1,313.499991628647,4|4,1:2|1:0,0:0:0:0:
355,381,152430,5,0,0:0:0:0:
355,381,152592,2,0,L|346:312,1,52.2499986047745,0|0,1:0|0:0,0:0:0:0:
294,309,152914,2,0,L|286:242,1,52.2499986047745,2|2,1:2|1:2,0:0:0:0:
245,217,153237,1,4,1:2:0:0:
245,217,153398,1,0,1:0:0:0:
172,60,153882,1,2,1:0:0:0:
284,35,154204,6,0,L|352:40,1,52.2499986047745,6|2,1:0|0:2,0:0:0:0:
445,75,154688,1,0,1:0:0:0:
494,178,155011,2,0,L|498:251,1,52.2499986047745,2|4,0:2|1:2,0:0:0:0:
445,332,155495,1,2,0:2:0:0:
336,368,155817,1,0,0:0:0:0:
223,342,156140,1,6,1:3:0:0:
318,277,156463,5,2,1:2:0:0:
318,277,156624,2,0,P|323:223|316:169,1,104.499997209549,2|0,0:2|1:0,0:0:0:0:
292,121,157108,2,0,P|280:91|231:32,2,104.499997209549,2|10|10,1:2|1:0|1:0,0:0:0:0:
197,185,158075,1,4,1:2:0:0:
98,137,158398,5,2,1:2:0:0:
98,137,158559,2,0,P|93:191|100:245,1,104.499997209549,0|2,1:0|0:2,0:0:0:0:
122,293,159043,2,0,P|134:323|157:352,1,52.2499986047745,0|0,1:0|0:0,0:0:0:0:
194,368,159366,1,4,1:2:0:0:
308,368,159688,2,0,P|366:355|382:348,1,52.2499986047745,0|0,1:0|1:0,0:0:0:0:
411,333,160011,6,0,P|445:280|309:105,1,313.499991628647,4|4,1:0|1:2,0:0:0:0:
145,253,161624,1,8,1:0:0:0:
34,221,161946,2,0,P|21:160|57:71,1,156.749995814324,4|0,1:0|1:0,0:0:0:0:
109,55,162592,2,0,L|176:49,1,52.2499986047745,2|0,0:2|1:0,0:0:0:0:
218,44,162914,1,4,1:2:0:0:
332,36,163237,2,0,L|328:104,1,52.2499986047745,2|2,1:2|1:2,0:0:0:0:
293,133,163559,2,0,L|299:203,1,52.2499986047745,8|2,1:0|1:2,0:0:0:0:
333,230,163882,6,0,L|325:351,2,104.499997209549,4|2|0,1:0|1:2|1:0,0:0:0:0:
437,182,164850,2,0,P|392:141|242:162,1,208.999994419098,6|8,1:2|1:0,0:0:0:0:
167,230,165817,2,0,P|82:254|7:254,1,156.749995814324,6|2,1:0|0:2,0:0:0:0:
97,342,166624,1,2,0:2:0:0:
97,342,166785,2,0,L|174:347,1,52.2499986047745,4|2,1:0|0:2,0:0:0:0:
206,350,167108,2,0,L|276:354,1,52.2499986047745,10|2,1:0|0:2,0:0:0:0:
315,355,167430,2,0,L|389:358,1,52.2499986047745,10|0,1:0|1:0,0:0:0:0:
424,360,167753,1,4,1:2:0:0:
496,141,168398,5,0,1:0:0:0:
381,133,168721,2,0,L|271:123,2,104.499997209549,2|0|0,1:2|1:0|1:0,0:0:0:0:
467,208,169688,2,0,L|394:215,1,52.2499986047745,6|0,1:2|0:0,0:0:0:0:
300,227,170172,1,0,1:0:0:0:
185,241,170495,2,0,L|109:248,1,52.2499986047745,2|4,1:2|1:2,0:0:0:0:
98,135,170979,2,0,L|110:72,1,52.2499986047745,8|0,1:0|0:0,0:0:0:0:
123,28,171301,1,8,1:0:0:0:
123,28,171463,1,0,0:0:0:0:
123,28,171624,1,2,1:3:0:0:
