osu file format v14

[General]
AudioFilename: audio.mp3
AudioLeadIn: 0
PreviewTime: 47430
Countdown: 0
SampleSet: Drum
StackLeniency: 0.4
Mode: 0
LetterboxInBreaks: 0
WidescreenStoryboard: 1

[Editor]
Bookmarks: 15817,32269,36140,40011,43882,47753,55495,63237,78721,87108,94204,98075,101946,105817,109688,117430,123237,125172,140656,171624
DistanceSpacing: 0.7
BeatDivisor: 4
GridSize: 32
TimelineZoom: 0.8999996

[Metadata]
Title:Usotsuki
TitleUnicode:嘘月
Artist:yanaginagi
ArtistUnicode:やなぎなぎ
Creator:chaser01
Version:Fsjallink's Lie
Source:
Tags:japanese pop resahc heanday searasp lunala ameth fsjallink
BeatmapID:4223500
BeatmapSetID:2012683

[Difficulty]
HPDrainRate:6
CircleSize:4
OverallDifficulty:8
ApproachRate:9
SliderMultiplier:1.4
SliderTickRate:1

[Events]
//Background and Video events
0,0,"123.jpg",0,0
//Break Periods
2,78921,86508
//Storyboard Layer 0 (Background)
//Storyboard Layer 1 (Fail)
//Storyboard Layer 2 (Pass)
//Storyboard Layer 3 (Foreground)
//Storyboard Layer 4 (Overlay)
//Storyboard Sound Samples

[TimingPoints]
334,322.58064516129,3,2,1,40,1,0
334,-333.333333333333,3,2,1,40,0,0
15817,-200,3,2,1,40,0,0
29366,-200,3,2,1,30,0,0
29527,-200,3,2,1,5,0,0
29688,-200,3,2,1,35,0,0
29850,-200,3,2,1,5,0,0
30011,-200,3,2,1,40,0,0
30172,-200,3,2,1,5,0,0
30333,-200,3,2,1,45,0,0
30495,-200,3,2,1,5,0,0
30656,-200,3,2,1,50,0,0
30817,-200,3,2,1,5,0,0
30979,-200,3,2,1,55,0,0
31140,-200,3,2,1,5,0,0
31301,-200,3,2,1,60,0,0
31463,-200,3,2,1,5,0,0
31624,-200,3,2,1,65,0,0
31785,-200,3,2,1,5,0,0
31946,-200,3,2,1,70,0,0
32108,-200,3,2,1,5,0,0
32269,-111.111111111111,3,3,1,60,0,0
38075,-166.666666666667,3,3,1,60,0,0
39043,-111.111111111111,3,3,1,60,0,0
47753,-83.3333333333333,3,3,1,65,0,1
48398,-100,3,3,1,65,0,1
55495,-166.666666666667,3,3,1,65,0,1
57108,-100,3,3,1,65,0,1
57430,-166.666666666667,3,3,1,65,0,1
58721,-100,3,3,1,65,0,1
63237,-125,3,2,1,55,0,0
78721,-142.857142857143,3,2,1,55,0,0
87108,-200,3,2,1,55,0,0
92269,-250.000000000001,3,2,1,45,0,0
94204,-100,3,3,1,60,0,0
100011,-166.666666666667,3,3,1,60,0,0
101301,-100,3,3,1,60,0,0
109688,-90.9090909090909,3,3,1,65,0,1
117430,-166.666666666667,3,3,1,65,0,1
119043,-90.9090909090909,3,3,1,65,0,1
119366,-142.857142857143,3,3,1,65,0,1
120656,-90.9090909090909,3,3,1,65,0,1
123237,-111.111111111111,3,3,1,55,0,0
123559,-111.111111111111,3,3,1,25,0,0
124527,-100,3,3,1,60,0,1
125172,-90.9090909090909,3,3,1,65,0,1
140656,-100,3,3,1,65,0,0
171624,-100,3,2,1,45,0,0

[Colours]
Combo1 : 255,94,55
Combo2 : 173,255,95
Combo3 : 17,254,176
Combo4 : 255,88,100

[HitObjects]
181,139,15817,6,0,L|220:136,1,35,4|0,0:1|0:0,0:0:0:0:
315,80,16140,2,0,P|368:94|381:111,1,70,0|0,3:0|0:0,0:0:0:0:
164,163,16785,6,0,L|203:160,1,35,2|0,3:2|0:0,0:0:0:0:
298,104,17108,2,0,P|351:118|364:135,1,70,0|0,3:0|0:0,0:0:0:0:
286,290,17753,6,0,P|288:247|289:242,1,35,2|0,0:0|0:0,0:0:0:0:
381,43,18075,2,0,P|416:58|437:88,1,70
376,209,18559,1,0,0:0:0:0:
376,209,18721,6,0,L|328:203,1,35,2|0,0:0|0:0,0:0:0:0:
512,63,19043,2,0,P|510:97|493:137,1,70
366,288,19688,6,0,L|406:292,1,35,2|0,3:2|0:0,0:0:0:0:
277,177,20011,2,0,P|222:191|206:211,1,70
385,308,20656,6,0,L|425:312,1,35,2|0,3:2|0:0,0:0:0:0:
214,199,20979,2,0,P|203:237|210:276,1,70
383,323,21463,1,0,0:0:0:0:
383,323,21624,6,0,P|353:330|307:342,1,70,2|0,0:0|0:0,0:0:0:0:
167,281,22108,2,0,P|197:288|243:300,1,70
102,329,22592,2,0,P|70:335|59:337,1,35,2|0,0:0|0:0,0:0:0:0:
112,209,22914,2,0,P|145:199|188:200,1,70
371,77,23559,6,0,L|365:125,1,35,6|0,3:2|0:0,0:0:0:0:
180,198,23882,2,0,P|181:154|202:121,1,70,0|2,0:0|0:0,0:0:0:0:
398,120,24527,6,0,L|392:168,1,35,0|0,3:0|0:0,0:0:0:0:
161,211,24850,2,0,P|162:167|183:134,1,70,0|2,0:0|0:0,0:0:0:0:
415,200,25495,6,0,L|371:193,1,35,0|0,3:0|0:0,0:0:0:0:
170,140,25817,2,0,P|122:146|102:163,1,70,2|0,0:0|0:0,0:0:0:0:
385,207,26463,6,0,L|341:200,1,35,0|0,3:0|0:0,0:0:0:0:
105,158,26785,2,0,P|80:140|67:100,1,70,2|0,3:2|3:0,0:0:0:0:
41,252,27269,1,0,0:0:0:0:
131,146,27430,2,0,P|167:167|175:172,1,35,4|0,0:0|0:0,0:0:0:0:
333,106,27753,2,0,P|369:127|377:132,1,35
178,268,28075,6,0,L|201:232,1,35,2|0,0:0|0:0,0:0:0:0:
268,68,28398,2,0,L|291:32,1,35,6|0,0:0|0:0,0:0:0:0:
118,47,28721,2,0,P|72:58|35:114,1,105,2|0,0:3|0:0,0:0:0:0:
111,291,29366,6,0,P|138:286|150:285,1,35,6|0,3:2|0:0,0:0:0:0:
265,186,29688,2,0,L|280:150,1,35,2|0,0:0|0:0,0:0:0:0:
303,354,30011,2,0,P|289:334|279:320,1,35,2|0,0:0|0:0,0:0:0:0:
278,153,30333,2,0,L|293:117,1,35,6|0,0:0|0:0,0:0:0:0:
256,0,30656,5,6,0:0:0:0:
256,192,30737,12,0,31946,1:0:0:0:
256,0,32269,6,0,P|297:15|319:51,1,62.9999980773926,6|0,1:3|0:0,0:0:0:0:
141,156,32592,2,0,P|146:115|200:73,1,94.499997116089
205,82,32914,1,0,0:0:0:0:
352,208,33075,1,2,0:2:0:0:
395,122,33237,6,0,P|445:111|473:103,1,62.9999980773926,0|0,1:0|0:0,0:0:0:0:
264,157,33559,2,0,P|249:188|270:270,1,94.499997116089
295,309,33882,2,0,P|325:301|356:294,1,62.9999980773926
133,206,34204,1,0,1:0:0:0:
93,290,34366,2,0,P|123:296|154:304,1,62.9999980773926,2|0,0:2|0:0,0:0:0:0:
167,69,34688,2,0,P|106:62|42:91,1,125.999996154785,2|0,0:2|1:0,0:0:0:0:
20,341,35172,1,4,1:2:0:0:
20,341,35495,5,0,0:0:0:0:
197,266,35656,1,0,1:0:0:0:
69,175,35817,1,2,1:2:0:0:
126,360,35979,1,0,1:0:0:0:
171,136,36140,6,0,P|230:108|245:109,1,62.9999980773926,4|0,1:0|0:0,0:0:0:0:
401,51,36463,2,0,P|437:84|427:172,1,125.999996154785,0|2,1:0|0:2,0:0:0:0:
477,315,36946,1,2,1:2:0:0:
312,215,37108,2,0,L|339:141,1,62.9999980773926,0|0,1:0|0:0,0:0:0:0:
227,293,37430,2,0,L|200:367,1,62.9999980773926,2|0,1:2|0:0,0:0:0:0:
163,141,37753,2,0,L|141:81,1,62.9999980773926,0|0,1:2|0:0,0:0:0:0:
61,233,38075,6,0,P|96:203|253:170,1,209.999993591309,4|2,1:2|0:2,0:0:0:0:
478,345,39043,1,0,1:0:0:0:
478,345,39366,6,0,P|411:333|393:330,1,62.9999980773926,2|0,0:2|1:0,0:0:0:0:
508,248,39688,1,2,1:2:0:0:
296,356,39850,1,0,1:0:0:0:
416,232,40011,6,0,P|400:182|389:151,1,62.9999980773926,4|0,1:0|0:0,0:0:0:0:
281,49,40333,2,0,P|264:92|283:162,1,94.499997116089,2|0,0:2|0:0,0:0:0:0:
282,164,40656,1,0,1:0:0:0:
487,186,40817,1,2,0:2:0:0:
416,231,40979,6,0,P|384:247|349:257,1,62.9999980773926,0|0,1:0|0:0,0:0:0:0:
168,225,41301,2,0,P|219:230|278:255,1,94.499997116089,0|0,1:0|0:0,0:0:0:0:
259,244,41624,2,0,P|278:281|285:308,1,62.9999980773926,0|0,1:0|2:0,0:0:0:0:
381,111,41946,5,4,1:2:0:0:
355,361,42108,2,0,P|357:322|361:278,1,62.9999980773926
374,89,42430,2,0,P|401:39|481:35,1,125.999996154785,0|0,1:0|1:0,0:0:0:0:
305,220,42914,2,0,P|264:215|221:212,1,62.9999980773926,2|0,1:2|0:0,0:0:0:0:
97,120,43237,5,0,1:0:0:0:
67,275,43398,1,0,1:0:0:0:
73,122,43559,1,2,1:2:0:0:
101,279,43721,1,0,0:0:0:0:
205,186,43882,6,0,P|263:180|342:172,1,125.999996154785,4|0,1:0|0:0,0:0:0:0:
460,58,44366,2,0,P|422:21|358:26,1,94.499997116089,2|0,1:2|0:0,0:0:0:0:
359,21,44688,1,0,1:0:0:0:
340,197,44850,2,0,P|370:220|472:217,1,125.999996154785,0|0,1:0|1:0,0:0:0:0:
492,303,45333,2,0,L|412:322,1,62.9999980773926,0|0,0:0|1:0,0:0:0:0:
338,362,45656,1,2,1:2:0:0:
362,173,45817,6,0,L|297:162,1,62.9999980773926,4|0,1:2|0:0,0:0:0:0:
148,240,46140,2,0,L|213:229,1,62.9999980773926,2|0,1:2|0:0,0:0:0:0:
329,88,46463,2,0,L|264:77,1,62.9999980773926,0|0,1:0|0:0,0:0:0:0:
77,19,46785,2,0,P|43:70|53:123,1,94.499997116089,2|0,1:2|0:0,0:0:0:0:
63,127,47108,6,0,L|116:121,1,31.4999990386963,6|2,0:2|0:2,0:0:0:0:
169,180,47269,2,0,L|222:174,1,31.4999990386963,2|2,0:2|0:2,0:0:0:0:
281,225,47430,2,0,L|334:219,1,31.4999990386963,2|2,0:2|0:2,0:0:0:0:
393,270,47591,2,0,L|446:264,1,31.4999990386963,2|2,0:2|0:2,0:0:0:0:
191,290,47753,5,6,1:3:0:0:
242,88,47914,2,0,P|289:78|384:144,1,167.999994873047,2|2,1:2|1:2,0:0:0:0:
312,345,48398,1,2,0:1:0:0:
499,283,48559,1,2,1:2:0:0:
285,356,48721,6,0,P|228:350|190:347,1,70,0|2,1:0|0:2,0:0:0:0:
31,153,49043,1,10,1:0:0:0:
31,153,49204,1,2,0:2:0:0:
98,103,49366,2,0,P|150:103|185:123,1,70,10|2,1:0|0:2,0:0:0:0:
345,16,49688,5,4,1:0:0:0:
199,228,49850,2,0,P|121:210|107:202,1,70,0|0,1:0|0:0,0:0:0:0:
0,52,50172,2,0,P|44:14|134:16,1,140,0|2,1:0|0:2,0:0:0:0:
54,272,50656,5,2,1:0:0:0:
194,149,50817,1,0,1:0:0:0:
64,128,50979,1,8,1:2:0:0:
288,167,51140,1,2,0:2:0:0:
117,204,51301,1,8,1:2:0:0:
264,81,51463,1,0,0:0:0:0:
264,81,51543,1,0,0:0:0:0:
264,81,51624,5,4,1:0:0:0:
220,258,51785,2,0,P|281:272|312:273,1,70,2|0,1:2|0:0,0:0:0:0:
488,89,52108,2,0,P|451:54|351:62,1,140,0|0,1:0|0:0,0:0:0:0:
163,151,52592,1,2,1:2:0:0:
338,302,52753,2,0,P|339:238|270:190,1,140
63,88,53237,2,0,P|55:146|52:183,1,70,2|0,1:0|0:0,0:0:0:0:
25,309,53559,5,6,1:0:0:0:
221,348,53721,2,0,P|161:335|123:327,1,70
144,115,54043,2,0,P|200:91|280:88,1,140,0|0,1:0|1:0,0:0:0:0:
426,143,54527,5,8,1:2:0:0:
356,264,54688,1,2,0:2:0:0:
256,166,54850,1,8,1:2:0:0:
256,166,54930,1,0,0:0:0:0:
256,166,55011,1,2,0:2:0:0:
296,375,55172,1,2,1:2:0:0:
140,217,55333,1,2,1:2:0:0:
140,217,55414,1,2,1:2:0:0:
140,217,55495,6,0,P|224:194|351:179,1,209.999993591309,4|2,1:0|0:2,0:0:0:0:
74,117,56463,1,2,1:0:0:0:
74,117,56785,5,0,1:0:0:0:
273,216,56946,1,2,0:2:0:0:
31,103,57108,2,0,P|34:169|36:187,1,70,8|0,1:0|0:0,0:0:0:0:
198,343,57430,6,0,P|196:266|180:127,1,209.999993591309,6|0,1:0|1:0,0:0:0:0:
448,209,58398,1,2,1:0:0:0:
448,209,58721,6,0,P|392:219|371:225,1,70,8|0,1:2|0:0,0:0:0:0:
272,182,59043,1,8,1:2:0:0:
475,300,59204,1,2,0:2:0:0:
475,300,59285,1,2,0:2:0:0:
475,300,59366,5,4,1:0:0:0:
314,291,59527,2,0,P|275:272|229:254,1,70,0|0,0:0|1:0,0:0:0:0:
154,157,59850,1,2,0:2:0:0:
348,132,60011,1,2,1:2:0:0:
254,355,60172,1,2,0:2:0:0:
58,279,60333,5,2,1:0:0:0:
141,247,60495,2,0,P|187:243|251:333,1,140
73,174,60979,2,0,P|81:116|106:93,1,70,2|0,1:2|0:0,0:0:0:0:
187,29,61301,5,4,1:2:0:0:
250,232,61463,2,0,P|270:174|261:105,1,105,2|0,1:2|0:0,0:0:0:0:
252,104,61785,2,0,P|197:116|161:123,1,70,0|0,1:0|0:0,0:0:0:0:
146,349,62108,1,2,1:2:0:0:
363,182,62269,2,0,P|303:193|270:204,1,70,4|0,1:0|0:0,0:0:0:0:
97,151,62592,5,2,0:2:0:0:
353,261,62753,1,0,0:0:0:0:
83,145,62914,1,2,1:2:0:0:
304,48,63075,1,2,0:2:0:0:
304,48,63156,1,2,0:2:0:0:
304,48,63237,6,0,P|384:57|439:74,2,112,6|0|2,1:3|0:0|0:0,0:0:0:0:
197,16,64043,1,0,3:0:0:0:
231,155,64204,2,0,P|271:147|305:133,1,56,2|0,1:2|0:0,0:0:0:0:
161,221,64527,2,0,P|123:232|85:233,1,56
13,328,64850,2,0,P|40:324|67:315,1,56,2|0,0:0|3:0,0:0:0:0:
147,126,65172,6,0,P|102:92|36:100,1,112,0|2,1:0|0:0,0:0:0:0:
9,186,65656,1,0,0:0:0:0:
48,93,65817,2,0,P|41:54|38:35,1,56,2|0,0:0|0:0,0:0:0:0:
183,199,66140,6,0,P|178:226|173:254,1,56,0|0,1:0|0:0,0:0:0:0:
267,165,66463,2,0,P|276:191|286:217,1,56,2|0,1:2|1:0,0:0:0:0:
331,103,66785,2,0,P|352:120|373:138,1,56,2|0,1:2|3:0,0:0:0:0:
490,176,67108,6,0,P|505:129|493:77,1,84,4|0,1:2|0:0,0:0:0:0:
446,29,67430,2,0,P|418:23|390:19,1,56,2|0,0:2|0:0,0:0:0:0:
341,208,67753,2,0,P|313:212|285:217,1,56,2|0,0:2|0:0,0:0:0:0:
390,101,68075,6,0,B|316:109|346:126|272:131,1,112,0|2,1:0|0:2,0:0:0:0:
211,266,68559,1,0,0:0:0:0:
320,337,68721,2,0,P|330:300|326:275,1,56
73,151,69043,1,2,1:3:0:0:
73,151,69366,5,2,0:0:0:0:
182,168,69527,1,0,0:0:0:0:
164,281,69688,1,2,0:0:0:0:
53,265,69850,1,0,3:0:0:0:
141,86,70011,2,0,P|196:66|261:64,1,112,4|2,1:2|0:2,0:0:0:0:
438,121,70495,1,2,1:2:0:0:
261,236,70656,1,0,1:0:0:0:
360,332,70817,1,0,1:0:0:0:
365,248,70979,6,0,P|419:221|483:200,1,112,4|0,1:2|0:0,0:0:0:0:
438,121,71463,1,0,0:0:0:0:
438,121,71624,2,0,P|426:68|426:50,1,56,2|0,0:0|3:0,0:0:0:0:
355,218,71946,6,0,P|354:176|331:113,1,84,0|0,1:0|0:0,0:0:0:0:
342,135,72269,2,0,P|311:122|281:115,1,56
186,15,72592,2,0,P|174:62|171:82,1,56,2|0,0:0|0:0,0:0:0:0:
71,216,72914,6,0,B|97:146|61:170|84:106,1,112,0|2,1:0|0:0,0:0:0:0:
258,84,73398,1,0,0:0:0:0:
227,222,73559,2,0,P|189:216|158:202,1,56,0|0,0:0|3:0,0:0:0:0:
323,232,73882,6,0,P|343:265|352:348,1,112,0|2,1:0|1:2,0:0:0:0:
123,295,74366,1,0,1:0:0:0:
301,237,74527,1,2,1:2:0:0:
271,325,74688,1,0,3:0:0:0:
203,266,74850,1,4,1:2:0:0:
203,266,75172,5,2,1:2:0:0:
445,333,75333,1,0,3:0:0:0:
376,253,75495,2,0,P|341:262|304:270,1,56,2|0,0:2|0:0,0:0:0:0:
146,164,75817,6,0,P|172:144|241:144,1,84,0|0,1:0|0:0,0:0:0:0:
221,137,76140,2,0,P|269:129|298:122,1,56,2|0,0:0|0:0,0:0:0:0:
482,214,76463,2,0,P|490:261|497:290,1,56
274,214,76785,6,0,P|331:198|396:187,1,112,0|2,1:0|0:0,0:0:0:0:
504,227,77269,1,0,0:0:0:0:
385,189,77430,2,0,P|381:148|388:116,1,56,2|0,0:0|0:0,0:0:0:0:
220,37,77753,2,0,P|224:78|217:110,1,56,0|0,1:0|0:0,0:0:0:0:
135,267,78075,5,0,1:0:0:0:
3,195,78237,1,0,0:0:0:0:
95,87,78398,1,0,1:0:0:0:
214,154,78559,1,0,3:0:0:0:
0,113,78721,1,2,0:3:0:0:
36,96,87108,6,0,P|63:101|85:105,1,35
236,128,87430,2,0,P|272:139|305:168,1,70
70,102,88075,6,0,P|97:107|119:111,1,35
297,158,88398,2,0,P|309:202|303:234,1,70
305,226,89366,6,0,P|308:193|310:175,1,35
334,59,89688,2,0,P|368:40|409:39,1,70
465,76,90172,1,0,0:0:0:0:
258,59,90333,6,0,P|234:46|219:30,1,35
297,128,90656,2,0,P|306:149|309:162,1,35
233,308,90979,2,0,P|208:317|190:322,1,35
315,239,91301,2,0,P|331:244|348:250,1,35
473,316,91624,2,0,P|448:321|436:322,1,35
229,227,91946,2,0,P|238:200|241:192,1,35
256,32,92269,5,0,0:0:0:0:
256,192,92350,12,2,93882,3:2:0:0:
256,32,94204,6,0,P|213:35|180:32,1,70,6|0,1:3|0:0,0:0:0:0:
35,139,94527,2,0,P|101:142|178:151,1,140
319,82,95011,1,0,3:0:0:0:
362,183,95172,2,0,P|359:224|352:260,1,70,2|0,1:2|0:0,0:0:0:0:
211,362,95495,2,0,P|199:311|201:244,1,105
167,232,95817,2,0,P|169:197|175:162,1,70,0|2,1:0|0:2,0:0:0:0:
441,268,96140,5,4,1:2:0:0:
357,306,96301,2,0,P|318:298|274:286,1,70,2|0,0:2|0:0,0:0:0:0:
285,42,96624,2,0,P|354:44|418:92,1,140,2|0,0:2|0:0,0:0:0:0:
201,78,97108,1,4,1:2:0:0:
201,78,97430,5,0,1:0:0:0:
270,262,97592,1,0,1:0:0:0:
266,148,97753,1,2,1:2:0:0:
190,321,97914,1,0,1:0:0:0:
348,344,98075,6,0,P|358:308|361:270,1,70,4|0,1:0|0:0,0:0:0:0:
157,239,98398,2,0,P|117:244|8:255,1,140,0|2,1:0|0:2,0:0:0:0:
215,330,98882,1,0,0:0:0:0:
97,162,99043,2,0,P|107:123|116:89,1,70,0|0,1:0|0:0,0:0:0:0:
17,254,99366,2,0,P|25:287|34:321,1,70,0|0,1:0|0:0,0:0:0:0:
270,255,99688,2,0,P|321:243|342:238,1,70,2|0,1:2|0:0,0:0:0:0:
455,96,100011,6,0,P|398:41|270:42,1,209.999993591309,4|2,1:2|1:2,0:0:0:0:
54,34,100979,1,2,1:3:0:0:
54,34,101301,6,0,B|141:50,1,70,2|0,0:2|1:0,0:0:0:0:
342,69,101624,1,2,1:2:0:0:
151,33,101785,1,0,1:0:0:0:
256,239,101946,2,0,P|267:200|260:146,1,70,4|0,1:0|0:0,0:0:0:0:
263,27,102269,2,0,P|315:14|421:31,1,140,2|2,0:2|1:2,0:0:0:0:
510,149,102753,1,2,0:2:0:0:
406,181,102914,6,0,P|411:131|418:93,1,70,0|0,1:0|0:0,0:0:0:0:
266,243,103237,1,0,1:0:0:0:
439,283,103398,1,0,0:0:0:0:
329,157,103559,2,0,P|281:146|252:140,1,70,0|2,1:0|0:2,0:0:0:0:
136,65,103882,5,4,1:2:0:0:
102,294,104043,2,0,P|146:281|182:278,1,70
354,175,104366,2,0,P|383:234|374:323,1,140,0|0,1:0|1:0,0:0:0:0:
249,167,104850,2,0,P|257:122|266:94,1,70,2|0,1:2|0:0,0:0:0:0:
277,254,105172,5,0,1:0:0:0:
112,175,105333,1,0,1:0:0:0:
223,338,105495,1,2,1:2:0:0:
378,228,105656,1,0,0:0:0:0:
187,256,105817,6,0,P|122:272|68:286,1,105,4|0,1:0|0:0,0:0:0:0:
55,294,106140,2,0,P|107:309|134:317,1,70,0|0,1:0|0:0,0:0:0:0:
157,103,106463,2,0,P|190:93|224:83,1,70,2|0,0:2|0:0,0:0:0:0:
35,177,106785,2,0,B|133:188|77:215|184:231,1,140,2|0,1:2|0:0,0:0:0:0:
320,138,107269,2,0,P|279:144|246:175,1,70,2|0,0:2|1:0,0:0:0:0:
181,306,107592,1,2,1:2:0:0:
344,336,107753,6,0,P|334:287|321:261,1,70,4|0,1:2|0:0,0:0:0:0:
193,102,108075,2,0,P|179:134|174:168,1,70,2|0,1:2|0:0,0:0:0:0:
87,344,108398,2,0,P|81:309|68:277,1,70,0|0,1:0|0:0,0:0:0:0:
124,31,108721,2,0,P|166:17|243:36,1,105,2|0,1:2|0:0,0:0:0:0:
252,51,109043,6,0,L|309:41,1,35,6|2,0:2|0:2,0:0:0:0:
452,100,109204,2,0,L|395:110,1,35,2|2,0:2|0:2,0:0:0:0:
224,134,109366,2,0,L|281:124,1,35,2|2,0:2|0:2,0:0:0:0:
424,183,109527,2,0,L|367:193,1,35,2|2,0:2|0:2,0:0:0:0:
303,249,109688,5,6,1:3:0:0:
332,121,109850,2,0,P|338:79|346:37,1,77.0000023498536,2|0,1:2|0:0,0:0:0:0:
124,31,110172,2,0,P|102:83|110:154,1,115.50000352478,2|0,1:2|0:0,0:0:0:0:
141,157,110495,1,2,0:2:0:0:
45,288,110656,6,0,P|101:255|131:255,1,77.0000023498536,4|2,1:0|0:2,0:0:0:0:
398,307,110979,2,0,P|342:340|312:340,1,77.0000023498536,10|2,1:0|0:2,0:0:0:0:
137,79,111301,2,0,P|198:98|219:120,1,77.0000023498536,10|2,1:0|0:2,0:0:0:0:
340,300,111624,5,4,1:0:0:0:
127,329,111785,2,0,P|124:274|136:230,1,77.0000023498536,0|0,1:0|0:0,0:0:0:0:
329,199,112108,2,0,P|375:202|491:207,1,154.000004699707,0|2,1:0|0:2,0:0:0:0:
360,101,112592,5,2,1:0:0:0:
379,123,112753,1,0,1:0:0:0:
237,282,112914,1,8,1:2:0:0:
272,268,113075,1,2,0:2:0:0:
193,112,113237,1,8,1:2:0:0:
298,169,113398,1,0,0:0:0:0:
298,169,113479,1,0,0:0:0:0:
298,169,113559,5,4,1:0:0:0:
158,245,113721,2,0,P|109:266|75:274,1,77.0000023498536,2|4,0:2|1:2,0:0:0:0:
33,32,114043,2,0,P|103:34|189:96,1,154.000004699707,0|0,0:0|1:0,0:0:0:0:
310,192,114527,5,2,1:2:0:0:
333,44,114688,2,0,P|291:66|246:81,1,77.0000023498536,0|2,0:0|1:0,0:0:0:0:
314,296,115011,1,0,0:0:0:0:
314,296,115172,2,0,P|356:274|456:239,1,154.000004699707,2|6,1:0|1:0,0:0:0:0:
202,189,115656,6,0,P|249:214|271:227,1,77.0000023498536
215,352,115979,2,0,P|168:323|78:282,1,154.000004699707,0|0,1:0|1:0,0:0:0:0:
243,89,116463,5,8,1:2:0:0:
51,152,116624,1,2,0:2:0:0:
266,251,116785,1,8,1:2:0:0:
266,251,116866,1,0,0:0:0:0:
266,251,116946,1,2,0:2:0:0:
130,227,117108,1,2,1:2:0:0:
385,141,117269,1,2,1:2:0:0:
385,141,117350,1,2,1:2:0:0:
385,141,117430,6,0,P|394:183|382:348,1,209.999993591309,4|0,1:0|0:0,0:0:0:0:
130,227,118398,1,2,1:0:0:0:
130,227,118721,5,2,0:2:0:0:
317,292,118882,1,0,0:0:0:0:
43,180,119043,2,0,P|33:224|34:265,1,77.0000023498536,2|0,1:0|0:0,0:0:0:0:
164,338,119366,6,0,P|173:296|158:96,1,244.999992523194,6|0,1:0|1:0,0:0:0:0:
478,132,120333,1,2,1:0:0:0:
478,132,120656,6,0,P|430:141|402:146,1,77.0000023498536,8|0,1:2|0:0,0:0:0:0:
508,212,120979,1,8,1:2:0:0:
302,106,121140,1,2,0:2:0:0:
302,106,121221,1,2,0:2:0:0:
302,106,121301,6,0,P|285:161|312:225,1,115.50000352478,6|0,1:2|0:0,0:0:0:0:
331,230,121624,1,0,1:0:0:0:
492,98,121785,1,2,1:0:0:0:
492,98,122108,5,0,1:0:0:0:
418,252,122269,2,0,P|406:188|387:156,1,77.0000023498536,6|0,1:2|0:0,0:0:0:0:
236,82,122592,1,0,1:0:0:0:
331,230,122753,1,2,1:0:0:0:
348,96,122914,2,0,L|344:0,1,77.0000023498536,2|0,0:2|0:0,0:0:0:0:
53,201,123237,5,2,0:3:0:0:
171,191,123559,1,0,0:0:0:0:
289,177,123882,1,0,0:0:0:0:
441,90,124204,6,0,P|432:138|463:235,1,125.999996154785,0|6,0:0|0:2,0:0:0:0:
416,210,124608,1,2,0:2:0:0:
384,212,124688,1,2,0:2:0:0:
356,227,124769,1,2,0:2:0:0:
333,248,124850,2,0,P|309:296|308:304,1,35,2|2,0:2|0:2,0:0:0:0:
382,364,125011,2,0,P|406:316|407:308,1,35,2|2,0:2|0:2,0:0:0:0:
323,125,125172,5,6,1:3:0:0:
166,174,125333,2,0,P|131:220|155:318,1,154.000004699707,2|0,1:2|1:0,0:0:0:0:
317,346,125817,2,0,P|386:335|416:331,1,77.0000023498536,2|2,1:0|1:2,0:0:0:0:
437,145,126140,6,0,P|410:215|307:252,1,154.000004699707,4|10,1:0|1:0,0:0:0:0:
180,166,126624,1,2,0:2:0:0:
297,78,126785,2,0,P|306:125|312:165,1,77.0000023498536,10|2,1:0|0:2,0:0:0:0:
76,257,127108,5,4,1:0:0:0:
203,348,127269,2,0,P|209:291|216:248,1,77.0000023498536,0|0,1:0|0:0,0:0:0:0:
216,32,127592,2,0,P|160:18|60:57,1,154.000004699707,0|2,1:0|0:2,0:0:0:0:
38,170,128075,1,2,1:0:0:0:
188,265,128237,1,0,1:0:0:0:
186,89,128398,1,8,1:2:0:0:
141,172,128559,1,0,0:0:0:0:
340,316,128721,1,8,1:2:0:0:
370,231,128882,1,2,0:2:0:0:
370,231,128963,1,2,0:2:0:0:
370,231,129043,5,4,1:0:0:0:
269,245,129204,2,0,P|200:260|172:270,1,77.0000023498536,2|0,1:2|0:0,0:0:0:0:
114,108,129527,2,0,P|158:150|271:153,1,154.000004699707,0|0,1:0|0:0,0:0:0:0:
423,111,130011,1,2,1:2:0:0:
307,22,130172,2,0,P|316:86|319:131,1,77.0000023498536,0|2,0:0|1:0,0:0:0:0:
255,241,130495,1,0,0:0:0:0:
331,298,130656,2,0,P|342:245|351:190,1,77.0000023498536,2|0,1:0|0:0,0:0:0:0:
145,354,130979,5,6,1:0:0:0:
279,159,131140,2,0,P|236:131|186:115,1,77.0000023498536
37,338,131463,2,0,P|114:333|190:277,1,154.000004699707,0|0,1:0|1:0,0:0:0:0:
416,189,131946,5,8,1:2:0:0:
265,353,132108,1,2,0:2:0:0:
164,265,132269,1,8,1:2:0:0:
164,265,132350,1,0,0:0:0:0:
164,265,132430,1,2,0:2:0:0:
261,210,132592,1,2,1:2:0:0:
37,99,132753,1,2,1:2:0:0:
40,125,132833,1,2,1:2:0:0:
43,151,132914,6,0,P|135:136|216:122,1,154.000004699707,4|2,1:0|0:2,0:0:0:0:
372,45,133398,2,0,L|294:37,1,77.0000023498536,0|0,0:0|1:0,0:0:0:0:
170,212,133721,1,0,0:0:0:0:
212,108,133882,2,0,P|271:121|304:174,1,115.50000352478,2|0,1:0|0:0,0:0:0:0:
330,189,134204,2,0,P|324:243|321:270,1,77.0000023498536,8|0,1:0|0:2,0:0:0:0:
208,343,134527,1,10,1:0:0:0:
411,368,134688,1,0,0:2:0:0:
347,185,134850,2,0,P|353:131|356:104,1,77.0000023498536,6|0,1:2|0:0,0:0:0:0:
98,237,135172,6,0,P|156:249|180:253,1,77.0000023498536,2|0,1:2|0:0,0:0:0:0:
325,123,135495,2,0,P|331:69|334:42,1,77.0000023498536,2|0,1:2|0:0,0:0:0:0:
411,235,135817,1,2,1:0:0:0:
197,283,135979,1,0,0:0:0:0:
391,342,136140,1,8,1:2:0:0:
226,178,136301,1,0,0:0:0:0:
307,256,136463,1,8,1:2:0:0:
73,345,136624,1,2,1:2:0:0:
73,345,136704,1,2,1:2:0:0:
73,345,136785,5,4,1:0:0:0:
37,259,136946,1,2,1:2:0:0:
35,180,137108,2,0,P|36:132|46:90,1,77.0000023498536,2|0,1:0|0:0,0:0:0:0:
310,31,137430,2,0,P|309:79|299:121,1,77.0000023498536,2|0,1:0|0:0,0:0:0:0:
337,187,137753,5,6,1:2:0:0:
431,152,137914,1,0,1:0:0:0:
332,212,138075,1,8,1:2:0:0:
436,289,138237,2,0,P|489:296|522:301,1,77.0000023498536,0|8,0:0|1:2,0:0:0:0:
244,227,138559,1,2,0:2:0:0:
358,207,138721,6,0,L|434:196,1,77.0000023498536,6|0,1:2|0:0,0:0:0:0:
282,15,139043,2,0,L|268:109,1,77.0000023498536,2|0,1:2|0:0,0:0:0:0:
141,172,139366,2,0,L|66:141,1,77.0000023498536,2|0,1:2|0:0,0:0:0:0:
0,315,139688,6,0,P|34:272|140:270,1,154.000004699707,0|6,1:0|0:2,0:0:0:0:
327,346,140172,1,0,0:0:0:0:
127,346,140333,1,2,1:2:0:0:
127,346,140414,1,0,1:0:0:0:
127,346,140495,1,2,1:2:0:0:
257,240,140656,6,0,P|250:182|243:93,1,140,6|0,1:3|0:0,0:0:0:0:
59,19,141140,2,0,P|66:77|73:166,1,140,0|0,1:0|0:0,0:0:0:0:
11,269,141624,2,0,P|72:246|98:237,1,70,0|0,1:0|0:0,0:0:0:0:
205,88,141946,1,8,1:0:0:0:
196,128,142108,1,0,0:0:0:0:
282,291,142269,1,8,1:0:0:0:
271,254,142430,1,0,0:0:0:0:
84,212,142592,6,0,P|132:246|167:258,1,70,6|0,1:2|0:0,0:0:0:0:
336,102,142914,1,2,1:2:0:0:
336,102,143075,2,0,P|305:135|276:174,1,70,0|2,1:0|0:2,0:0:0:0:
183,335,143398,1,0,1:0:0:0:
360,360,143559,2,0,P|357:306|314:223,1,140,2|8,1:0|1:0,0:0:0:0:
69,167,144043,1,0,1:0:0:0:
99,279,144204,1,2,1:2:0:0:
273,169,144366,1,2,0:2:0:0:
273,169,144446,1,2,0:2:0:0:
273,169,144527,6,0,P|264:239|253:315,1,140,4|0,1:0|0:0,0:0:0:0:
167,180,145011,2,0,P|179:120|186:85,1,70,2|0,1:2|0:0,0:0:0:0:
364,259,145333,1,0,1:0:0:0:
364,259,145495,2,0,L|272:290,1,70,6|0,1:2|0:0,0:0:0:0:
343,67,145817,1,8,1:0:0:0:
343,67,145979,2,0,L|415:130,2,70,0|8|0,0:0|1:0|0:0,0:0:0:0:
114,32,146463,6,0,P|87:71|87:151,1,105,4|0,1:0|0:0,0:0:0:0:
90,152,146785,1,2,0:2:0:0:
316,208,146946,1,0,1:0:0:0:
316,208,147269,5,2,0:2:0:0:
90,152,147430,1,4,1:2:0:0:
153,362,147592,1,0,0:0:0:0:
182,240,147753,1,10,1:0:0:0:
182,240,147833,1,0,0:0:0:0:
182,240,147914,1,2,1:2:0:0:
46,270,148075,1,2,1:3:0:0:
276,329,148237,1,2,0:2:0:0:
276,329,148317,1,2,0:2:0:0:
276,329,148398,6,0,P|346:318|372:315,1,70,4|0,1:0|0:0,0:0:0:0:
119,120,148721,2,0,P|104:166|92:211,1,70,2|0,0:2|0:0,0:0:0:0:
392,81,149043,2,0,P|326:44|310:33,1,70,0|0,1:0|0:0,0:0:0:0:
410,223,149366,6,0,P|353:170|276:163,1,140,6|8,1:2|1:0,0:0:0:0:
348,311,149850,1,0,0:0:0:0:
494,234,150011,1,8,1:0:0:0:
412,100,150172,1,0,0:0:0:0:
280,156,150333,6,0,P|266:207|277:247,1,70,4|0,1:2|0:0,0:0:0:0:
427,334,150656,2,0,P|367:307|343:309,1,70,2|0,1:2|0:0,0:0:0:0:
168,376,150979,2,0,P|219:367|249:344,1,70,0|0,1:0|0:0,0:0:0:0:
226,89,151301,6,0,P|189:76|141:76,1,70,4|0,1:2|0:0,0:0:0:0:
47,177,151624,1,10,1:2:0:0:
283,191,151785,1,0,0:0:0:0:
154,296,151946,1,10,1:2:0:0:
112,66,152108,1,0,0:0:0:0:
112,66,152188,1,0,0:0:0:0:
112,66,152269,5,4,1:0:0:0:
311,106,152430,1,0,0:0:0:0:
364,40,152592,2,0,P|406:35|445:32,1,70,0|0,1:0|0:0,0:0:0:0:
363,236,152914,1,2,1:2:0:0:
212,204,153075,1,2,1:2:0:0:
311,106,153237,2,0,P|301:162|297:188,1,70,4|0,1:2|1:0,0:0:0:0:
136,326,153559,2,0,P|146:270|150:244,1,70,2|0,1:0|0:0,0:0:0:0:
34,37,153882,2,0,P|24:93|20:119,1,70,2|0,1:0|0:0,0:0:0:0:
55,279,154204,5,6,1:0:0:0:
166,131,154366,2,0,P|133:98|98:89,1,70,2|0,0:2|0:0,0:0:0:0:
177,251,154688,2,0,P|207:278|316:276,1,140,0|2,1:0|0:2,0:0:0:0:
325,117,155172,2,0,P|291:141|281:180,1,70,4|0,1:2|0:0,0:0:0:0:
230,330,155495,5,2,0:2:0:0:
230,330,155656,1,0,0:0:0:0:
382,212,155817,1,0,0:0:0:0:
206,74,155979,1,2,1:2:0:0:
206,74,156059,1,2,1:2:0:0:
206,74,156140,6,0,P|271:59|302:54,1,70,6|0,1:3|0:0,0:0:0:0:
101,29,156463,1,2,1:2:0:0:
393,103,156624,1,2,0:2:0:0:
393,103,156946,5,0,1:0:0:0:
247,152,157108,2,0,P|227:208|221:246,1,70,2|0,1:2|0:0,0:0:0:0:
332,345,157430,2,0,P|352:289|358:251,1,70,10|0,1:0|0:0,0:0:0:0:
75,203,157753,2,0,P|84:263|98:293,1,70,10|0,1:0|0:0,0:0:0:0:
405,194,158075,6,0,P|401:132|370:63,1,105,4|0,1:2|0:0,0:0:0:0:
354,72,158398,1,2,1:2:0:0:
173,215,158559,1,0,1:0:0:0:
173,215,158882,5,2,0:2:0:0:
263,60,159043,2,0,P|268:110|289:147,1,70,0|0,1:0|0:0,0:0:0:0:
500,152,159366,2,0,P|482:74|418:20,1,140,4|0,1:2|1:0,0:0:0:0:
181,115,159850,1,0,1:0:0:0:
181,115,159930,1,0,1:0:0:0:
181,115,160011,6,0,P|146:132|91:145,1,70,4|0,1:0|0:0,0:0:0:0:
51,208,160333,1,2,0:2:0:0:
173,330,160495,2,0,P|232:309|320:296,1,140,0|0,1:0|1:0,0:0:0:0:
281,93,160979,2,0,P|269:141|263:186,1,70,4|0,1:2|0:0,0:0:0:0:
393,343,161301,5,8,1:0:0:0:
280,183,161463,1,0,0:0:0:0:
410,361,161624,2,0,P|462:351|494:345,1,70,8|0,1:0|0:0,0:0:0:0:
491,78,161946,6,0,P|438:50|365:71,1,140,4|0,1:0|0:0,0:0:0:0:
309,261,162430,2,0,P|359:275|396:282,2,70,0|2|0,1:0|0:2|1:0,0:0:0:0:
65,220,162914,2,0,P|45:257|37:299,1,70,4|0,1:2|0:0,0:0:0:0:
263,353,163237,5,2,1:2:0:0:
263,353,163317,1,0,1:0:0:0:
263,353,163398,1,2,1:2:0:0:
125,267,163559,1,8,1:0:0:0:
255,146,163721,1,2,1:2:0:0:
255,146,163801,1,2,1:2:0:0:
255,146,163882,6,0,P|285:189|295:234,1,70,4|0,1:0|0:0,0:0:0:0:
26,152,164204,2,0,P|51:87|90:53,1,105,2|0,1:2|0:0,0:0:0:0:
97,48,164527,2,0,P|135:70|162:79,1,70,0|0,1:0|0:0,0:0:0:0:
388,32,164850,6,0,P|314:24|246:39,1,140,6|8,1:2|1:0,0:0:0:0:
148,165,165333,1,0,0:0:0:0:
242,186,165495,2,0,P|286:155|311:131,1,70,8|0,1:0|0:0,0:0:0:0:
407,334,165817,6,0,P|394:286|386:186,1,140,6|0,1:0|0:0,0:0:0:0:
459,76,166301,2,0,P|472:124|480:224,1,140,2|2,0:2|0:2,0:0:0:0:
252,303,166785,5,4,1:0:0:0:
417,267,166946,1,2,0:2:0:0:
170,164,167108,1,10,1:0:0:0:
331,190,167269,1,2,0:2:0:0:
29,284,167430,1,10,1:0:0:0:
167,257,167592,1,0,1:0:0:0:
167,257,167672,1,0,1:0:0:0:
167,257,167753,6,0,P|233:268|314:282,1,140,4|0,1:2|0:0,0:0:0:0:
488,234,168237,1,0,0:0:0:0:
488,234,168559,5,0,0:0:0:0:
317,323,168721,2,0,P|325:270|334:229,1,70,2|0,1:2|0:0,0:0:0:0:
207,32,169043,2,0,P|207:75|209:111,1,70,0|0,1:0|0:0,0:0:0:0:
74,261,169366,2,0,P|81:221|92:192,1,70,0|0,1:0|0:0,0:0:0:0:
58,42,169688,5,6,1:2:0:0:
280,70,169850,2,0,P|326:83|356:99,1,70
183,305,170172,2,0,P|167:262|201:171,1,140,0|2,1:0|1:2,0:0:0:0:
381,68,170656,2,0,P|437:86|478:89,1,70,4|0,1:2|0:0,0:0:0:0:
120,87,170979,5,8,1:0:0:0:
362,148,171140,1,0,0:0:0:0:
104,271,171301,1,8,1:0:0:0:
371,235,171463,1,0,0:0:0:0:
256,192,171624,5,2,1:3:0:0:
