osu file format v14

[General]
AudioFilename: audio.mp3
AudioLeadIn: 0
PreviewTime: 47430
Countdown: 0
SampleSet: Drum
StackLeniency: 0.4
Mode: 0
LetterboxInBreaks: 0
WidescreenStoryboard: 1

[Editor]
Bookmarks: 334,15817,32269,47753,63237,78721,94204,109688,125172,140656,156140,171624,175495
DistanceSpacing: 0.8
BeatDivisor: 8
GridSize: 4
TimelineZoom: 2.6

[Metadata]
Title:Usotsuki
TitleUnicode:嘘月
Artist:yanaginagi
ArtistUnicode:やなぎなぎ
Creator:chaser01
Version:Ameth's Lie
Source:
Tags:japanese pop resahc heanday searasp lunala ameth fsjallink
BeatmapID:4188166
BeatmapSetID:2012683

[Difficulty]
HPDrainRate:6
CircleSize:3.8
OverallDifficulty:8.5
ApproachRate:9.4
SliderMultiplier:2
SliderTickRate:1

[Events]
//Background and Video events
0,0,"Konachan.com - 272983 sample.jpg",0,0
//Break Periods
2,80661,91715
//Storyboard Layer 0 (Background)
//Storyboard Layer 1 (Fail)
//Storyboard Layer 2 (Pass)
//Storyboard Layer 3 (Foreground)
//Storyboard Layer 4 (Overlay)
//Storyboard Sound Samples

[TimingPoints]
334,322.58064516129,3,2,1,40,1,0
334,-200,3,2,1,40,0,0
3237,-133.333333333333,3,2,1,40,0,0
4204,-200,3,2,1,40,0,0
10979,-133.333333333333,3,2,1,40,0,0
11946,-200,3,2,1,40,0,0
28075,-133.333333333333,3,2,1,40,0,0
29366,-400,3,2,1,30,0,0
29527,-400,3,2,1,5,0,0
29688,-333.333333333333,3,2,1,35,0,0
29850,-333.333333333333,3,2,1,5,0,0
30011,-285.714285714286,3,2,1,40,0,0
30172,-285.714285714286,3,2,1,5,0,0
30333,-222.222222222222,3,2,1,45,0,0
30495,-222.222222222222,3,2,1,5,0,0
30656,-181.818181818182,3,2,1,50,0,0
30817,-181.818181818182,3,2,1,5,0,0
30979,-153.846153846154,3,2,1,55,0,0
31140,-153.846153846154,3,2,1,5,0,0
31301,-133.333333333333,3,2,1,60,0,0
31463,-133.333333333333,3,2,1,5,0,0
31624,-100,3,2,1,65,0,0
31785,-100,3,2,1,5,0,0
31946,-80,3,2,1,70,0,0
32108,-80,3,2,1,5,0,0
32269,-100,3,3,1,60,0,0
47753,-80,3,3,1,65,0,1
57430,-66.6666666666667,3,3,1,65,0,1
58398,-80,3,3,1,65,0,1
63237,-133.333333333333,3,2,1,55,0,0
92269,-133.333333333333,3,2,1,45,0,0
94204,-100,3,3,1,60,0,0
109688,-80,3,3,1,65,0,1
119366,-66.6666666666667,3,3,1,65,0,1
120333,-80,3,3,1,65,0,1
121301,-50,3,3,1,65,0,1
121624,-200,3,3,1,65,0,1
122269,-50,3,3,1,65,0,1
122592,-200,3,3,1,65,0,1
123237,-133.333333333333,3,3,1,55,0,0
123559,-133.333333333333,3,3,1,25,0,0
123640,-133.333333333333,3,3,1,5,0,0
124527,-100,3,3,1,60,0,0
125172,-80,3,3,1,65,0,1
140333,-80,3,3,1,65,0,0
140656,-100,3,3,1,65,0,1
141624,-100,3,3,1,65,0,0
156140,-100,3,3,1,65,0,1
160011,-100,3,3,1,65,0,0
171624,-133.333333333333,3,2,1,45,0,0

[Colours]
Combo1 : 89,89,255
Combo2 : 106,255,255
Combo3 : 255,138,21
Combo4 : 255,255,66
Combo5 : 38,255,38
Combo6 : 255,77,255

[HitObjects]
304,34,334,6,0,L|299:143,2,100,4|2|0,3:2|0:0|0:0,0:0:0:0:
295,46,1301,6,0,L|290:155,2,100,0|2|0,3:0|0:0|0:0,0:0:0:0:
286,58,2269,6,0,L|281:167,2,100,2|2|0,3:2|0:0|0:0,0:0:0:0:
144,177,3237,6,0,P|69:183|19:108,2,150.000005722046,8|2|2,3:2|0:0|0:0,0:0:0:0:
101,106,4204,5,4,0:0:0:0:
188,343,4527,2,0,L|292:330,1,100,2|0,0:0|0:0,0:0:0:0:
439,164,5172,5,0,3:0:0:0:
463,261,5495,2,0,L|359:248,1,100,2|0,0:0|0:0,0:0:0:0:
199,173,6140,5,0,3:0:0:0:
212,188,6463,2,0,L|316:175,1,100,2|0,0:0|0:0,0:0:0:0:
386,96,7108,6,0,P|391:42|363:-3,2,100,0|2|0,3:0|0:0|0:0,0:0:0:0:
479,136,8075,5,6,3:2:0:0:
394,301,8398,2,0,P|346:299|300:269,1,100,2|0,0:0|0:0,0:0:0:0:
224,92,9043,5,0,3:0:0:0:
299,26,9366,2,0,P|321:68|318:123,1,100,2|0,0:0|0:0,0:0:0:0:
203,277,10011,5,0,3:0:0:0:
108,245,10333,2,0,P|133:204|182:179,1,100,2|0,0:0|0:0,0:0:0:0:
437,227,10979,6,0,L|428:376,2,150.000005722046,8|2|2,3:2|0:0|0:0,0:0:0:0:
375,58,11946,6,0,L|484:49,2,100,4|2|0,3:2|0:0|0:0,0:0:0:0:
363,67,12914,6,0,L|472:58,2,100,0|2|0,3:0|0:0|0:0,0:0:0:0:
218,118,13882,6,0,L|109:109,2,100,0|2|0,3:0|0:0|0:0,0:0:0:0:
230,127,14850,6,0,L|121:118,2,100,0|2|0,3:0|0:0|0:0,0:0:0:0:
447,212,15817,6,0,P|457:262|437:310,1,100,4|0,0:1|3:0,0:0:0:0:
432,300,16463,1,0,0:0:0:0:
345,134,16785,2,0,L|352:29,1,100,2|0,3:2|3:0,0:0:0:0:
438,119,17430,1,0,0:0:0:0:
272,260,17753,6,0,P|200:267|145:212,1,150,2|0,0:0|0:0,0:0:0:0:
155,207,18559,1,0,0:0:0:0:
155,207,18721,2,0,L|51:214,2,100,2|0|0,0:0|0:0|0:0,0:0:0:0:
426,274,19688,6,0,P|468:183|434:79,1,200,2|0,3:2|0:0,0:0:0:0:
199,114,20656,2,0,B|166:149|166:149|156:201|189:262,1,150,2|0,3:2|0:0,0:0:0:0:
200,264,21463,1,0,0:0:0:0:
200,264,21624,6,0,L|356:255,1,150,2|0,0:0|0:0,0:0:0:0:
214,55,22430,1,0,0:0:0:0:
139,51,22592,2,0,L|35:45,2,100,2|0|0,0:0|0:0|0:0,0:0:0:0:
265,316,23559,6,0,P|221:336|173:322,1,100,6|0,3:2|0:0,0:0:0:0:
70,171,24204,1,2,0:0:0:0:
162,131,24527,6,0,L|168:246,1,100,0|0,3:0|0:0,0:0:0:0:
449,275,25172,1,2,0:0:0:0:
357,235,25495,6,0,L|351:350,2,100,0|2|0,3:0|0:0|0:0,0:0:0:0:
332,45,26463,2,0,P|359:38|388:35,1,50,0|0,3:0|0:0,0:0:0:0:
408,105,26785,2,0,P|434:112|461:124,1,50,2|0,3:2|0:0,0:0:0:0:
446,196,27108,5,0,3:0:0:0:
392,247,27269,1,0,0:0:0:0:
317,237,27430,2,0,L|207:224,1,100,4|0,0:0|0:0,0:0:0:0:
217,225,27914,1,0,0:0:0:0:
252,307,28075,6,0,P|251:344|241:380,1,75.0000028610231,2|0,0:0|0:0,0:0:0:0:
13,312,28398,2,0,P|13:274|23:238,1,75.0000028610231,6|0,0:0|0:0,0:0:0:0:
156,99,28721,2,0,P|258:125|344:43,1,225.000008583069,2|0,0:3|0:0,0:0:0:0:
458,192,29366,6,0,L|454:228,1,25,6|0,3:2|0:0,0:0:0:0:
443,232,29688,6,0,L|445:202,1,29.9999990844727,2|0,0:0|0:0,0:0:0:0:
431,165,30011,6,0,L|427:199,1,34.9999989318848,2|0,0:0|0:0,0:0:0:0:
402,265,30333,6,0,L|398:220,1,44.999998626709,6|0,0:0|0:0,0:0:0:0:
353,143,30656,6,0,L|359:209,1,55.0000016784668,6|0,0:0|0:0,0:0:0:0:
330,300,30979,6,0,L|322:219,1,64.9999970245363,4|0,0:0|0:0,0:0:0:0:
270,110,31301,6,0,L|264:192,1,75.0000028610231,4|0,1:0|0:0,0:0:0:0:
187,351,31624,6,0,L|196:236,1,100,8|0,1:0|0:0,0:0:0:0:
41,56,31946,6,0,L|57:251,1,187.5,0|0,1:0|0:0,0:0:0:0:
57,243,32269,6,0,P|133:267|161:168,2,200,6|0|0,1:3|0:0|0:0,0:0:0:0:
216,84,33075,1,2,0:2:0:0:
432,135,33237,6,0,P|462:222|418:315,1,200,0|0,1:0|0:0,0:0:0:0:
417,315,33721,1,0,2:0:0:0:
333,207,33882,2,0,P|286:196|232:209,1,100
60,371,34204,5,0,1:0:0:0:
60,371,34366,2,0,L|63:257,1,100,2|0,0:2|0:0,0:0:0:0:
224,35,34688,2,0,L|221:149,1,100,2|0,0:2|0:0,0:0:0:0:
220,235,35011,1,0,1:0:0:0:
129,54,35172,6,0,P|228:27|325:60,1,200,4|0,1:2|0:0,0:0:0:0:
318,55,35656,1,0,1:0:0:0:
103,142,35817,1,2,1:2:0:0:
280,201,35979,1,0,1:0:0:0:
36,246,36140,5,4,1:0:0:0:
43,259,36463,2,0,L|143:268,1,100,0|0,1:0|0:0,0:0:0:0:
439,180,36785,1,2,0:2:0:0:
369,363,36946,1,2,1:2:0:0:
347,250,37108,5,0,1:0:0:0:
353,263,37430,2,0,L|342:152,1,100,2|0,1:2|0:0,0:0:0:0:
135,242,37753,2,0,L|132:341,1,100,0|0,1:2|0:0,0:0:0:0:
241,59,38075,6,0,P|145:85|63:1,1,200,4|0,1:2|0:0,0:0:0:0:
72,28,38559,1,0,1:0:0:0:
300,121,38721,1,2,1:2:0:0:
118,169,38882,1,2,0:2:0:0:
346,38,39043,6,0,P|400:44|452:76,1,100,0|0,1:0|0:0,0:0:0:0:
430,277,39366,1,2,0:2:0:0:
386,133,39527,1,0,1:0:0:0:
268,339,39688,1,2,1:2:0:0:
412,262,39850,1,0,1:0:0:0:
218,194,40011,6,0,B|163:189|163:189|114:209|114:209|13:200,2,200,4|2|0,1:0|0:2|1:0,0:0:0:0:
38,191,40817,1,2,0:2:0:0:
289,252,40979,2,0,P|312:215|317:143,1,100,0|0,1:0|0:0,0:0:0:0:
176,273,41301,2,0,L|183:382,1,100,0|0,1:0|0:0,0:0:0:0:
182,372,41624,1,0,1:0:0:0:
39,110,41785,1,2,2:0:0:0:
39,110,41866,1,2,2:0:0:0:
39,110,41946,6,0,P|106:122|184:67,1,150,4|0,1:2|0:0,0:0:0:0:
165,71,42269,2,0,L|264:79,1,100,0|0,0:0|1:0,0:0:0:0:
442,198,42592,1,2,0:2:0:0:
275,224,42753,1,0,1:0:0:0:
389,17,42914,5,2,1:2:0:0:
392,30,43237,1,0,1:0:0:0:
374,246,43398,1,0,1:0:0:0:
395,43,43559,1,2,1:2:0:0:
453,173,43721,1,0,0:0:0:0:
226,302,43882,6,0,P|205:213|255:109,1,200,4|0,1:0|0:0,0:0:0:0:
453,173,44366,2,0,P|470:219|468:282,1,100,2|0,1:2|0:0,0:0:0:0:
418,356,44688,1,0,1:0:0:0:
334,77,44850,6,0,L|485:86,1,150,0|0,1:0|0:0,0:0:0:0:
496,93,45172,2,0,L|394:99,1,100,0|0,1:0|0:0,0:0:0:0:
67,91,45495,1,0,1:0:0:0:
129,241,45656,1,2,1:2:0:0:
244,28,45817,6,0,L|237:234,2,200,4|2|0,1:2|1:2|1:0,0:0:0:0:
155,119,46624,1,0,0:0:0:0:
295,319,46785,2,0,P|346:319|396:281,1,100,2|0,1:2|0:0,0:0:0:0:
464,131,47108,6,0,L|472:91,1,25,6|0,0:2|0:0,0:0:0:0:
427,97,47188,6,0,L|425:59,1,25,2|0,0:2|0:0,0:0:0:0:
379,84,47269,6,0,L|372:48,1,25,2|0,0:2|0:0,0:0:0:0:
331,95,47350,6,0,L|315:64,1,25,2|0,0:2|0:0,0:0:0:0:
293,127,47430,6,0,L|288:163,1,25,2|0,0:2|0:0,0:0:0:0:
255,159,47511,6,0,L|244:186,1,25,2|0,0:2|0:0,0:0:0:0:
207,170,47592,6,0,L|183:194,1,25,2|0,0:2|0:0,0:0:0:0:
159,157,47672,6,0,L|131:171,1,25,2|0,0:2|0:0,0:0:0:0:
123,124,47753,5,6,1:3:0:0:
18,40,47914,6,0,L|12:234,1,187.5,2|0,1:2|0:0,0:0:0:0:
2,242,48237,2,0,P|65:231|122:267,1,125,2|2,1:2|0:1,0:0:0:0:
47,329,48559,1,2,1:2:0:0:
47,329,48640,1,2,0:2:0:0:
47,329,48721,5,0,1:0:0:0:
122,84,48882,1,2,0:2:0:0:
187,352,49043,5,10,1:0:0:0:
112,107,49204,1,2,0:2:0:0:
276,307,49366,5,10,1:0:0:0:
31,232,49527,1,2,0:2:0:0:
367,199,49688,5,4,1:0:0:0:
122,306,49850,2,0,B|178:317|178:317|211:346|211:346|322:370,1,187.5,0|0,1:0|0:0,0:0:0:0:
309,376,50172,2,0,L|301:248,1,125,0|0,1:0|0:0,0:0:0:0:
449,123,50495,5,2,0:2:0:0:
449,123,50575,1,2,0:2:0:0:
449,123,50656,2,0,L|445:187,1,62.5,2|0,1:0|0:0,0:0:0:0:
441,264,50817,5,0,1:0:0:0:
242,198,50979,1,8,1:2:0:0:
362,164,51140,1,2,0:2:0:0:
188,269,51301,1,8,1:2:0:0:
232,46,51463,1,2,2:0:0:0:
232,46,51543,1,2,2:0:0:0:
232,46,51624,5,4,1:0:0:0:
273,331,51785,2,0,L|64:316,1,187.5,2|0,1:2|0:0,0:0:0:0:
15,351,52108,1,0,1:0:0:0:
348,255,52269,2,0,P|378:305|366:377,1,125,2|0,1:2|0:0,0:0:0:0:
255,192,52592,5,2,1:2:0:0:
277,69,52753,1,0,0:0:0:0:
271,212,52914,5,2,1:0:0:0:
129,232,53075,1,0,0:0:0:0:
335,140,53237,5,2,1:0:0:0:
290,360,53398,1,0,0:0:0:0:
34,284,53559,5,6,1:0:0:0:
34,284,53721,2,0,B|84:236|162:245|162:245|200:290,1,187.5
185,294,54043,2,0,P|163:234|203:183,1,125,0|0,1:0|0:0,0:0:0:0:
378,370,54366,1,0,1:0:0:0:
477,209,54527,6,0,L|482:271,1,62.5,8|0,1:2|0:0,0:0:0:0:
398,353,54688,2,0,L|403:291,1,62.5,2|0,0:2|0:0,0:0:0:0:
374,202,54850,2,0,L|379:264,1,62.5,8|0,1:2|0:0,0:0:0:0:
300,325,55011,1,2,0:2:0:0:
300,325,55092,1,2,0:2:0:0:
300,325,55172,5,2,1:2:0:0:
177,56,55333,1,2,1:2:0:0:
177,56,55414,1,2,1:2:0:0:
177,56,55495,6,0,B|227:43|268:61|268:61|317:39|317:39|350:73|425:73,2,250,4|2|0,1:0|0:2|1:0,0:0:0:0:
42,152,56301,2,0,L|109:165,1,62.5,2|0,0:2|0:0,0:0:0:0:
118,154,56463,6,0,P|103:217|133:274,1,125,2|0,1:0|0:0,0:0:0:0:
355,245,56785,1,0,1:0:0:0:
192,205,56946,1,2,0:2:0:0:
412,319,57108,2,0,L|403:124,1,187.5,8|0,1:0|0:0,0:0:0:0:
482,77,57430,6,0,P|382:38|337:200,2,300.000011444092,6|2|8,1:0|1:3|1:0,0:0:0:0:
120,154,58237,2,0,L|131:72,1,75.0000028610231,0|0,1:0|0:0,0:0:0:0:
103,64,58398,6,0,L|108:215,1,125,2|0,1:0|0:0,0:0:0:0:
278,296,58721,1,8,1:2:0:0:
313,127,58882,1,0,0:0:0:0:
362,345,59043,1,8,1:2:0:0:
322,141,59204,5,2,0:2:0:0:
328,110,59284,1,2,0:2:0:0:
334,79,59366,1,4,1:0:0:0:
396,192,59527,1,0,0:0:0:0:
338,366,59688,1,0,1:0:0:0:
338,366,59850,1,2,0:2:0:0:
305,236,60011,6,0,L|441:251,1,125,2|2,1:2|0:2,0:0:0:0:
430,249,60253,1,2,0:2:0:0:
430,249,60333,1,2,1:0:0:0:
225,297,60495,1,0,0:0:0:0:
305,236,60656,6,0,P|318:183|285:114,1,125,0|0,1:0|0:0,0:0:0:0:
135,249,60979,2,0,P|122:302|155:371,1,125,2|0,1:2|0:0,0:0:0:0:
34,147,61301,5,4,1:2:0:0:
34,147,61463,2,0,B|101:141|101:141|143:160|143:160|231:153,1,187.5,2|0,1:2|0:0,0:0:0:0:
203,143,61785,2,0,L|336:156,1,125,0|0,1:0|0:0,0:0:0:0:
436,140,62108,1,2,1:2:0:0:
183,299,62269,6,0,L|174:47,2,250,4|2|2,1:0|1:2|1:2,0:0:0:0:
233,332,62994,1,2,0:2:0:0:
292,319,63075,1,2,0:2:0:0:
324,267,63155,1,2,0:2:0:0:
308,208,63237,6,0,L|467:221,2,150.000005722046,6|0|2,1:3|0:0|0:0,0:0:0:0:
239,137,64043,1,0,3:0:0:0:
168,272,64204,6,0,L|9:285,2,150.000005722046,2|0|2,1:2|0:0|0:0,0:0:0:0:
324,353,65011,1,0,3:0:0:0:
449,324,65172,6,0,P|483:262|463:186,1,150.000005722046,0|2,1:0|0:0,0:0:0:0:
364,51,65656,1,0,0:0:0:0:
425,102,65817,2,0,P|396:126|353:131,1,75.0000028610231,2|0,0:0|0:0,0:0:0:0:
149,118,66140,6,0,L|277:169,1,112.500004291535,0|0,1:0|0:0,0:0:0:0:
254,160,66463,1,2,1:2:0:0:
111,191,66624,1,0,1:0:0:0:
142,335,66785,1,2,1:2:0:0:
286,305,66946,1,0,3:0:0:0:
224,365,67108,5,4,1:2:0:0:
81,269,67430,2,0,P|36:272|0:283,1,75.0000028610231,2|0,0:2|0:0,0:0:0:0:
214,221,67753,2,0,P|188:183|161:157,1,75.0000028610231,2|0,0:2|0:0,0:0:0:0:
362,125,68075,6,0,P|323:178|306:276,2,150.000005722046,0|2|0,1:0|0:2|0:0,0:0:0:0:
480,87,69043,5,2,1:3:0:0:
492,104,69366,6,0,L|482:189,1,75.0000028610231,2|0,0:0|0:0,0:0:0:0:
394,148,69688,2,0,L|384:233,1,75.0000028610231,2|0,0:0|3:0,0:0:0:0:
385,222,70011,6,0,P|320:250|233:204,1,150.000005722046,4|2,1:2|0:2,0:0:0:0:
249,223,70495,1,2,1:2:0:0:
197,129,70656,1,0,1:0:0:0:
159,270,70817,1,0,1:0:0:0:
31,233,70979,6,0,P|0:168|29:84,2,150.000005722046,4|0|2,1:2|0:0|0:0,0:0:0:0:
31,233,71785,1,0,3:0:0:0:
164,166,71946,6,0,L|150:9,2,150.000005722046,0|0|2,1:0|0:0|0:0,0:0:0:0:
353,71,72914,6,0,B|428:84|428:84|447:160,2,150.000005722046,0|2|0,1:0|0:0|0:0,0:0:0:0:
353,71,73721,1,0,3:0:0:0:
326,239,73882,6,0,L|205:255,1,112.500004291535,0|0,1:0|0:0,0:0:0:0:
214,253,74204,5,2,1:2:0:0:
306,318,74366,1,0,1:0:0:0:
365,161,74527,1,2,1:2:0:0:
311,332,74688,1,0,3:0:0:0:
396,366,74850,5,4,1:2:0:0:
396,366,75172,1,2,1:2:0:0:
333,251,75333,1,0,3:0:0:0:
195,314,75495,2,0,P|137:312|67:285,1,112.500004291535,2|0,0:2|0:0,0:0:0:0:
78,281,75817,6,0,P|139:286|229:246,2,150.000005722046,0|2|0,1:0|0:0|0:0,0:0:0:0:
316,66,76785,6,0,B|343:113|343:113|338:182,1,112.500004291535,0|0,1:0|0:0,0:0:0:0:
327,186,77108,2,0,L|407:179,1,75.0000028610231,2|0,0:0|0:0,0:0:0:0:
397,275,77430,2,0,L|477:282,1,75.0000028610231,2|0,0:0|0:0,0:0:0:0:
253,358,77753,6,0,L|243:219,1,112.500004291535,0|0,1:0|0:0,0:0:0:0:
244,245,78075,1,0,1:0:0:0:
125,273,78237,1,0,0:0:0:0:
207,168,78398,1,0,1:0:0:0:
89,139,78559,1,0,3:0:0:0:
255,23,78721,5,2,0:3:0:0:
256,192,92269,12,2,93882,3:2:0:0:
435,160,94204,6,0,B|475:274|396:232|434:365,2,200,6|0|0,1:3|0:0|0:0,0:0:0:0:
435,160,95011,1,0,3:0:0:0:
314,314,95172,6,0,P|226:324|176:219,1,200,2|0,1:2|0:0,0:0:0:0:
237,176,95656,1,0,0:0:0:0:
84,138,95817,2,0,L|66:255,1,100,0|2,1:0|0:2,0:0:0:0:
69,237,96059,1,2,0:2:0:0:
69,237,96140,5,4,1:2:0:0:
218,356,96301,2,0,P|203:308|197:258,1,100,2|0,0:2|0:0,0:0:0:0:
361,94,96624,1,2,0:2:0:0:
361,94,96785,2,0,P|375:141|381:191,1,100,0|0,1:0|0:0,0:0:0:0:
178,133,97108,6,0,P|106:124|52:172,1,150,4|0,1:2|0:0,0:0:0:0:
52,172,97430,1,0,1:0:0:0:
213,211,97592,1,0,1:0:0:0:
121,43,97753,1,2,1:2:0:0:
103,251,97914,1,0,1:0:0:0:
274,350,98075,5,4,1:0:0:0:
287,344,98398,2,0,L|390:351,1,100,0|0,1:0|0:0,0:0:0:0:
232,196,98721,2,0,L|64:215,1,150,2|0,0:2|0:0,0:0:0:0:
73,222,99043,6,0,P|31:138|69:31,1,200,0|0,1:0|1:0,0:0:0:0:
60,40,99527,1,0,0:0:0:0:
183,131,99688,2,0,P|224:144|292:120,1,100,2|0,1:2|0:0,0:0:0:0:
473,252,100011,5,4,1:2:0:0:
466,238,100333,1,2,0:2:0:0:
376,195,100495,2,0,L|393:299,1,100,0|0,1:0|0:0,0:0:0:0:
318,355,100817,1,2,1:2:0:0:
228,209,100979,6,0,L|246:42,1,150,2|0,1:3|0:0,0:0:0:0:
244,59,101301,1,2,0:2:0:0:
151,155,101463,1,0,1:0:0:0:
277,288,101624,1,2,1:2:0:0:
129,163,101785,1,0,1:0:0:0:
336,228,101946,6,0,P|428:224|445:105,2,200,4|2|2,1:0|0:2|1:2,0:0:0:0:
440,145,102753,1,2,0:2:0:0:
302,298,102914,6,0,P|264:260|259:209,1,100,0|0,1:0|0:0,0:0:0:0:
147,134,103237,2,0,L|145:239,1,100,0|0,1:0|0:0,0:0:0:0:
144,344,103559,1,0,1:0:0:0:
434,178,103721,1,2,0:2:0:0:
434,178,103801,1,2,0:2:0:0:
434,178,103882,6,0,P|459:242|427:312,1,150,4|0,1:2|0:0,0:0:0:0:
426,331,104204,2,0,B|378:322|378:322|330:343,1,100,0|0,0:0|1:0,0:0:0:0:
128,189,104527,1,2,0:2:0:0:
306,261,104688,1,0,1:0:0:0:
30,325,104850,5,2,1:2:0:0:
30,325,105172,1,0,1:0:0:0:
221,264,105333,1,0,1:0:0:0:
31,202,105494,1,2,1:2:0:0:
148,364,105656,1,0,0:0:0:0:
148,164,105817,6,0,P|242:182|312:98,2,200,4|0|2,1:0|1:0|0:2,0:0:0:0:
140,152,106624,1,0,0:0:0:0:
266,287,106785,6,0,P|360:269|427:338,1,200,2|0,1:2|0:0,0:0:0:0:
427,338,107269,1,2,0:2:0:0:
266,287,107430,1,0,1:0:0:0:
459,205,107592,1,2,1:2:0:0:
252,299,107753,6,0,B|191:289|191:289|154:256|154:256|60:239,2,200,4|2|0,1:2|1:2|1:0,0:0:0:0:
78,253,108559,1,0,0:0:0:0:
333,356,108721,2,0,B|354:310|354:310|343:262,1,100,2|0,1:2|0:0,0:0:0:0:
144,110,109043,6,0,L|111:131,1,25,6|0,0:2|0:0,0:0:0:0:
162,155,109124,6,0,L|141:192,1,25,2|0,0:2|0:0,0:0:0:0:
204,180,109204,6,0,L|199:223,1,25,2|0,0:2|0:0,0:0:0:0:
253,176,109285,6,0,L|266:211,1,25,2|0,0:2|0:0,0:0:0:0:
289,142,109366,6,0,L|315:162,1,25,2|0,0:2|0:0,0:0:0:0:
298,94,109446,6,0,L|333:96,1,25,2|0,0:2|0:0,0:0:0:0:
276,50,109527,6,0,L|314:22,1,25,2|0,0:2|0:0,0:0:0:0:
232,28,109608,6,0,L|247:-6,1,25,2|0,0:2|0:0,0:0:0:0:
184,37,109688,5,6,1:3:0:0:
425,234,109850,6,0,P|466:161|413:71,1,187.5,2|0,1:2|0:0,0:0:0:0:
405,71,110172,2,0,L|269:82,1,125,2|2,1:2|0:1,0:0:0:0:
21,158,110495,1,2,0:2:0:0:
21,158,110575,1,2,0:2:0:0:
21,158,110656,5,4,1:0:0:0:
261,246,110817,1,2,0:2:0:0:
100,102,110979,5,10,1:0:0:0:
12,342,111140,1,2,0:2:0:0:
91,78,111301,5,10,1:0:0:0:
179,318,111462,1,2,0:2:0:0:
119,0,111624,5,4,1:0:0:0:
15,183,111785,2,0,B|-4:240|-4:240|50:281|114:234,1,187.5,0|0,1:0|0:0,0:0:0:0:
104,220,112108,2,0,L|243:233,1,125,0|0,1:0|0:0,0:0:0:0:
442,332,112430,5,2,0:2:0:0:
442,332,112511,1,2,0:2:0:0:
442,332,112592,2,0,L|362:341,1,62.5,2|0,1:0|0:0,0:0:0:0:
302,347,112753,5,0,1:0:0:0:
388,222,112914,1,8,1:2:0:0:
192,313,113075,1,2,0:2:0:0:
318,266,113237,1,8,1:2:0:0:
79,237,113398,1,2,2:0:0:0:
79,237,113479,1,2,2:0:0:0:
79,237,113559,5,4,1:0:0:0:
279,344,113721,1,2,0:2:0:0:
467,153,113882,1,4,1:2:0:0:
387,185,114043,5,2,2:0:0:0:
387,185,114124,1,2,2:0:0:0:
387,185,114204,2,0,L|376:102,3,62.5,2|0|0|0,1:2|0:0|1:0|0:0,0:0:0:0:
401,49,114527,5,2,1:2:0:0:
302,137,114688,1,0,0:0:0:0:
136,96,114850,5,2,1:0:0:0:
292,119,115011,1,0,0:0:0:0:
225,280,115172,5,2,1:0:0:0:
247,45,115333,1,0,0:0:0:0:
293,343,115495,5,6,1:0:0:0:
293,343,115656,2,0,P|220:373|134:299,1,187.5
148,300,115979,2,0,B|160:251|133:217|133:217|111:247,1,125,0|0,1:0|0:0,0:0:0:0:
59,351,116301,1,0,1:0:0:0:
281,258,116463,6,0,L|349:268,1,62.5,8|0,1:2|0:0,0:0:0:0:
465,193,116624,2,0,L|397:203,1,62.5,2|0,0:2|0:0,0:0:0:0:
317,174,116785,2,0,L|385:184,1,62.5,8|0,1:2|0:0,0:0:0:0:
430,294,116946,1,2,0:2:0:0:
430,294,117027,1,2,0:2:0:0:
430,294,117108,5,2,1:2:0:0:
54,162,117269,1,2,1:2:0:0:
54,162,117350,1,2,1:2:0:0:
54,162,117430,6,0,B|55:193|39:221|39:221|63:233|81:260|81:260|28:312|59:387,2,250,4|2|0,1:0|0:2|1:0,0:0:0:0:
69,368,118237,1,0,0:0:0:0:
136,97,118398,6,0,P|194:75|261:103,1,125,2|0,1:0|0:0,0:0:0:0:
380,327,118721,2,0,P|322:349|255:321,1,125,2|0,0:2|0:0,0:0:0:0:
147,80,119043,2,0,P|205:58|272:86,1,125,2|2,1:0|2:0,0:0:0:0:
299,183,119285,1,2,2:0:0:0:
299,183,119366,6,0,B|101:246|196:134|4:204,2,300.000011444092,6|2|8,1:0|1:3|1:0,0:0:0:0:
390,354,120172,2,0,P|358:365|316:356,1,75.0000028610231,2|0,2:0|0:0,0:0:0:0:
352,285,120333,6,0,P|408:276|464:324,1,125,2|0,1:0|0:0,0:0:0:0:
149,309,120656,1,8,1:2:0:0:
208,160,120817,1,0,0:0:0:0:
140,332,120979,1,8,1:2:0:0:
16,132,121140,1,2,0:2:0:0:
16,132,121221,1,2,0:2:0:0:
16,132,121301,6,0,B|16:212|16:212|24:244|68:264|112:244|120:212|120:212|120:120,1,300,6|0,1:2|0:0,0:0:0:0:
120,44,121624,5,0,1:0:0:0:
120,44,121785,2,0,L|120:-12,1,50,2|0,1:0|0:0,0:0:0:0:
284,120,122108,1,0,1:0:0:0:
284,120,122269,6,0,B|232:120|232:120|224:128|216:152|224:180|232:188|232:188|284:188|284:188|292:196|300:220|292:248|284:256|284:256|232:256,1,300,6|0,1:2|0:0,0:0:0:0:
149,256,122592,5,0,1:0:0:0:
149,256,122753,2,0,L|93:256,2,50,2|2|0,1:0|0:2|0:0,0:0:0:0:
232,256,123237,5,2,0:3:0:0:
407,139,123559,2,0,P|445:247|483:138,1,300.000011444092
483,138,124527,6,0,L|484:98,1,25,6|0,0:2|0:0,0:0:0:0:
433,138,124608,6,0,L|434:98,1,25,2|0,0:2|0:0,0:0:0:0:
383,138,124688,6,0,L|384:98,1,25,2|0,0:2|0:0,0:0:0:0:
333,138,124769,6,0,L|334:98,1,25,2|0,0:2|0:0,0:0:0:0:
283,138,124850,6,0,L|284:178,1,25,2|0,0:2|0:0,0:0:0:0:
233,138,124931,6,0,L|234:178,1,25,2|0,0:2|0:0,0:0:0:0:
183,138,125011,6,0,L|184:178,1,25,2|0,0:2|0:0,0:0:0:0:
133,138,125092,6,0,L|134:178,1,25,2|0,0:2|0:0,0:0:0:0:
83,138,125172,5,6,1:3:0:0:
454,25,125333,6,0,B|479:48|485:81|485:81|456:232,1,187.5,2|0,1:2|0:0,0:0:0:0:
462,202,125656,1,0,1:0:0:0:
356,303,125817,2,0,L|346:242,1,62.5,2|0,1:0|0:0,0:0:0:0:
275,201,125979,2,0,L|265:262,1,62.5,2|0,1:2|0:0,0:0:0:0:
281,339,126140,5,4,1:0:0:0:
442,287,126301,1,2,0:2:0:0:
172,267,126463,5,10,1:0:0:0:
405,370,126624,1,2,0:2:0:0:
316,97,126785,5,10,1:0:0:0:
399,356,126946,1,2,0:2:0:0:
65,296,127108,5,4,1:0:0:0:
217,194,127269,2,0,P|305:218|376:158,1,187.5,0|0,1:0|0:0,0:0:0:0:
420,87,127592,2,0,L|436:215,1,125,0|0,1:0|0:0,0:0:0:0:
276,113,127914,5,2,0:2:0:0:
276,113,127995,1,2,0:2:0:0:
276,113,128075,2,0,L|283:42,1,62.5,2|0,1:0|0:0,0:0:0:0:
352,16,128237,5,0,1:0:0:0:
177,81,128398,1,8,1:2:0:0:
356,151,128559,1,0,0:0:0:0:
213,192,128721,1,8,1:2:0:0:
248,348,128882,1,2,0:2:0:0:
263,350,128962,1,2,0:2:0:0:
278,352,129043,5,4,1:0:0:0:
185,114,129204,2,0,B|112:88|59:138|59:138|91:142|116:156,1,187.5,2|0,1:2|0:0,0:0:0:0:
108,152,129527,1,0,1:0:0:0:
342,180,129688,2,0,B|365:140|365:140|348:45,1,125,2|0,1:2|0:0,0:0:0:0:
258,246,130011,5,2,1:2:0:0:
401,303,130172,1,0,0:0:0:0:
238,222,130333,5,2,1:0:0:0:
335,365,130495,1,0,0:0:0:0:
269,147,130656,5,2,1:0:0:0:
27,202,130817,1,0,0:0:0:0:
331,266,130979,5,6,1:0:0:0:
331,266,131140,2,0,B|376:219|376:219|384:151|341:88,1,187.5
334,91,131463,2,0,L|458:97,1,125,0|0,1:0|0:0,0:0:0:0:
230,6,131785,1,0,1:0:0:0:
53,77,131946,6,0,L|44:159,1,62.5,8|0,1:2|0:0,0:0:0:0:
147,197,132108,2,0,L|140:134,1,62.5,2|0,0:2|0:0,0:0:0:0:
147,44,132269,2,0,L|156:126,1,62.5,8|0,1:2|0:0,0:0:0:0:
63,224,132430,1,2,0:2:0:0:
63,224,132511,1,2,0:2:0:0:
63,224,132592,5,2,1:2:0:0:
249,340,132753,1,2,1:2:0:0:
249,340,132833,1,2,1:2:0:0:
249,340,132914,6,0,B|318:330|318:330|367:355|367:355|496:337,2,250,4|2|0,1:0|0:2|1:0,0:0:0:0:
262,352,133721,1,0,0:0:0:0:
91,331,133882,6,0,B|0:364|0:364|37:278,1,187.5,2|0,1:0|0:0,0:0:0:0:
117,247,134204,5,8,1:0:0:0:
169,366,134366,1,0,0:2:0:0:
47,201,134527,5,10,1:0:0:0:
198,285,134688,1,0,0:2:0:0:
122,156,134850,6,0,B|94:120|57:117|57:117|58:61|115:23,1,187.5,6|0,1:2|0:0,0:0:0:0:
104,10,135172,6,0,P|170:18|242:32,1,125,2|0,1:2|0:0,0:0:0:0:
478,145,135495,2,0,P|392:159|284:175,1,187.5,2|0,1:2|0:0,0:0:0:0:
277,166,135817,6,0,P|312:252|255:347,1,187.5,2|0,1:0|0:0,0:0:0:0:
274,333,136140,5,8,1:2:0:0:
214,217,136301,1,0,0:0:0:0:
369,364,136463,1,8,1:2:0:0:
300,149,136624,1,2,1:2:0:0:
305,107,136704,1,2,1:2:0:0:
311,66,136785,5,4,1:0:0:0:
433,199,136946,1,2,1:2:0:0:
85,254,137108,2,0,P|51:208|61:142,1,125,2|0,1:0|0:0,0:0:0:0:
274,38,137430,2,0,P|308:84|298:150,1,125,2|0,1:0|0:0,0:0:0:0:
151,322,137753,5,6,1:2:0:0:
225,107,137914,1,0,1:0:0:0:
272,359,138075,5,8,1:2:0:0:
199,198,138237,1,0,0:0:0:0:
0,294,138398,5,8,1:2:0:0:
223,211,138559,1,2,0:2:0:0:
39,21,138721,6,2,P|94:123|215:80,2,250,6|2|2,1:2|1:2|1:2,1:2:0:0:
157,28,139527,1,0,0:0:0:0:
103,322,139688,1,0,1:0:0:0:
91,309,140011,6,0,L|56:316,4,31.25,6|0|0|0|0,0:2|0:0|0:0|0:0|0:0,0:0:0:0:
273,337,140333,5,2,1:2:0:0:
322,327,140414,1,2,1:0:0:0:
362,361,140495,5,2,1:2:0:0:
410,370,140575,1,2,1:0:0:0:
454,350,140656,6,0,P|503:274|460:180,1,200,6|0,1:3|0:0,0:0:0:0:
279,254,141140,1,0,1:0:0:0:
161,77,141301,2,0,L|274:64,1,100,2|0,0:2|0:0,0:0:0:0:
117,209,141624,6,0,P|63:202|17:179,1,100,0|0,1:0|0:0,0:0:0:0:
215,166,141946,1,8,1:0:0:0:
191,307,142108,1,0,0:0:0:0:
238,161,142269,1,8,1:0:0:0:
273,283,142430,1,0,0:0:0:0:
437,265,142592,6,0,P|459:212|465:106,1,150,6|0,1:2|0:0,0:0:0:0:
474,108,142914,2,0,P|424:115|381:138,1,100,2|0,1:2|1:0,0:0:0:0:
273,283,143237,1,2,0:2:0:0:
232,177,143398,1,0,1:0:0:0:
159,340,143559,6,0,L|149:188,1,150,2|0,1:0|0:0,0:0:0:0:
149,176,143882,1,8,1:0:0:0:
309,205,144043,1,0,1:0:0:0:
252,53,144204,1,2,1:2:0:0:
236,282,144366,1,2,0:2:0:0:
240,294,144446,1,2,0:2:0:0:
243,306,144527,6,0,P|330:319|385:227,1,200,4|0,1:0|0:0,0:0:0:0:
244,140,145011,2,0,L|145:123,1,100,2|0,1:2|0:0,0:0:0:0:
69,162,145333,1,0,1:0:0:0:
348,31,145495,5,6,1:2:0:0:
361,38,145817,1,8,1:0:0:0:
221,58,145979,1,0,0:0:0:0:
415,179,146140,1,8,1:0:0:0:
300,96,146301,1,0,0:0:0:0:
340,236,146463,6,0,L|330:340,2,100,4|0|2,1:0|0:0|0:2,0:0:0:0:
168,155,146946,2,0,B|133:118|73:130|73:130|58:181|97:230,1,200,0|2,1:0|0:2,0:0:0:0:
91,222,147350,1,2,0:2:0:0:
91,222,147430,5,4,1:2:0:0:
281,180,147592,1,0,0:0:0:0:
150,363,147753,1,10,1:0:0:0:
283,118,147914,1,2,1:2:0:0:
289,167,147994,1,2,1:2:0:0:
295,216,148075,5,2,1:3:0:0:
463,357,148237,1,2,0:2:0:0:
466,333,148317,1,2,0:2:0:0:
469,308,148398,6,0,L|320:324,1,150,4|0,1:0|0:0,0:0:0:0:
326,337,148721,2,0,L|209:312,1,100,2|0,0:2|0:0,0:0:0:0:
60,262,149043,2,0,L|82:371,1,100,0|0,1:0|0:0,0:0:0:0:
205,198,149366,2,0,P|235:132|210:61,1,150,6|0,1:2|0:0,0:0:0:0:
210,62,149688,5,8,1:0:0:0:
76,95,149850,1,0,0:0:0:0:
306,165,150011,5,8,1:0:0:0:
338,31,150173,1,0,0:0:0:0:
398,212,150333,5,4,1:2:0:0:
391,226,150656,2,0,P|324:251|250:215,1,150,2|0,1:2|0:0,0:0:0:0:
263,209,150979,2,0,P|215:233|161:234,1,100,0|2,1:0|2:0,0:0:0:0:
169,235,151221,1,2,0:0:0:0:
169,235,151301,5,4,1:2:0:0:
30,192,151463,1,0,0:0:0:0:
203,83,151624,5,10,1:2:0:0:
160,222,151786,1,0,0:0:0:0:
350,157,151946,1,10,1:2:0:0:
490,208,152108,1,2,2:0:0:0:
490,208,152188,1,2,2:0:0:0:
490,208,152269,5,4,1:0:0:0:
377,253,152430,1,0,0:0:0:0:
350,157,152592,2,0,L|358:56,1,100,0|0,1:0|0:0,0:0:0:0:
250,248,152914,2,0,L|258:349,1,100,2|2,1:2|1:2,0:0:0:0:
257,347,153156,1,2,0:2:0:0:
257,347,153237,5,4,1:2:0:0:
194,165,153398,1,0,1:0:0:0:
136,276,153559,5,2,1:0:0:0:
11,226,153721,1,0,0:0:0:0:
122,108,153882,5,2,1:0:0:0:
140,301,154043,1,0,0:0:0:0:
50,52,154204,5,6,1:0:0:0:
122,108,154366,2,0,L|243:97,1,100,2|0,0:2|0:0,0:0:0:0:
311,193,154688,2,0,L|211:183,1,100,0|0,1:0|0:0,0:0:0:0:
282,26,155011,1,2,0:2:0:0:
480,78,155172,6,0,P|508:167|460:272,2,200,4|2|0,1:2|0:2|0:0,0:0:0:0:
76,165,155979,1,2,1:2:0:0:
76,165,156059,1,2,1:2:0:0:
76,165,156140,6,0,P|71:264|83:378,1,200,6|2,1:3|1:2,0:0:0:0:
198,135,156624,2,0,P|202:85|198:30,1,100,2|0,0:2|0:0,0:0:0:0:
445,200,156946,1,0,1:0:0:0:
257,242,157108,2,0,P|253:292|257:347,1,100,2|0,1:2|0:0,0:0:0:0:
354,364,157430,5,10,1:0:0:0:
156,272,157592,1,0,0:0:0:0:
364,218,157753,5,10,1:0:0:0:
201,173,157914,1,0,0:0:0:0:
463,104,158075,5,4,1:2:0:0:
151,380,158398,1,2,1:2:0:0:
54,357,158559,2,0,P|30:315|36:253,1,100,0|0,1:0|0:0,0:0:0:0:
222,303,158882,1,2,0:2:0:0:
199,210,159043,6,0,P|223:252|217:314,1,100,0|0,1:0|0:0,0:0:0:0:
62,98,159366,2,0,B|78:83|92:59|92:59|144:44|194:71,1,150,4|0,1:2|0:0,0:0:0:0:
198,81,159688,2,0,L|260:87,1,50,0|0,1:0|0:0,0:0:0:0:
447,57,159850,1,2,2:0:0:0:
444,44,159930,1,2,2:0:0:0:
442,33,160011,6,0,P|377:106|414:205,1,200,4|2,1:0|0:2,0:0:0:0:
454,284,160495,2,0,L|355:278,1,100,0|0,1:0|0:0,0:0:0:0:
512,222,160817,1,0,1:0:0:0:
312,348,160979,2,0,L|150:359,1,150,4|0,1:2|0:0,0:0:0:0:
162,358,161301,5,8,1:0:0:0:
41,302,161463,1,0,0:0:0:0:
231,246,161624,5,8,1:0:0:0:
125,289,161785,1,0,0:0:0:0:
147,126,161946,6,0,B|208:134|208:134|235:159|235:159|336:173,1,200,4|0,1:0|0:0,0:0:0:0:
483,260,162430,2,0,B|434:268|434:268|397:310,2,100,0|2|0,1:0|0:2|1:0,0:0:0:0:
260,360,162914,2,0,L|252:206,1,150,4|0,1:2|0:0,0:0:0:0:
258,197,163237,5,2,1:2:0:0:
217,224,163317,1,0,1:0:0:0:
169,215,163398,1,2,1:2:0:0:
142,175,163479,1,0,1:0:0:0:
151,121,163559,5,8,1:0:0:0:
448,75,163721,1,2,1:2:0:0:
448,75,163801,1,2,1:2:0:0:
448,75,163882,6,0,L|438:224,1,150,4|0,1:0|0:0,0:0:0:0:
437,239,164204,2,0,P|387:256|338:231,1,100,2|0,1:2|0:0,0:0:0:0:
178,139,164527,2,0,L|69:154,1,100,0|0,1:0|0:0,0:0:0:0:
10,330,164850,2,0,B|21:349|48:358|48:358|89:321|73:250,1,150,6|0,1:2|0:0,0:0:0:0:
76,265,165172,5,8,1:0:0:0:
6,123,165333,1,0,0:0:0:0:
153,221,165495,5,8,1:0:0:0:
135,60,165656,1,0,0:0:0:0:
223,286,165817,6,0,B|264:299|294:281|294:281|331:301|331:301|364:271|430:268,1,200,6|0,1:0|0:0,0:0:0:0:
495,301,166301,1,2,0:2:0:0:
470,92,166463,2,0,P|426:74|376:95,1,100,0|2,1:0|0:2,0:0:0:0:
379,93,166704,1,2,0:2:0:0:
379,93,166785,5,4,1:0:0:0:
145,71,166946,1,2,0:2:0:0:
332,29,167108,5,10,1:0:0:0:
298,199,167269,1,2,0:2:0:0:
124,155,167430,5,10,1:0:0:0:
221,143,167592,1,0,1:0:0:0:
221,143,167672,1,0,1:0:0:0:
221,143,167753,6,0,B|214:200|214:200|227:241|227:241|213:352,2,200,4|0|0,1:2|0:0|1:0,0:0:0:0:
231,133,168559,1,0,0:0:0:0:
143,285,168721,6,0,P|93:298|50:281,1,100,2|0,1:2|0:0,0:0:0:0:
315,173,169043,2,0,P|365:160|408:177,1,100,0|0,1:0|0:0,0:0:0:0:
467,259,169366,1,0,1:0:0:0:
467,259,169527,1,0,0:0:0:0:
321,360,169688,6,0,L|306:143,1,200,6|0,1:2|0:0,0:0:0:0:
182,56,170172,2,0,L|174:160,1,100,0|0,1:0|0:0,0:0:0:0:
166,256,170495,1,2,1:2:0:0:
270,83,170656,2,0,L|433:53,1,150,4|0,1:2|0:0,0:0:0:0:
417,55,170979,5,8,1:0:0:0:
212,24,171140,1,0,0:0:0:0:
409,41,171301,5,8,1:0:0:0:
204,10,171462,1,0,0:0:0:0:
478,128,171624,5,2,1:3:0:0:
492,124,171946,1,2,0:0:0:0:
471,142,172592,5,4,0:0:0:0:
502,152,172914,1,2,0:0:0:0:
422,202,173559,5,0,3:0:0:0:
460,281,173882,1,2,0:0:0:0:
306,275,174527,5,4,0:0:0:0:
316,375,174850,1,2,0:3:0:0:
