osu file format v14

[General]
AudioFilename: audio.mp3
AudioLeadIn: 0
PreviewTime: 63189
Countdown: 0
SampleSet: Soft
StackLeniency: 0.4
Mode: 0
LetterboxInBreaks: 0
WidescreenStoryboard: 0

[Editor]
DistanceSpacing: 1
BeatDivisor: 4
GridSize: 4
TimelineZoom: 1.1

[Metadata]
Title:Tokohana (TV Size)
TitleUnicode:トコハナ (TV Size)
Artist:yanaginagi
ArtistUnicode:やなぎなぎ
Creator:PaRaDogi
Version:Red Eyes
Source:ブラック・ブレット
Tags:Black Bullet Japanese Ending Anime Respirte fzl_17 frozz
BeatmapID:2218110
BeatmapSetID:1059162

[Difficulty]
HPDrainRate:6
CircleSize:4.6
OverallDifficulty:9
ApproachRate:9
SliderMultiplier:1.9
SliderTickRate:1

[Events]
//Background and Video events
0,0,"Konachan.com - 185499 sample.jpg",0,0
//Break Periods
//Storyboard Layer 0 (Background)
//Storyboard Layer 1 (Fail)
//Storyboard Layer 2 (Pass)
//Storyboard Layer 3 (Foreground)
//Storyboard Layer 4 (Overlay)
//Storyboard Sound Samples

[TimingPoints]
225,400,4,2,1,25,1,0
6025,-100,4,2,2,25,0,0
6625,-100,4,2,1,25,0,0
12825,-100,4,2,1,5,0,0
18900,355.029585798817,4,2,2,50,1,0
18900,-100,4,2,2,50,0,0
19343,-100,4,2,2,5,0,0
19432,-100,4,2,2,50,0,0
19698,-100,4,2,2,5,0,0
19787,-100,4,2,2,50,0,0
20053,-100,4,2,2,5,0,0
20142,-100,4,2,2,50,0,0
20763,-100,4,2,2,5,0,0
20852,-100,4,2,2,50,0,0
21118,-100,4,2,2,5,0,0
21207,-100,4,2,2,50,0,0
21473,-100,4,2,2,5,0,0
21562,-100,4,2,2,50,0,0
22184,-100,4,2,2,5,0,0
22272,-100,4,2,2,50,0,0
22539,-100,4,2,2,5,0,0
22627,-100,4,2,2,50,0,0
22894,-100,4,2,2,5,0,0
22982,-100,4,2,2,50,0,0
23604,-100,4,2,2,5,0,0
23692,-100,4,2,2,50,0,0
23959,-100,4,2,2,5,0,0
24047,-100,4,2,2,50,0,0
25024,-100,4,2,2,5,0,0
25113,-100,4,2,2,50,0,0
25379,-100,4,2,2,5,0,0
25468,-100,4,2,2,50,0,0
25734,-100,4,2,2,5,0,0
25823,-100,4,2,2,50,0,0
26444,-100,4,2,2,5,0,0
26533,-100,4,2,2,50,0,0
26799,-100,4,2,2,5,0,0
26888,-100,4,2,2,50,0,0
27864,-100,4,2,2,5,0,0
27953,-100,4,2,2,50,0,0
28219,-100,4,2,2,5,0,0
28308,-100,4,2,2,50,0,0
30260,-133.333333333333,4,2,1,40,0,0
38781,-133.333333333333,4,2,1,40,0,0
43130,-133.333333333333,4,2,1,5,0,0
43219,-133.333333333333,4,2,1,45,0,0
45971,-133.333333333333,4,2,1,5,0,0
46059,-133.333333333333,4,2,1,45,0,0
55113,-133.333333333333,4,2,1,5,0,0
55468,-200,4,2,1,30,0,0
56888,-333.333333333333,4,2,1,30,0,0
58308,-200,4,2,1,30,0,0
59728,-333.333333333333,4,2,1,30,0,0
61148,-200,4,2,1,30,0,0
61503,-285.714285714286,4,2,1,30,0,0
63278,-200,4,2,1,25,0,0
63633,-133.333333333333,4,2,1,35,0,0
63988,-100,4,2,1,45,0,0
64343,-83.3333333333333,4,2,3,65,0,1
64698,-83.3333333333333,4,2,3,65,0,1
64787,-83.3333333333333,4,2,3,5,0,1
64876,-83.3333333333333,4,2,3,65,0,1
65142,-83.3333333333333,4,2,3,5,0,1
65231,-83.3333333333333,4,2,3,65,0,1
66207,-83.3333333333333,4,2,3,5,0,1
66296,-83.3333333333333,4,2,3,65,0,1
66562,-83.3333333333333,4,2,3,5,0,1
66651,-83.3333333333333,4,2,3,65,0,1
67627,-83.3333333333333,4,2,3,5,0,1
67716,-83.3333333333333,4,2,3,65,0,1
67982,-83.3333333333333,4,2,3,5,0,1
68071,-83.3333333333333,4,2,3,65,0,1
68337,-83.3333333333333,4,2,3,5,0,1
68426,-83.3333333333333,4,2,3,65,0,1
68692,-83.3333333333333,4,2,3,5,0,1
68781,-83.3333333333333,4,2,3,65,0,1
69047,-83.3333333333333,4,2,3,5,0,1
69136,-83.3333333333333,4,2,3,65,0,1
69580,-83.3333333333333,4,2,3,65,0,1
69669,-83.3333333333333,4,2,3,65,0,1
69757,-83.3333333333333,4,2,3,65,0,1
69846,-83.3333333333333,4,2,3,65,0,1
69935,-83.3333333333333,4,2,3,65,0,1
70024,-83.3333333333333,4,2,3,65,0,1
70468,-83.3333333333333,4,2,3,5,0,1
70556,-83.3333333333333,4,2,3,65,0,1
70823,-83.3333333333333,4,2,3,5,0,1
70911,-83.3333333333333,4,2,3,65,0,1
71532,-83.3333333333333,4,2,3,5,0,1
71621,-83.3333333333333,4,2,3,65,0,1
71710,-83.3333333333333,4,2,2,5,0,1
71799,-83.3333333333333,4,2,3,65,0,1
71887,-83.3333333333333,4,2,3,5,0,1
71976,-83.3333333333333,4,2,3,65,0,1
72065,-83.3333333333333,4,2,2,5,0,1
72154,-83.3333333333333,4,2,3,65,0,1
72420,-83.3333333333333,4,2,3,65,0,1
72509,-83.3333333333333,4,2,3,65,0,1
73042,-83.3333333333333,4,2,3,65,0,1
73219,-83.3333333333333,4,2,3,65,0,1
73574,-83.3333333333333,4,2,3,65,0,1
73752,-83.3333333333333,4,2,3,65,0,1
74284,-83.3333333333333,4,2,3,65,0,1
74462,-83.3333333333333,4,2,3,65,0,1
74550,-83.3333333333333,4,2,3,65,0,1
74639,-83.3333333333333,4,2,3,65,0,1
74727,-83.3333333333333,4,2,3,65,0,1
74817,-83.3333333333333,4,2,3,65,0,1
74905,-83.3333333333333,4,2,3,65,0,1
74994,-83.3333333333333,4,2,3,65,0,1
76503,-83.3333333333333,4,2,3,5,0,1
76592,-83.3333333333333,4,2,3,65,0,1
76858,-83.3333333333333,4,2,3,5,0,1
76947,-83.3333333333333,4,2,3,65,0,1
77213,-83.3333333333333,4,2,3,5,0,1
77302,-83.3333333333333,4,2,3,65,0,1
77745,-83.3333333333333,4,2,3,65,0,1
77834,-83.3333333333333,4,2,3,65,0,1
78101,-83.3333333333333,4,2,3,5,0,1
78189,-83.3333333333333,4,2,3,65,0,1
78810,-83.3333333333333,4,2,3,65,0,1
78900,-83.3333333333333,4,2,3,65,0,1
79166,-83.3333333333333,4,2,3,5,0,1
79255,-83.3333333333333,4,2,3,65,0,1
79876,-83.3333333333333,4,2,3,65,0,1
79965,-83.3333333333333,4,2,3,65,0,1
80231,-83.3333333333333,4,2,3,65,0,1
80320,-83.3333333333333,4,2,3,65,0,1
80586,-83.3333333333333,4,2,3,5,0,1
80675,-83.3333333333333,4,2,3,65,0,1
81562,-83.3333333333333,4,2,3,65,0,1
81740,-83.3333333333333,4,2,3,65,0,1
84313,-83.3333333333333,4,2,3,65,0,1
84402,-83.3333333333333,4,2,3,65,0,1
85378,-83.3333333333333,4,2,3,65,0,1
85468,-83.3333333333333,4,2,3,65,0,1
85556,-83.3333333333333,4,2,3,40,0,0
85645,-83.3333333333333,4,2,3,40,0,0

[Colours]
Combo1 : 255,0,0
Combo2 : 0,64,128
Combo3 : 255,255,0
Combo4 : 0,128,128

[HitObjects]
13,90,225,5,4,3:0:0:0:
88,41,425,1,2,0:0:0:0:
173,75,625,1,2,0:0:0:0:
179,167,825,1,2,0:0:0:0:
361,352,1225,5,2,0:0:0:0:
327,265,1425,1,2,0:0:0:0:
371,185,1625,1,2,0:0:0:0:
331,29,2025,5,2,0:0:0:0:
262,90,2225,1,2,0:0:0:0:
173,75,2425,1,2,0:0:0:0:
1,277,2825,5,2,0:0:0:0:
73,222,3025,1,2,0:0:0:0:
156,254,3225,1,2,0:0:0:0:
409,365,3625,5,2,0:0:0:0:
370,288,3825,1,2,0:0:0:0:
414,210,4025,1,2,0:0:0:0:
314,4,4425,5,2,0:0:0:0:
362,86,4625,1,2,0:0:0:0:
320,170,4825,1,2,0:0:0:0:
73,222,5225,5,2,0:0:0:0:
148,174,5425,1,2,0:0:0:0:
227,218,5625,1,2,0:0:0:0:
441,353,6025,6,0,P|478:333|449:365,1,95,0|0,0:0|0:0,0:0:0:0:
368,310,6425,1,0,0:0:0:0:
364,224,6625,6,0,B|385:181|385:181|367:121,1,95,4|2,3:0|0:0,0:0:0:0:
324,56,7025,1,2,0:0:0:0:
233,59,7225,1,2,0:0:0:0:
46,358,7625,5,2,0:0:0:0:
108,291,7825,1,2,0:0:0:0:
86,204,8025,1,2,0:0:0:0:
220,7,8425,5,2,0:0:0:0:
171,84,8625,1,2,0:0:0:0:
208,168,8825,1,2,0:0:0:0:
393,266,9225,5,2,0:0:0:0:
362,182,9425,1,2,0:0:0:0:
413,108,9625,1,2,0:0:0:0:
329,357,10025,5,2,0:0:0:0:
236,368,10225,1,2,0:0:0:0:
171,305,10425,1,2,0:0:0:0:
20,49,10825,5,2,0:0:0:0:
90,115,11025,1,2,0:0:0:0:
59,202,11225,1,2,0:0:0:0:
256,192,11325,12,0,12825,0:0:0:0:
256,192,13025,12,0,14425,0:0:0:0:
256,192,14625,12,0,16025,0:0:0:0:
256,192,16225,12,0,17825,0:0:0:0:
70,74,18900,6,0,P|121:54|184:71,1,95,6|2,1:2|0:0,0:0:0:0:
293,190,19255,2,0,P|278:139|282:124,1,47.5,8|0,0:0|0:0,0:0:0:0:
280,117,19432,1,2,0:0:0:0:
424,173,19610,2,0,P|372:160|361:149,1,47.5,0|0,1:2|0:0,0:0:0:0:
354,147,19787,1,2,0:0:0:0:
478,48,19965,2,0,P|441:86|426:90,1,47.5,8|0,0:0|0:0,0:0:0:0:
420,95,20142,1,2,0:0:0:0:
287,278,20320,6,0,B|307:232|307:232|288:176,1,95,0|2,1:2|0:0,0:0:0:0:
166,44,20675,2,0,L|183:98,1,47.5,8|0,0:0|0:0,0:0:0:0:
188,115,20852,1,2,0:0:0:0:
107,193,21030,2,0,L|162:205,1,47.5,0|0,1:2|0:0,0:0:0:0:
179,209,21207,1,2,0:0:0:0:
209,330,21385,2,0,L|247:288,1,47.5,8|0,0:0|0:0,0:0:0:0:
258,275,21562,1,2,0:0:0:0:
445,8,21740,6,0,P|419:53|429:117,1,95,0|2,1:2|0:0,0:0:0:0:
500,259,22095,2,0,L|425:241,1,47.5,8|0,0:0|0:0,0:0:0:0:
426,240,22272,1,2,0:0:0:0:
239,183,22450,2,0,L|314:165,1,47.5,0|0,1:2|0:0,0:0:0:0:
313,164,22627,1,2,0:0:0:0:
493,113,22805,2,0,L|418:95,1,47.5,8|0,0:0|0:0,0:0:0:0:
419,94,22982,1,2,0:0:0:0:
198,42,23160,6,0,B|242:31|242:31|298:38,1,95,0|2,1:2|0:0,0:0:0:0:
128,13,23515,2,0,P|126:65|146:98,1,47.5,8|0,0:0|0:0,0:0:0:0:
132,93,23692,1,2,0:0:0:0:
67,158,23870,2,0,P|111:185|149:184,1,47.5,0|0,1:2|0:0,0:0:0:0:
138,194,24047,1,2,0:0:0:0:
245,142,24225,1,12,0:0:0:0:
228,257,24402,1,8,0:0:0:0:
228,257,24491,1,8,0:0:0:0:
228,257,24580,6,0,P|271:229|337:248,1,95,6|2,1:2|0:0,0:0:0:0:
483,313,24935,2,0,L|488:258,1,47.5,8|0,0:0|0:0,0:0:0:0:
490,239,25113,1,2,0:0:0:0:
390,99,25290,2,0,L|395:154,1,47.5,0|0,1:2|0:0,0:0:0:0:
397,173,25468,1,2,0:0:0:0:
319,305,25645,2,0,L|314:250,1,47.5,8|0,0:0|0:0,0:0:0:0:
312,232,25823,1,2,0:0:0:0:
207,79,26000,6,0,B|220:102|220:102|210:179,1,95,0|2,1:2|0:0,0:0:0:0:
83,282,26355,2,0,P|71:225|79:203,1,47.5,8|0,0:0|0:0,0:0:0:0:
68,206,26533,1,2,0:0:0:0:
0,167,26710,2,0,P|43:128|66:124,1,47.5,0|0,1:2|0:0,0:0:0:0:
58,116,26888,1,2,0:0:0:0:
58,42,27065,2,0,P|113:60|128:78,1,47.5,8|0,0:0|0:0,0:0:0:0:
131,66,27243,1,2,0:0:0:0:
131,66,27331,1,0,0:0:0:0:
131,66,27420,6,0,B|149:83|149:83|226:83,1,95,0|2,1:2|0:0,0:0:0:0:
342,20,27775,2,0,L|357:77,1,47.5,8|0,0:0|0:0,0:0:0:0:
361,94,27953,1,2,0:0:0:0:
443,139,28130,2,0,L|401:180,1,47.5,0|0,1:2|0:0,0:0:0:0:
388,192,28308,1,2,0:0:0:0:
445,355,28485,2,0,P|393:304|310:294,1,142.5,12|0,0:0|0:0,0:0:0:0:
303,311,28840,6,0,B|271:301|271:301|166:322,1,95,6|0,1:2|0:0,0:0:0:0:
81,273,29195,2,0,L|93:330,1,47.5,0|0,1:2|0:0,0:0:0:0:
165,212,29373,2,0,L|158:266,1,47.5,8|0,0:0|0:0,0:0:0:0:
26,128,29550,2,0,L|42:191,1,47.5,8|0,0:0|0:0,0:0:0:0:
244,75,29728,2,0,L|231:152,1,47.5,8|0,0:0|0:0,0:0:0:0:
8,0,29905,2,0,L|22:55,1,47.5,8|0,0:0|0:0,0:0:0:0:
172,141,30083,1,8,0:0:0:0:
172,141,30172,1,0,0:0:0:0:
172,141,30260,6,0,L|163:221,1,71.2500027179719,6|0,1:2|0:0,0:0:0:0:
231,352,30615,2,0,P|291:358|342:312,1,106.875004076958,2|0,1:2|0:0,0:0:0:0:
351,314,30971,2,0,P|387:296|425:306,1,71.2500027179719,2|2,1:2|0:0,0:0:0:0:
476,199,31326,1,2,1:2:0:0:
476,199,31503,1,2,0:0:0:0:
361,169,31681,6,0,B|437:176|398:103|516:129,2,142.500005435944,2|2|2,1:2|1:2|1:2,0:0:0:0:
219,112,32568,1,0,0:0:0:0:
219,112,32746,2,0,L|208:65,1,35.625001358986,0|0,1:2|0:0,0:0:0:0:
282,183,32923,1,2,0:0:0:0:
288,158,33012,1,2,0:0:0:0:
294,136,33101,6,0,L|314:60,1,71.2500027179719,2|0,1:2|0:0,0:0:0:0:
425,8,33456,2,0,P|468:8|514:61,1,106.875004076958,2|0,1:2|0:0,0:0:0:0:
509,86,33811,2,0,B|497:117|497:117|506:158,1,71.2500027179719,2|2,1:2|0:0,0:0:0:0:
444,296,34166,1,2,1:2:0:0:
444,296,34343,1,2,0:0:0:0:
346,242,34521,6,0,B|381:251|381:251|398:225|447:200|503:245,2,142.500005435944,2|2|2,1:2|1:2|1:2,0:0:0:0:
229,198,35408,1,0,0:0:0:0:
229,198,35586,2,0,L|177:215,1,35.625001358986,2|0,1:2|0:0,0:0:0:0:
137,290,35763,1,2,0:0:0:0:
113,282,35852,1,2,0:0:0:0:
87,272,35941,6,0,P|67:243|70:203,1,71.2500027179719,6|0,1:2|0:0,0:0:0:0:
146,80,36296,2,0,B|180:65|180:65|256:87,1,106.875004076958,2|0,1:2|0:0,0:0:0:0:
271,107,36651,2,0,L|351:100,1,71.2500027179719,2|2,1:2|0:0,0:0:0:0:
464,151,37006,1,2,1:2:0:0:
464,151,37184,1,2,0:0:0:0:
425,83,37361,6,0,P|470:72|541:152,2,142.500005435944,2|2|2,1:2|1:2|1:2,0:0:0:0:
379,178,38249,2,0,L|392:226,1,35.625001358986,0|0,0:0|0:0,0:0:0:0:
455,268,38426,2,0,P|421:292|341:287,1,106.875004076958,14|0,1:2|0:0,0:0:0:0:
322,282,38781,6,0,L|242:294,1,71.2500027179719,6|0,1:2|0:0,0:0:0:0:
138,372,39136,2,0,L|143:260,1,106.875004076958,8|0,0:0|0:0,0:0:0:0:
133,234,39491,1,0,1:2:0:0:
133,234,39669,1,0,1:2:0:0:
25,107,39846,2,0,P|61:122|136:105,1,106.875004076958,10|0,0:0|0:0,0:0:0:0:
155,95,40201,6,0,P|192:85|226:97,1,71.2500027179719,2|0,1:2|0:0,0:0:0:0:
350,210,40556,2,0,P|328:174|358:105,1,106.875004076958,8|0,0:0|0:0,0:0:0:0:
368,98,40911,1,2,1:2:0:0:
498,236,41089,1,8,0:0:0:0:
484,272,41178,1,8,0:0:0:0:
453,296,41266,1,8,1:2:0:0:
414,300,41355,1,0,0:0:0:0:
375,286,41444,1,8,0:0:0:0:
350,251,41533,1,8,0:0:0:0:
350,210,41621,6,0,P|388:223|404:297,1,106.875004076958,6|0,1:2|0:0,0:0:0:0:
384,309,41976,2,0,L|301:320,1,71.2500027179719,10|2,0:0|0:0,0:0:0:0:
196,371,42331,1,2,1:2:0:0:
196,371,42509,1,2,1:2:0:0:
92,252,42686,2,0,L|174:259,1,71.2500027179719,10|2,0:0|0:0,0:0:0:0:
271,218,43042,6,0,L|265:172,1,35.625001358986,2|0,1:2|0:0,0:0:0:0:
265,158,43219,1,0,0:0:0:0:
114,42,43397,2,0,B|97:83|97:83|115:188,1,142.500005435944,10|2,0:0|1:2,0:0:0:0:
190,231,43929,1,2,1:2:0:0:
46,296,44107,2,0,B|84:283|84:283|166:303,1,106.875004076958,8|0,0:0|0:0,0:0:0:0:
175,324,44462,6,0,L|271:313,1,71.2500027179719,0|0,1:2|1:2,0:0:0:0:
381,239,44817,2,0,P|391:196|350:137,1,106.875004076958,10|0,0:0|0:0,0:0:0:0:
331,131,45172,1,2,1:2:0:0:
331,131,45349,1,2,1:2:0:0:
152,85,45527,2,0,P|187:103|225:95,1,71.2500027179719,10|2,0:0|0:0,0:0:0:0:
276,0,45882,6,0,L|284:41,1,35.625001358986,2|0,1:2|0:0,0:0:0:0:
287,60,46059,1,2,1:2:0:0:
226,174,46237,2,0,B|212:195|212:195|234:286,1,106.875004076958,10|0,0:0|0:0,0:0:0:0:
255,303,46592,1,2,1:2:0:0:
255,303,46769,1,2,1:2:0:0:
418,353,46947,2,0,L|377:360,1,35.625001358986,10|0,0:0|0:0,0:0:0:0:
351,365,47124,1,2,0:0:0:0:
348,346,47213,1,2,0:0:0:0:
345,329,47302,6,0,L|334:247,1,71.2500027179719,6|0,1:2|1:2,0:0:0:0:
406,157,47657,2,0,P|407:112|363:54,1,106.875004076958,10|0,0:0|0:0,0:0:0:0:
334,49,48012,1,2,1:2:0:0:
334,49,48189,1,2,1:2:0:0:
122,97,48367,2,0,L|236:107,1,106.875004076958,10|0,0:0|0:0,0:0:0:0:
255,130,48722,5,2,1:2:0:0:
255,130,48900,1,0,1:2:0:0:
162,293,49077,2,0,P|153:250|161:210,1,71.2500027179719,10|0,0:0|0:0,0:0:0:0:
255,130,49432,1,2,1:2:0:0:
294,253,49610,1,0,1:2:0:0:
182,112,49787,2,0,P|206:74|279:60,1,106.875004076958,14|0,0:0|0:0,0:0:0:0:
296,69,50142,6,0,L|376:78,1,71.2500027179719,6|0,1:2|1:2,0:0:0:0:
223,265,50497,2,0,L|303:251,1,71.2500027179719,8|0,0:0|0:0,0:0:0:0:
121,113,50852,1,0,1:2:0:0:
121,113,51030,1,0,1:2:0:0:
10,262,51207,2,0,P|-4:222|23:158,1,106.875004076958,10|0,0:0|0:0,0:0:0:0:
35,137,51562,6,0,L|26:57,1,71.2500027179719,2|0,1:2|1:2,0:0:0:0:
177,183,51917,2,0,L|187:68,1,106.875004076958,14|0,0:0|0:0,0:0:0:0:
174,47,52272,1,2,1:2:0:0:
316,225,52450,2,0,L|327:341,1,106.875004076958,8|0,0:0|0:0,0:0:0:0:
346,362,52805,1,0,1:2:0:0:
395,265,52982,5,6,0:0:0:0:
256,192,53071,12,0,55113,0:0:0:0:
477,242,55468,6,0,L|398:227,1,71.25,2|0,0:0|0:0,0:0:0:0:
389,201,55823,6,0,B|362:213|362:213|283:204,1,95,2|0,0:0|0:0,0:0:0:0:
229,153,56355,2,0,P|217:178|228:255,1,95,2|0,0:0|0:0,0:0:0:0:
243,306,56888,6,0,B|196:319|166:281|166:281|128:309|81:289,1,170.999994781494,2|0,0:0|0:0,0:0:0:0:
10,99,58308,2,0,L|1:182,1,71.25,2|0,0:0|0:0,0:0:0:0:
19,202,58663,6,0,P|44:216|116:193,1,95,2|0,0:0|0:0,0:0:0:0:
171,143,59195,2,0,L|272:154,1,95,2|0,0:0|0:0,0:0:0:0:
329,105,59728,2,0,B|362:147|344:204|305:225|305:225|336:247,1,170.999994781494,2|0,0:0|0:0,0:0:0:0:
430,264,61148,2,0,L|420:334,1,71.25,2|0,0:0|0:0,0:0:0:0:
395,363,61503,6,0,B|378:381|350:385|316:376|306:358|306:358|281:329|233:323|201:335|182:374,1,232.749992897034,2|0,0:0|0:0,0:0:0:0:
82,73,63278,6,0,L|156:65,1,71.25,2|0,0:0|0:0,0:0:0:0:
207,24,63633,6,0,B|187:57|196:106|196:106|232:72,1,106.875004076958,2|0,0:0|0:0,0:0:0:0:
295,159,63988,6,0,B|256:141|256:141|223:187|155:167,1,142.5,2|0,0:0|0:0,0:0:0:0:
99,154,64343,6,0,B|81:187|81:187|99:274,1,113.999996520996,6|4,1:0|0:0,0:0:0:0:
334,378,64698,2,0,L|336:311,1,56.9999982604981,8|0,0:0|0:0,0:0:0:0:
338,286,64876,1,4,0:0:0:0:
485,90,65053,2,0,L|487:157,1,56.9999982604981,0|0,1:2|0:0,0:0:0:0:
489,182,65231,1,4,0:0:0:0:
445,330,65408,1,8,0:0:0:0:
163,239,65586,6,0,B|200:278|248:280|277:247|277:247|303:212|342:205|372:218|395:237,1,227.999993041992,6|6,0:0|0:0,0:0:0:0:
227,203,66118,2,0,P|217:139|232:113,1,56.9999982604981,10|0,0:0|0:0,0:0:0:0:
222,120,66296,1,6,0:0:0:0:
101,1,66473,2,0,P|111:65|96:91,1,56.9999982604981,2|0,1:2|0:0,0:0:0:0:
106,84,66651,1,6,0:0:0:0:
5,197,66828,1,10,0:0:0:0:
227,201,67006,6,0,B|167:220|125:171|125:171|86:228|12:207,1,227.999993041992,6|6,0:0|0:0,0:0:0:0:
193,131,67539,2,0,P|271:137|291:157,1,56.9999982604981,10|0,0:0|0:0,0:0:0:0:
277,138,67716,1,4,0:0:0:0:
448,261,67894,2,0,P|370:255|350:235,1,56.9999982604981,0|0,1:2|0:0,0:0:0:0:
364,254,68071,1,4,0:0:0:0:
320,67,68249,2,0,P|353:137|346:164,1,56.9999982604981,8|0,0:0|0:0,0:0:0:0:
355,143,68426,1,4,0:0:0:0:
318,319,68604,6,0,P|284:248|291:221,1,56.9999982604981,0|0,1:2|0:0,0:0:0:0:
282,242,68781,1,4,0:0:0:0:
120,70,68959,2,0,P|153:140|146:167,1,56.9999982604981,8|0,0:0|0:0,0:0:0:0:
156,147,69136,1,4,0:0:0:0:
71,300,69314,1,0,1:2:0:0:
1,160,69491,1,6,0:0:0:0:
31,146,69580,1,0,0:0:0:0:
65,155,69669,1,10,0:0:0:0:
75,178,69757,1,0,0:0:0:0:
72,197,69846,1,6,0:0:0:0:
65,206,69935,1,0,0:0:0:0:
54,213,70024,6,0,B|31:156|31:156|62:101,1,113.999996520996,6|4,1:0|0:0,0:0:0:0:
241,16,70379,2,0,L|171:9,1,56.9999982604981,10|0,0:0|0:0,0:0:0:0:
155,5,70556,1,6,0:0:0:0:
355,113,70734,2,0,L|285:120,1,56.9999982604981,0|0,1:2|0:0,0:0:0:0:
269,124,70911,1,6,0:0:0:0:
142,217,71089,2,0,B|162:243|162:243|172:341,1,113.999996520996,10|6,0:0|0:0,0:0:0:0:
361,363,71444,6,0,L|296:357,1,56.9999982604981,2|0,1:2|0:0,0:0:0:0:
272,352,71621,1,4,0:0:0:0:
111,235,71799,2,0,L|182:228,1,56.9999982604981,10|0,0:0|0:0,0:0:0:0:
198,226,71976,1,6,0:0:0:0:
389,228,72154,1,0,1:2:0:0:
326,75,72331,1,6,0:0:0:0:
326,75,72420,1,0,0:0:0:0:
326,75,72509,2,0,P|273:51|206:82,1,113.999996520996,4|2,1:0|0:0,0:0:0:0:
91,207,72864,5,14,1:0:0:0:
41,38,73042,1,0,0:0:0:0:
209,140,73219,1,2,1:2:0:0:
8,178,73397,5,10,0:0:0:0:
178,72,73574,1,0,0:0:0:0:
182,271,73752,1,2,1:2:0:0:
34,104,73929,1,0,1:2:0:0:
320,129,74107,6,0,B|262:114|264:156|195:136,1,113.999996520996,14|0,1:0|0:0,0:0:0:0:
73,314,74462,2,0,L|61:258,1,56.9999982604981,0|0,1:2|0:0,0:0:0:0:
182,271,74639,2,0,L|199:209,1,56.9999982604981,8|0,1:2|0:0,0:0:0:0:
30,139,74817,2,0,L|14:76,1,56.9999982604981,8|0,1:2|0:0,0:0:0:0:
247,37,74994,1,8,1:2:0:0:
425,244,75172,1,8,0:0:0:0:
409,212,75260,1,8,0:0:0:0:
373,197,75349,1,10,0:0:0:0:
336,200,75438,1,8,0:0:0:0:
306,227,75527,1,8,0:0:0:0:
269,243,75615,1,8,0:0:0:0:
242,262,75704,6,0,B|195:291|122:248|130:203|140:156|140:156|92:199,1,227.999993041992,6|8,1:0|0:0,0:0:0:0:
210,195,76237,1,6,0:0:0:0:
148,16,76414,2,0,L|138:76,1,56.9999982604981,0|0,1:2|0:0,0:0:0:0:
135,101,76592,1,4,0:0:0:0:
223,280,76769,2,0,L|213:220,1,56.9999982604981,10|0,0:0|0:0,0:0:0:0:
210,195,76947,1,4,0:0:0:0:
291,14,77124,6,0,L|281:74,1,56.9999982604981,0|0,1:2|0:0,0:0:0:0:
278,99,77302,1,4,0:0:0:0:
357,351,77479,2,0,B|337:319|337:319|354:181,1,170.999994781494,8|0,0:0|0:0,0:0:0:0:
378,157,77834,1,0,1:2:0:0:
176,59,78012,2,0,P|198:126|191:152,1,56.9999982604981,4|0,0:0|0:0,0:0:0:0:
199,146,78189,1,10,0:0:0:0:
70,285,78367,1,6,0:0:0:0:
54,90,78544,6,0,B|40:142|40:142|59:284,1,170.999994781494,0|0,1:2|0:0,0:0:0:0:
70,285,78900,1,10,0:0:0:0:
161,366,79077,2,0,L|216:349,1,56.9999982604981,6|0,0:0|0:0,0:0:0:0:
251,359,79255,2,0,P|307:369|369:351,1,113.999996520996,2|6,1:2|0:0,0:0:0:0:
490,215,79610,1,10,0:0:0:0:
336,229,79787,5,6,0:0:0:0:
350,189,79876,1,0,0:0:0:0:
347,146,79965,1,2,1:2:0:0:
210,15,80142,1,6,0:0:0:0:
188,44,80231,1,0,0:0:0:0:
186,84,80320,1,10,0:0:0:0:
268,269,80497,2,0,P|207:256|197:260,1,56.9999982604981,6|0,0:0|0:0,0:0:0:0:
180,272,80675,1,0,1:2:0:0:
27,360,80852,1,10,0:0:0:0:
31,338,80941,1,8,0:0:0:0:
35,319,81030,1,8,0:0:0:0:
107,214,81207,1,10,0:0:0:0:
105,190,81296,1,8,0:0:0:0:
105,168,81385,6,0,B|89:147|89:147|111:110|91:47,1,113.999996520996,12|0,1:0|0:0,0:0:0:0:
239,5,81740,1,8,0:0:0:0:
218,41,81828,1,8,0:0:0:0:
218,86,81917,1,8,0:0:0:0:
246,120,82006,1,8,0:0:0:0:
289,131,82095,6,0,L|353:123,3,56.9999982604981,8|8|8|8,0:0|0:0|0:0|0:0,0:0:0:0:
213,209,82450,6,0,L|122:194,3,56.9999982604981,8|8|8|8,0:0|0:0|0:0|0:0,0:0:0:0:
321,239,82805,5,8,0:0:0:0:
323,267,82894,1,8,0:0:0:0:
324,295,82982,1,8,0:0:0:0:
324,323,83071,1,8,0:0:0:0:
325,349,83160,6,0,L|388:338,3,56.9999982604981,8|8|8|8,0:0|0:0|0:0|0:0,0:0:0:0:
195,296,83515,6,0,L|253:306,3,56.9999982604981,8|8|10|8,0:0|0:0|0:0|0:0,0:0:0:0:
100,356,83870,5,10,0:0:0:0:
81,334,83959,1,8,0:0:0:0:
75,306,84047,1,10,0:0:0:0:
83,279,84136,1,8,0:0:0:0:
104,260,84225,6,0,L|96:195,3,56.9999982604981,6|0|0|0,1:0|0:0|1:2|1:2,0:0:0:0:
172,137,84580,5,10,1:2:0:0:
175,118,84669,1,0,1:2:0:0:
179,98,84757,1,2,1:2:0:0:
183,80,84846,1,0,1:2:0:0:
188,58,84935,6,0,L|125:41,3,56.9999982604981,0|0|0|0,1:2|1:2|1:2|1:2,0:0:0:0:
289,28,85290,6,0,L|354:15,1,56.9999982604981,2|0,1:2|0:0,0:0:0:0:
227,148,85468,2,0,L|153:133,1,56.9999982604981,0|0,1:2|0:0,0:0:0:0:
356,172,85645,5,14,1:0:0:0:
