osu file format v14

[General]
AudioFilename: audio.mp3
AudioLeadIn: 0
PreviewTime: 63189
Countdown: 0
SampleSet: Soft
StackLeniency: 0.4
Mode: 0
LetterboxInBreaks: 0
WidescreenStoryboard: 1

[Editor]
Bookmarks: 55543,58028,60868,62821,84300
DistanceSpacing: 1
BeatDivisor: 4
GridSize: 4
TimelineZoom: 1

[Metadata]
Title:Tokohana (TV Size)
TitleUnicode:トコハナ (TV Size)
Artist:yanaginagi
ArtistUnicode:やなぎなぎ
Creator:PaRaDogi
Version:Normal
Source:ブラック・ブレット
Tags:Black Bullet Japanese Ending Anime Respirte fzl_17 frozz
BeatmapID:2218175
BeatmapSetID:1059162

[Difficulty]
HPDrainRate:4
CircleSize:3.5
OverallDifficulty:4
ApproachRate:5
SliderMultiplier:1.3
SliderTickRate:1

[Events]
//Background and Video events
0,0,"Konachan.com - 185499 sample.jpg",0,0
//Break Periods
2,53182,60303
//Storyboard Layer 0 (Background)
//Storyboard Layer 1 (Fail)
//Storyboard Layer 2 (Pass)
//Storyboard Layer 3 (Foreground)
//Storyboard Layer 4 (Overlay)
//Storyboard Sound Samples

[TimingPoints]
225,400,4,2,1,25,1,0
225,-200,4,2,1,25,0,0
5825,-200,4,2,1,25,0,0
6025,-200,4,2,2,25,0,0
6625,-200,4,2,1,25,0,0
12825,-200,4,2,1,5,0,0
18900,355.029585798817,4,2,2,50,1,0
18900,-100,4,2,2,50,0,0
28663,-100,4,2,2,50,0,0
28840,-100,4,2,2,50,0,0
30260,-133.333333333333,4,2,1,40,0,0
33633,-133.333333333333,4,2,1,40,0,0
33811,-133.333333333333,4,2,1,40,0,0
36473,-133.333333333333,4,2,1,40,0,0
36651,-133.333333333333,4,2,1,40,0,0
38603,-133.333333333333,4,2,1,40,0,0
38781,-133.333333333333,4,2,1,40,0,0
40733,-133.333333333333,4,2,1,45,0,0
40911,-133.333333333333,4,2,1,45,0,0
43397,-133.333333333333,4,2,1,45,0,0
44284,-133.333333333333,4,2,1,45,0,0
44462,-133.333333333333,4,2,1,45,0,0
44994,-133.333333333333,4,2,1,45,0,0
45172,-133.333333333333,4,2,1,45,0,0
47834,-133.333333333333,4,2,1,45,0,0
48012,-133.333333333333,4,2,1,45,0,0
49964,-133.333333333333,4,2,1,45,0,0
50142,-133.333333333333,4,2,1,45,0,0
51384,-133.333333333333,4,2,1,45,0,0
51562,-133.333333333333,4,2,1,45,0,0
55468,-200,4,2,1,30,0,0
56888,-333.333333333333,4,2,1,30,0,0
58308,-200,4,2,1,30,0,0
59728,-333.333333333333,4,2,1,30,0,0
61148,-333.333333333333,4,2,1,30,0,0
61503,-181.818181818182,4,2,1,30,0,0
62746,-285.714285714286,4,2,1,30,0,0
63278,-200,4,2,1,25,0,0
63633,-133.333333333333,4,2,1,35,0,0
63988,-100,4,2,1,45,0,0
64343,-100,4,2,3,65,0,1
64698,-100,4,2,3,65,0,1
74284,-100,4,2,3,65,0,1
74462,-100,4,2,3,65,0,1
77656,-100,4,2,3,65,0,1
77834,-100,4,2,3,65,0,1
81740,-100,4,2,3,65,0,1
84580,-100,4,2,3,65,0,1
85645,-100,4,2,3,40,0,0

[Colours]
Combo1 : 255,0,0
Combo2 : 0,64,128
Combo3 : 255,255,0
Combo4 : 0,128,128

[HitObjects]
26,65,225,6,0,B|44:55|44:55|130:66,1,97.5,4|2,3:0|0:0,0:0:0:0:
187,116,1225,2,0,L|261:106,1,65,2|2,0:0|0:0,0:0:0:0:
317,54,2025,6,0,L|391:63,1,65,2|2,0:0|0:0,0:0:0:0:
432,128,2825,2,0,P|444:152|445:192,1,65,2|2,0:0|0:0,0:0:0:0:
396,259,3625,6,0,L|393:336,1,65,2|2,0:0|0:0,0:0:0:0:
323,371,4425,2,0,P|287:378|251:369,1,65,2|2,0:0|0:0,0:0:0:0:
186,330,5225,6,0,P|138:318|88:328,1,97.5,2|0,0:0|0:0,0:0:0:0:
50,317,6025,2,0,B|37:304|37:304|41:217,1,97.5,0|4,0:0|3:0,0:0:0:0:
67,192,6825,6,0,L|61:122,1,65,2|2,0:0|0:0,0:0:0:0:
104,54,7625,2,0,P|140:35|173:35,1,65,2|2,0:0|0:0,0:0:0:0:
241,67,8425,6,0,L|315:70,1,65,2|2,0:0|0:0,0:0:0:0:
381,32,9225,2,0,L|456:45,1,65,2|2,0:0|0:0,0:0:0:0:
479,120,10025,6,0,P|492:152|487:191,1,65,2|2,0:0|0:0,0:0:0:0:
453,258,10825,2,0,L|462:325,1,65,2|2,0:0|0:0,0:0:0:0:
256,192,11325,12,0,17825,0:0:0:0:
483,305,18900,6,0,P|446:292|360:317,1,130,6|8,1:2|0:0,0:0:0:0:
238,358,19610,2,0,L|110:334,1,130,0|8,1:2|0:0,0:0:0:0:
29,232,20320,6,0,P|13:189|44:106,1,130,0|8,1:2|0:0,0:0:0:0:
122,13,21030,2,0,B|160:8|160:8|263:40,1,130,0|8,1:2|0:0,0:0:0:0:
296,77,21562,1,2,0:0:0:0:
296,77,21740,6,0,L|437:67,1,130,0|8,1:2|0:0,0:0:0:0:
498,175,22450,2,0,P|514:218|492:302,1,130,0|8,1:2|0:0,0:0:0:0:
398,368,23160,6,0,B|371:350|371:350|272:352,1,130,0|8,1:2|0:0,0:0:0:0:
218,317,23692,1,2,0:0:0:0:
218,317,23870,2,0,L|146:329,1,65,0|2,1:2|0:0,0:0:0:0:
93,303,24225,2,0,L|20:285,1,65,12|8,0:0|0:0,0:0:0:0:
5,226,24580,6,0,B|-3:192|-3:192|29:92,1,130,6|8,1:2|0:0,0:0:0:0:
109,23,25290,2,0,P|158:16|237:35,1,130,0|8,1:2|0:0,0:0:0:0:
325,128,26000,6,0,L|312:269,1,130,0|8,1:2|0:0,0:0:0:0:
338,317,26533,1,2,0:0:0:0:
338,317,26710,2,0,P|379:330|459:298,1,130,0|8,1:2|0:0,0:0:0:0:
501,177,27420,6,0,L|465:44,1,130,0|8,1:2|0:0,0:0:0:0:
343,11,28130,2,0,B|307:4|307:4|196:21,1,130,0|12,1:2|0:0,0:0:0:0:
117,104,28840,6,0,L|107:185,1,65,6|0,1:2|0:0,0:0:0:0:
146,221,29195,2,0,L|160:300,1,65,0|8,1:2|0:0,0:0:0:0:
213,317,29550,2,0,P|259:333|341:307,1,130,8|8,0:0|0:0,0:0:0:0:
375,260,30083,2,0,L|452:265,1,65,8|6,0:0|1:2,0:0:0:0:
483,177,30615,6,0,P|490:136|452:75,1,97.50000371933,2|2,1:2|1:2,0:0:0:0:
392,23,31326,2,0,L|336:34,1,48.750001859665,2|2,1:2|0:0,0:0:0:0:
306,50,31681,2,0,B|277:61|277:61|191:47,2,97.50000371933,2|2|2,1:2|1:2|1:2,0:0:0:0:
375,117,32746,2,0,L|388:183,1,48.750001859665,0|2,1:2|0:0,0:0:0:0:
379,213,33101,5,2,1:2:0:0:
315,286,33456,2,0,L|264:269,1,48.750001859665,2|2,1:2|0:0,0:0:0:0:
222,256,33811,2,0,L|114:272,1,97.50000371933,2|2,1:2|1:2,0:0:0:0:
54,203,34521,6,0,L|51:99,2,97.50000371933,2|2|2,1:2|1:2|1:2,0:0:0:0:
125,270,35586,2,0,L|118:335,1,48.750001859665,2|2,1:2|0:0,0:0:0:0:
141,362,35941,5,6,1:2:0:0:
236,340,36296,2,0,L|302:335,1,48.750001859665,2|2,1:2|0:0,0:0:0:0:
333,338,36651,2,0,L|442:350,1,97.50000371933,2|2,1:2|1:2,0:0:0:0:
477,263,37361,6,0,P|490:238|474:154,2,97.50000371933,2|2|2,1:2|1:2|1:2,0:0:0:0:
379,263,38426,2,0,L|326:250,1,48.750001859665,14|0,1:2|0:0,0:0:0:0:
296,217,38781,6,0,B|272:205|272:205|201:215,1,97.50000371933,6|8,1:2|0:0,0:0:0:0:
125,275,39491,2,0,L|64:267,1,48.750001859665,0|0,1:2|1:2,0:0:0:0:
36,241,39846,2,0,P|25:209|51:151,1,97.50000371933,10|2,0:0|1:2,0:0:0:0:
109,76,40556,6,0,L|169:88,1,48.750001859665,8|2,0:0|0:0,0:0:0:0:
187,123,40911,2,8,L|296:113,2,97.50000371933,2|8|6,1:2|1:2|1:2,0:0:0:0:
127,200,41976,6,0,P|119:232|123:254,1,48.750001859665,10|2,0:0|0:0,0:0:0:0:
151,285,42331,2,0,B|183:302|183:302|258:294,1,97.50000371933,2|10,1:2|0:0,0:0:0:0:
321,235,43042,6,0,L|420:253,2,97.50000371933,2|10|2,1:2|0:0|1:2,0:0:0:0:
259,159,44107,2,0,L|197:168,1,48.750001859665,8|0,0:0|0:0,0:0:0:0:
166,145,44462,5,0,1:2:0:0:
79,100,44817,2,0,L|70:162,1,48.750001859665,10|2,0:0|0:0,0:0:0:0:
43,188,45172,2,0,L|63:300,1,97.50000371933,2|10,1:2|0:0,0:0:0:0:
131,350,45882,6,0,B|156:337|156:337|231:351,2,97.50000371933,2|10|2,1:2|0:0|1:2,0:0:0:0:
36,325,46947,2,0,L|31:272,1,48.750001859665,10|2,0:0|0:0,0:0:0:0:
56,234,47302,5,6,1:2:0:0:
109,152,47657,2,0,P|138:141|165:144,1,48.750001859665,10|2,0:0|0:0,0:0:0:0:
199,163,48012,2,0,P|230:172|294:158,1,97.50000371933,2|10,1:2|0:0,0:0:0:0:
380,116,48722,6,0,L|374:17,2,97.50000371933,2|10|2,1:2|0:0|1:2,0:0:0:0:
405,157,49610,1,0,1:2:0:0:
405,157,49787,2,0,L|396:225,1,48.750001859665,14|0,0:0|0:0,0:0:0:0:
385,252,50142,6,0,L|400:353,2,97.50000371933,6|8|0,1:2|0:0|1:2,0:0:0:0:
307,192,51207,2,0,L|247:199,1,48.750001859665,10|0,0:0|0:0,0:0:0:0:
218,225,51562,6,0,L|112:211,1,97.50000371933,2|14,1:2|0:0,0:0:0:0:
61,134,52272,1,2,1:2:0:0:
61,134,52450,2,0,B|55:86|55:86|123:0,1,146.250005578995,8|6,0:0|0:0,0:0:0:0:
0,98,61503,6,0,B|127:44|116:162|247:106,1,250.250007637024,2|0,0:0|0:0,0:0:0:0:
380,188,63278,6,0,L|454:178,2,65,2|2|2,0:0|0:0|0:0,0:0:0:0:
283,226,64343,6,0,L|295:361,1,130,6|8,1:0|0:0,0:0:0:0:
164,362,65053,2,0,P|125:374|27:342,1,130,0|8,1:2|0:0,0:0:0:0:
16,301,65586,6,0,B|-11:238|-11:238|1:89,1,195,6|10,0:0|0:0,0:0:0:0:
103,34,66473,2,0,P|144:17|236:24,1,130,2|10,1:2|0:0,0:0:0:0:
282,57,67006,2,0,P|317:74|419:60,1,130,6|6,0:0|0:0,0:0:0:0:
459,30,67539,5,10,0:0:0:0:
496,154,67894,2,0,B|479:183|479:183|491:286,1,130,0|8,1:2|0:0,0:0:0:0:
447,327,68426,1,4,0:0:0:0:
447,327,68604,6,0,P|407:343|296:327,1,130,0|8,1:2|0:0,0:0:0:0:
218,259,69314,2,0,L|90:279,1,130,0|10,1:2|0:0,0:0:0:0:
29,254,69846,1,6,0:0:0:0:
29,254,70024,6,0,P|6:213|39:120,1,130,6|10,1:0|0:0,0:0:0:0:
120,49,70734,2,0,L|250:63,1,130,0|10,1:2|0:0,0:0:0:0:
309,39,71266,1,6,0:0:0:0:
309,37,71444,6,0,B|394:7|394:7|518:47,1,195,2|6,1:2|0:0,0:0:0:0:
493,169,72331,1,6,0:0:0:0:
493,169,72509,2,0,P|444:178|417:166,1,65,4|2,1:0|0:0,0:0:0:0:
373,143,72864,6,0,B|338:126|338:126|230:148,1,130,14|2,1:0|1:2,0:0:0:0:
191,175,73397,2,0,L|184:313,1,130,10|2,0:0|1:2,0:0:0:0:
298,366,74107,2,0,L|366:353,1,65,14|0,1:0|0:0,0:0:0:0:
413,314,74462,6,0,P|424:271|391:174,1,130,0|8,1:2|1:2,0:0:0:0:
361,139,74994,1,8,1:2:0:0:
247,75,75349,2,0,L|175:95,1,65,10|8,0:0|0:0,0:0:0:0:
120,80,75704,6,0,B|107:111|107:111|105:215,1,130,6|8,1:0|0:0,0:0:0:0:
161,324,76414,2,0,P|198:334|248:321,1,65,0|4,1:2|0:0,0:0:0:0:
279,297,76769,2,0,P|321:283|403:309,1,130,10|0,0:0|1:2,0:0:0:0:
492,213,77479,6,0,L|477:136,1,65,8|4,0:0|0:0,0:0:0:0:
430,107,77834,2,0,L|432:42,1,65,0|4,1:2|0:0,0:0:0:0:
376,7,78189,2,0,B|345:0|345:0|238:21,1,130,10|0,0:0|1:2,0:0:0:0:
125,62,78900,6,0,P|104:104|105:137,1,65,10|6,0:0|0:0,0:0:0:0:
121,183,79255,2,0,L|132:255,1,65,2|6,1:2|0:0,0:0:0:0:
111,309,79610,2,0,P|157:295|241:317,1,130,10|2,0:0|1:2,0:0:0:0:
354,363,80320,6,0,L|328:294,1,65,10|6,0:0|0:0,0:0:0:0:
330,236,80675,2,0,L|353:166,1,65,0|10,1:2|0:0,0:0:0:0:
350,109,81030,2,0,P|336:77|245:55,1,130,8|12,0:0|1:0,0:0:0:0:
128,96,81740,6,0,B|98:106|98:106|-2:92,2,130,8|8|8,0:0|0:0|0:0,0:0:0:0:
251,52,82805,2,0,L|402:44,1,130,8|8,0:0|0:0,0:0:0:0:
491,113,83515,2,0,P|514:168|475:244,2,130,8|10|6,0:0|0:0|1:0,0:0:0:0:
380,45,84580,5,10,1:2:0:0:
380,45,84757,2,0,B|318:62|318:62|175:55,1,195,2|2,1:2|1:2,0:0:0:0:
60,29,85645,5,14,1:0:0:0:
