osu file format v14

[General]
AudioFilename: audio.mp3
AudioLeadIn: 0
PreviewTime: 70855
Countdown: 0
SampleSet: Soft
StackLeniency: 0.7
Mode: 0
LetterboxInBreaks: 0
WidescreenStoryboard: 1

[Editor]
Bookmarks: 12849,24023,35186,46349,57512,65884,71291,93791,104954,116116,127266,135651,141058,163558,174721,185884,196872,219372,229301
DistanceSpacing: 0.8
BeatDivisor: 4
GridSize: 8
TimelineZoom: 0.9999998

[Metadata]
Title:Tobenai Mahoutsukai
TitleUnicode:飛べない魔法使い
Artist:yanaginagi
ArtistUnicode:やなぎなぎ
Creator:Shirahane Suou
Version:Normal
Source:しゅぷれ~むキャンディ ~王道には王道たる理由があるんです!~
Tags:supreme candy oudou ni wa oudoutaru riyuu ga arun desu 枕 makura japanese video game visual novel eroge opening pop rock ピクセルビー pixelbee shizuku- kazato asa shikibe mayu
BeatmapID:2828049
BeatmapSetID:1334557

[Difficulty]
HPDrainRate:3
CircleSize:3
OverallDifficulty:4
ApproachRate:5
SliderMultiplier:0.999999999999999
SliderTickRate:1

[Events]
//Background and Video events
0,0,"cute.jpg",0,0
//Break Periods
2,163545,171959
//Storyboard Layer 0 (Background)
//Storyboard Layer 1 (Fail)
//Storyboard Layer 2 (Pass)
//Storyboard Layer 3 (Foreground)
//Storyboard Layer 4 (Overlay)
//Storyboard Sound Samples

[TimingPoints]
1183,366.412213740458,4,2,1,60,1,0
12170,348.837209302326,4,2,1,40,1,0
12868,348.837209302326,4,2,1,50,1,0
22635,-100,4,2,1,60,0,0
35193,-100,4,2,1,40,0,0
45658,-100,4,2,1,50,0,0
46356,-100,4,2,1,60,0,0
70949,-100,4,2,1,50,0,0
71298,-100,4,2,1,70,0,1
92315,-100,4,2,1,40,0,0
93798,-100,4,2,1,60,0,0
104961,-100,4,2,1,50,0,0
115426,-100,4,2,1,60,0,0
140193,-100,4,2,1,50,0,0
141065,-100,4,2,1,70,0,1
162083,-100,4,2,1,40,0,0
173158,-100,4,2,1,60,0,0
185891,-100,4,2,1,70,0,0
196879,-100,4,2,1,70,0,1
217897,-100,4,2,1,40,0,0
219379,-100,4,2,1,60,0,0
229333,352.941176470588,4,2,1,60,1,0
231009,-100,4,2,1,5,0,0

[Colours]
Combo1 : 214,126,137
Combo2 : 138,170,196
Combo3 : 251,179,182
Combo4 : 136,164,210

[HitObjects]
159,34,12868,6,0,L|143:141,1,99.9999999999999,2|2,3:2|3:2,0:0:0:0:
80,210,13566,2,0,L|96:317,1,99.9999999999999,0|2,3:2|3:2,0:0:0:0:
180,361,14264,2,0,L|278:346,1,99.9999999999999,0|0,3:2|3:2,0:0:0:0:
352,277,14962,1,0,3:2:0:0:
271,218,15310,1,2,3:2:0:0:
330,137,15659,6,0,L|315:38,1,99.9999999999999,2|2,3:2|3:2,0:0:0:0:
219,69,16357,2,0,L|120:54,1,99.9999999999999,0|0,3:2|3:2,0:0:0:0:
53,128,17055,2,0,L|68:227,1,99.9999999999999,0|0,3:2|3:2,0:0:0:0:
126,307,17752,1,2,3:2:0:0:
200,240,18101,1,2,3:2:0:0:
285,292,18450,6,0,P|307:304|389:290,1,99.9999999999999,2|0,3:2|3:2,0:0:0:0:
453,229,19148,1,0,3:2:0:0:
379,162,19496,2,0,B|358:116|358:116|378:53,1,99.9999999999999,2|0,3:2|3:2,0:0:0:0:
460,20,20194,2,0,B|481:66|481:66|461:129,1,99.9999999999999,2|0,3:2|3:2,0:0:0:0:
511,202,20892,1,0,3:2:0:0:
433,265,21241,6,0,L|332:276,1,99.9999999999999,2|0,3:2|3:2,0:0:0:0:
294,305,21764,1,4,0:2:0:0:
294,305,21938,2,0,L|233:299,1,50,2|4,3:2|0:3,0:0:0:0:
225,253,22287,2,0,L|164:260,1,50,8|4,0:2|0:3,0:0:0:0:
131,283,22636,1,6,3:2:0:0:
71,199,22985,2,0,L|64:144,1,50,10|0,0:2|3:2,0:0:0:0:
63,99,23334,2,0,B|113:107|113:107|167:80,1,99.9999999999999,2|10,3:2|0:2,0:0:0:0:
252,54,24031,6,0,L|239:163,1,99.9999999999999,6|10,3:2|0:2,0:0:0:0:
231,203,24555,1,6,3:2:0:0:
292,281,24903,2,0,L|345:272,1,50,2|8,3:2|0:2,0:0:0:0:
391,269,25252,2,0,B|373:223|373:223|392:161,1,99.9999999999999,6|2,3:2|3:2,0:0:0:0:
428,144,25775,2,0,L|428:93,1,50,8|6,0:2|3:2,0:0:0:0:
365,23,26298,1,6,3:2:0:0:
365,23,26472,1,14,0:2:0:0:
275,67,26822,6,0,P|225:62|175:59,1,99.9999999999999,6|10,3:2|0:2,0:0:0:0:
124,61,27345,1,6,3:2:0:0:
91,155,27694,2,0,L|102:212,1,50,2|8,3:2|0:2,0:0:0:0:
147,221,28043,2,0,L|129:325,1,99.9999999999999,6|2,3:2|3:2,0:0:0:0:
114,367,28566,2,0,L|60:357,1,50,8|6,0:2|3:2,0:0:0:0:
4,284,29088,1,6,3:2:0:0:
4,284,29263,1,14,0:2:0:0:
56,198,29613,6,0,L|44:91,1,99.9999999999999,6|10,3:2|0:2,0:0:0:0:
40,48,30135,1,6,3:2:0:0:
132,11,30485,2,0,L|186:20,1,50,2|8,3:2|0:2,0:0:0:0:
218,53,30834,2,0,B|191:95|191:95|202:152,1,99.9999999999999,6|2,3:2|3:2,0:0:0:0:
237,177,31357,2,0,L|291:168,1,50,8|6,0:2|3:2,0:0:0:0:
370,112,31879,1,6,3:2:0:0:
370,112,32054,1,14,0:2:0:0:
441,181,32403,6,0,L|498:181,2,50,6|2|10,3:2|0:2|0:2,0:0:0:0:
397,206,32926,2,0,P|381:252|395:299,1,99.9999999999999,6|2,3:2|3:2,0:0:0:0:
421,348,33450,1,10,0:2:0:0:
421,348,33624,1,6,3:2:0:0:
331,384,33973,1,2,3:2:0:0:
331,384,34148,2,0,L|263:384,1,50,10|2,0:2|3:2,0:0:0:0:
241,356,34496,2,0,L|173:356,1,50,2|2,0:2|3:2,0:0:0:0:
147,379,34845,1,10,0:2:0:0:
75,308,35194,6,0,L|75:208,1,99.9999999999999,2|2,3:2|3:2,0:0:0:0:
123,120,35892,2,0,P|148:103|224:123,1,99.9999999999999,0|0,3:2|3:2,0:0:0:0:
291,175,36589,2,0,L|391:175,1,99.9999999999999,2|2,3:2|3:2,0:3:0:0:
440,157,37113,1,2,0:2:0:0:
440,157,37287,1,0,3:2:0:0:
410,61,37636,1,10,0:2:0:0:
310,68,37985,6,0,B|261:82|261:82|214:67,1,99.9999999999999,2|0,3:2|3:2,0:0:0:0:
135,6,38682,2,0,B|87:-10|87:-10|31:7,1,99.9999999999999,2|0,3:2|3:2,0:0:0:0:
11,100,39380,2,0,L|11:201,1,99.9999999999999,2|2,3:2|3:2,0:0:0:0:
14,250,39903,1,2,0:2:0:0:
14,250,40078,1,0,3:2:0:0:
74,329,40427,2,0,L|135:328,1,50,8|2,0:2|0:2,0:0:0:0:
162,296,40775,6,0,B|209:280|209:280|268:296,1,99.9999999999999,2|2,3:2|3:2,0:0:0:0:
326,366,41473,2,0,L|436:366,1,99.9999999999999,0|0,3:2|3:2,0:0:0:0:
507,308,42171,2,0,L|507:208,1,99.9999999999999,2|2,3:2|3:2,0:0:0:0:
480,172,42694,1,2,0:2:0:0:
480,172,42869,1,0,3:2:0:0:
382,195,43217,2,0,L|323:195,1,50,10|2,0:2|0:2,0:0:0:0:
281,192,43566,6,0,L|282:85,1,99.9999999999999,0|0,3:2|3:2,0:0:0:0:
332,5,44264,2,0,P|377:31|429:19,1,99.9999999999999,0|0,3:2|3:2,0:0:0:0:
511,80,44962,1,8,0:2:0:0:
511,80,45136,1,12,0:2:0:0:
452,162,45485,1,0,3:2:0:0:
452,162,45659,2,0,L|450:222,1,50,12|0,0:2|3:2,0:0:0:0:
448,262,46008,1,8,0:2:0:0:
491,352,46357,6,0,L|391:351,1,99.9999999999999,6|10,3:2|0:2,0:0:0:0:
344,353,46880,1,2,0:2:0:0:
343,354,47055,2,0,B|326:308|326:308|346:256,1,99.9999999999999,0|8,3:2|0:2,0:0:0:0:
386,169,47752,2,0,L|286:168,1,99.9999999999999,2|10,3:2|0:2,0:0:0:0:
240,168,48275,1,2,0:2:0:0:
240,168,48450,1,0,3:2:0:0:
210,263,48799,1,10,0:2:0:0:
129,203,49148,6,0,B|83:186|83:186|31:206,1,99.9999999999999,2|8,3:2|0:2,0:0:0:0:
0,188,49671,1,2,0:2:0:0:
0,188,49845,2,0,L|14:84,1,99.9999999999999,2|8,3:2|0:2,0:0:0:0:
65,3,50543,1,2,3:2:0:0:
140,76,50892,1,10,0:2:0:0:
140,76,51066,2,0,L|244:58,1,99.9999999999999,2|0,0:2|0:0,0:0:0:0:
288,61,51589,1,8,0:2:0:0:
311,158,51938,6,0,L|308:271,1,99.9999999999999,2|10,3:2|0:2,0:0:0:0:
286,303,52462,2,0,P|332:287|378:305,1,99.9999999999999,2|0,0:2|0:2,0:0:0:0:
413,341,52985,1,10,0:2:0:0:
497,287,53334,2,0,B|479:247|479:247|490:191,1,99.9999999999999,2|10,3:2|0:2,0:0:0:0:
512,149,53857,1,2,0:2:0:0:
512,149,54031,1,0,3:2:0:0:
413,129,54380,2,0,L|353:138,1,50,10|2,0:2|0:2,0:0:0:0:
330,173,54729,5,0,3:2:0:0:
246,118,55078,1,8,0:2:0:0:
159,166,55427,1,0,3:2:0:0:
80,104,55775,1,8,0:2:0:0:
15,180,56124,2,0,L|28:290,1,99.9999999999999,12|8,0:2|0:2,0:0:0:0:
40,327,56648,2,0,B|89:307|89:307|134:319,1,99.9999999999999,8|8,0:2|0:2,0:0:0:0:
178,343,57171,2,0,L|238:332,1,50,0|8,3:2|0:2,0:0:0:0:
281,331,57520,5,6,3:2:0:0:
281,331,57694,1,6,3:2:0:0:
332,245,58043,2,0,L|318:134,1,99.9999999999999,10|2,0:2|3:2,0:0:0:0:
300,105,58566,1,8,0:2:0:0:
300,105,58741,1,6,3:2:0:0:
215,155,59089,1,2,3:2:0:0:
215,155,59264,2,0,L|104:142,1,99.9999999999999,10|0,0:2|3:2,0:0:0:0:
33,201,59962,2,0,L|32:254,1,50,10|2,0:2|0:2,0:0:0:0:
33,300,60310,5,6,3:2:0:0:
116,365,60659,1,8,0:2:0:0:
116,365,60834,2,0,B|162:346|162:346|217:356,1,99.9999999999999,2|0,3:2|3:2,0:0:0:0:
258,371,61357,1,8,0:2:0:0:
336,309,61706,1,6,3:2:0:0:
275,236,62055,1,8,0:2:0:0:
275,236,62229,2,0,B|225:244|225:244|179:225,1,99.9999999999999,2|0,3:2|3:2,0:0:0:0:
136,198,62752,1,8,0:2:0:0:
138,102,63101,5,6,3:2:0:0:
138,102,63275,1,6,3:2:0:0:
216,39,63624,2,0,P|248:35|312:67,1,99.9999999999999,10|2,0:2|3:2,0:0:0:0:
350,99,64148,1,8,0:2:0:0:
350,99,64322,1,6,3:2:0:0:
291,181,64671,1,2,3:2:0:0:
291,181,64845,2,0,L|289:296,1,99.9999999999999,10|0,0:2|3:2,0:0:0:0:
284,334,65369,1,8,0:2:0:0:
284,334,65543,1,8,0:2:0:0:
190,297,65892,6,0,B|142:280|142:280|82:294,1,99.9999999999999,14|10,0:2|0:2,0:0:0:0:
48,297,66415,1,2,3:2:0:0:
48,297,66589,2,0,L|55:183,1,99.9999999999999,8|10,0:2|0:2,0:0:0:0:
116,118,67287,1,8,0:2:0:0:
206,172,67636,1,10,0:2:0:0:
206,172,67810,2,0,P|249:179|310:147,1,99.9999999999999,0|0,3:2|3:2,0:0:0:0:
322,112,68334,1,10,0:2:0:0:
420,125,68682,5,4,3:2:0:0:
451,220,69031,2,0,L|442:271,1,50,8|8,0:2|0:2,0:0:0:0:
454,317,69380,2,0,L|403:326,1,50,8|8,0:2|0:2,0:0:0:0:
366,358,69729,1,0,3:2:0:0:
289,294,70078,1,12,0:2:0:0:
202,341,70427,1,8,0:2:0:0:
202,341,70601,1,8,0:2:0:0:
128,272,70950,2,0,L|138:223,1,50,2|2,0:2|0:2,0:0:0:0:
113,179,71299,6,0,L|214:164,1,99.9999999999999,6|0,3:2|3:2,0:0:0:0:
253,136,71822,1,8,0:2:0:0:
320,208,72171,2,0,L|304:316,1,99.9999999999999,2|8,3:2|0:2,0:0:0:0:
277,342,72694,1,2,0:2:0:0:
277,342,72869,2,0,B|225:328|225:328|165:355,1,99.9999999999999,2|8,3:2|0:2,0:0:0:0:
84,367,73566,2,0,L|95:264,1,99.9999999999999,2|8,3:2|0:2,0:0:0:0:
73,228,74089,1,2,0:2:0:0:
73,228,74264,6,0,L|84:125,1,99.9999999999999,2|10,3:2|0:2,0:0:0:0:
146,50,74962,2,0,P|189:73|243:65,1,99.9999999999999,2|10,3:2|0:2,0:0:0:0:
284,48,75485,2,0,L|274:158,1,99.9999999999999,2|2,0:2|0:2,0:0:0:0:
254,193,76008,1,10,0:2:0:0:
174,253,76357,2,0,L|71:239,1,99.9999999999999,0|8,3:2|0:2,0:0:0:0:
29,234,76880,1,2,0:2:0:0:
29,234,77055,5,2,3:2:0:0:
0,330,77403,1,10,0:2:0:0:
85,382,77752,1,2,3:2:0:0:
160,315,78101,1,10,0:2:0:0:
160,315,78275,2,0,B|210:296|210:296|265:311,1,99.9999999999999,2|0,0:2|0:0,0:0:0:0:
305,302,78799,2,0,L|290:204,1,99.9999999999999,10|2,0:2|3:2,0:0:0:0:
237,118,79496,1,10,0:2:0:0:
141,149,79845,6,0,L|35:136,2,99.9999999999999,2|8|0,3:2|0:2|3:2,0:0:0:0:
194,233,80892,2,0,L|260:224,1,50,10|2,0:2|0:2,0:0:0:0:
290,204,81241,1,4,3:2:0:0:
290,204,81415,2,0,L|356:213,1,50,8|0,0:2|0:0,0:0:0:0:
380,239,81764,1,0,3:2:0:0:
424,149,82113,2,0,L|419:99,1,50,10|10,0:2|0:2,0:0:0:0:
392,56,82462,6,0,B|342:69|342:69|279:48,1,99.9999999999999,6|0,3:2|3:2,0:0:0:0:
255,24,82985,1,8,0:2:0:0:
173,82,83334,2,0,L|187:185,1,99.9999999999999,2|8,3:2|0:2,0:0:0:0:
225,221,83857,1,2,0:2:0:0:
225,221,84031,2,0,L|211:324,1,99.9999999999999,2|10,3:2|0:2,0:0:0:0:
172,350,84555,1,2,0:2:0:0:
172,350,84729,1,0,3:2:0:0:
102,277,85078,2,0,L|43:277,1,50,8|2,0:2|0:2,0:0:0:0:
1,279,85427,6,0,L|3:163,1,99.9999999999999,2|10,3:2|0:2,0:0:0:0:
78,114,86124,2,0,P|120:99|184:118,1,99.9999999999999,2|10,3:2|0:2,0:0:0:0:
217,133,86648,2,0,L|220:241,1,99.9999999999999,2|0,0:2|0:2,0:0:0:0:
215,281,87171,1,8,0:2:0:0:
311,307,87520,1,8,0:2:0:0:
366,226,87869,1,10,0:2:0:0:
366,226,88043,6,0,B|410:210|410:210|462:220,1,99.9999999999999,6|0,3:2|3:0,0:0:0:0:
501,251,88566,2,0,L|498:312,1,50,10|2,0:2|0:2,0:0:0:0:
491,350,88915,1,0,3:2:0:0:
395,319,89264,1,8,0:2:0:0:
314,378,89613,2,0,L|207:377,1,99.9999999999999,0|8,3:2|0:2,0:0:0:0:
131,320,90310,1,2,3:2:0:0:
181,242,90659,1,10,0:2:0:0:
118,163,91008,6,0,L|137:48,1,99.9999999999999,6|10,3:2|0:2,0:0:0:0:
158,22,91531,1,2,0:2:0:0:
158,22,91706,2,0,L|212:35,1,50,0|0,3:2|0:0,0:0:0:0:
256,56,92055,1,10,0:2:0:0:
256,56,92229,1,10,0:2:0:0:
270,299,93274,2,0,L|213:319,1,50,0|8,3:2|0:2,0:0:0:0:
124,340,93799,6,0,L|126:232,1,99.9999999999999,6|10,3:2|0:2,0:0:0:0:
133,190,94322,1,6,3:2:0:0:
219,140,94671,2,0,L|285:151,1,50,2|8,3:2|0:2,0:0:0:0:
317,160,95020,2,0,L|298:51,1,99.9999999999999,6|2,3:2|3:2,0:0:0:0:
272,19,95543,2,0,L|222:10,1,50,8|6,0:2|3:2,0:0:0:0:
152,81,96066,1,6,3:2:0:0:
152,81,96241,1,14,0:2:0:0:
67,27,96589,6,0,L|47:135,1,99.9999999999999,6|10,3:2|0:2,0:0:0:0:
40,175,97113,1,6,3:2:0:0:
130,218,97462,2,0,L|186:211,1,50,2|8,3:2|0:2,0:0:0:0:
228,223,97810,2,0,B|249:177|249:177|230:127,1,99.9999999999999,6|2,3:2|3:2,0:0:0:0:
195,95,98334,2,0,L|207:35,1,50,8|6,0:2|3:2,0:0:0:0:
298,6,98857,1,6,3:2:0:0:
298,6,99031,1,14,0:2:0:0:
377,66,99380,6,0,L|364:172,1,99.9999999999999,6|10,3:2|0:2,0:0:0:0:
342,209,99903,1,6,3:2:0:0:
261,268,100252,2,0,L|274:319,1,50,2|8,3:2|0:2,0:0:0:0:
293,362,100601,2,0,P|322:355|398:384,1,99.9999999999999,6|2,3:2|3:2,0:0:0:0:
437,377,101124,2,0,L|485:365,1,50,8|6,0:2|3:2,0:0:0:0:
508,270,101648,1,6,3:2:0:0:
508,270,101822,1,14,0:2:0:0:
422,218,102171,6,0,L|353:228,2,50,6|2|10,3:2|0:2|0:2,0:0:0:0:
450,176,102694,2,0,B|459:127|459:127|434:83,1,99.9999999999999,6|2,3:2|3:2,0:0:0:0:
401,54,103217,1,10,0:2:0:0:
401,54,103392,1,6,3:2:0:0:
315,103,103741,1,2,3:2:0:0:
315,103,103915,2,0,L|252:103,1,50,10|2,0:2|3:2,0:0:0:0:
226,71,104264,2,0,L|163:71,1,50,2|2,0:2|3:2,0:0:0:0:
130,93,104613,1,10,0:2:0:0:
170,184,104962,6,0,L|151:304,1,99.9999999999999,6|10,3:2|0:2,0:0:0:0:
151,336,105485,1,2,0:2:0:0:
151,336,105659,1,0,3:2:0:0:
242,377,106008,1,8,0:2:0:0:
318,312,106357,2,0,L|316:207,1,99.9999999999999,2|10,3:2|0:2,0:0:0:0:
346,171,106880,2,0,P|301:149|252:155,1,99.9999999999999,2|0,0:2|0:0,0:0:0:0:
217,190,107403,1,10,0:2:0:0:
128,144,107752,6,0,P|133:95|142:46,1,99.9999999999999,2|8,3:2|0:2,0:0:0:0:
177,10,108275,1,2,0:2:0:0:
177,10,108450,1,2,3:2:0:0:
265,57,108799,1,8,0:2:0:0:
353,10,109148,2,0,L|464:23,1,99.9999999999999,2|10,3:2|0:2,0:0:0:0:
493,50,109671,2,0,P|474:76|479:140,1,99.9999999999999,2|0,0:2|0:0,0:0:0:0:
501,185,110194,1,8,0:2:0:0:
434,259,110543,6,0,B|387:240|387:240|333:256,1,99.9999999999999,2|10,3:2|0:2,0:0:0:0:
298,290,111066,1,2,0:2:0:0:
298,290,111241,1,0,3:2:0:0:
210,242,111589,1,8,0:2:0:0:
128,299,111938,2,0,L|30:276,1,99.9999999999999,2|10,3:2|0:2,0:0:0:0:
7,231,112462,2,0,P|29:187|21:138,1,99.9999999999999,2|0,0:2|0:0,0:0:0:0:
5,91,112985,1,10,0:2:0:0:
87,35,113334,6,0,L|190:36,1,99.9999999999999,0|8,3:2|0:2,0:0:0:0:
257,106,114031,2,0,B|303:123|303:123|350:105,1,99.9999999999999,0|8,3:2|0:2,0:0:0:0:
405,22,114729,1,8,0:2:0:0:
405,22,114903,1,12,0:2:0:0:
477,98,115252,1,0,3:2:0:0:
477,98,115427,2,0,L|486:151,1,50,12|0,0:2|3:2,0:0:0:0:
502,194,115775,1,8,0:2:0:0:
481,292,116124,6,0,L|377:306,1,99.9999999999999,6|10,3:2|0:2,0:0:0:0:
352,271,116648,1,2,0:2:0:0:
352,271,116822,2,0,B|306:293|306:293|246:277,1,99.9999999999999,0|8,3:2|0:2,0:0:0:0:
180,217,117520,2,0,L|170:330,1,99.9999999999999,2|10,3:2|0:2,0:0:0:0:
165,369,118043,1,2,0:2:0:0:
165,369,118217,1,0,3:2:0:0:
65,364,118566,1,10,0:2:0:0:
14,277,118915,6,0,B|-1:229|-1:229|21:173,1,99.9999999999999,2|8,3:2|0:2,0:0:0:0:
51,146,119438,1,2,0:2:0:0:
51,146,119613,2,0,L|164:139,1,99.9999999999999,2|8,3:2|0:2,0:0:0:0:
248,97,120310,1,2,3:2:0:0:
302,187,120659,1,10,0:2:0:0:
302,187,120834,2,0,L|288:289,1,99.9999999999999,2|0,0:2|0:0,0:0:0:0:
284,336,121357,1,8,0:2:0:0:
190,372,121706,6,0,B|146:350|146:350|83:364,1,99.9999999999999,2|10,3:2|0:2,0:0:0:0:
46,366,122229,2,0,L|59:257,1,99.9999999999999,2|0,0:2|0:0,0:0:0:0:
71,218,122752,1,10,0:2:0:0:
168,242,123101,2,0,L|275:229,1,99.9999999999999,2|10,3:2|0:2,0:0:0:0:
321,231,123624,1,2,0:2:0:0:
321,231,123799,1,0,3:2:0:0:
396,164,124148,2,0,L|388:112,1,50,10|2,0:2|0:2,0:0:0:0:
372,67,124496,5,0,3:2:0:0:
286,119,124845,1,8,0:2:0:0:
223,35,125194,1,0,3:2:0:0:
135,82,125543,1,8,0:2:0:0:
47,33,125892,2,0,L|25:134,1,99.9999999999999,12|8,0:2|0:2,0:0:0:0:
19,179,126415,2,0,P|53:172|121:201,1,99.9999999999999,8|8,0:2|0:2,0:0:0:0:
158,214,126938,2,0,L|146:274,1,50,0|8,3:2|0:2,0:0:0:0:
132,313,127287,5,6,3:2:0:0:
132,313,127462,1,6,3:2:0:0:
222,354,127810,2,0,L|341:335,1,99.9999999999999,10|2,0:2|3:2,0:0:0:0:
366,316,128334,1,8,0:2:0:0:
366,316,128508,1,6,3:2:0:0:
409,228,128857,1,2,3:2:0:0:
409,228,129031,2,0,L|396:127,1,99.9999999999999,10|0,0:2|3:2,0:0:0:0:
328,54,129729,2,0,L|269:64,1,50,10|2,0:2|0:2,0:0:0:0:
228,68,130078,5,6,3:2:0:0:
141,28,130427,1,8,0:2:0:0:
141,28,130601,2,0,B|119:70|119:70|128:145,1,99.9999999999999,2|0,3:2|3:2,0:0:0:0:
135,171,131124,1,8,0:2:0:0:
210,236,131473,1,6,3:2:0:0:
294,180,131822,1,8,0:2:0:0:
294,180,131996,2,0,L|407:198,1,99.9999999999999,2|0,3:2|3:2,0:0:0:0:
441,209,132520,1,8,0:2:0:0:
512,285,132869,5,6,3:2:0:0:
512,285,133043,1,6,3:2:0:0:
450,363,133392,2,0,P|401:371|357:348,1,99.9999999999999,10|2,0:2|3:2,0:0:0:0:
324,319,133915,1,8,0:2:0:0:
324,319,134089,1,6,3:2:0:0:
366,230,134438,1,2,3:2:0:0:
366,230,134613,2,0,L|354:126,1,99.9999999999999,10|0,0:2|3:2,0:0:0:0:
339,88,135136,1,8,0:2:0:0:
339,88,135310,1,8,0:2:0:0:
247,128,135659,6,0,B|199:145|199:145|141:126,1,99.9999999999999,14|10,0:2|0:2,0:0:0:0:
109,115,136182,1,2,3:2:0:0:
109,115,136357,2,0,L|110:220,1,99.9999999999999,8|10,0:2|0:2,0:0:0:0:
157,303,137055,1,8,0:2:0:0:
224,230,137403,1,10,0:2:0:0:
224,230,137578,2,0,B|271:214|271:214|332:234,1,99.9999999999999,0|0,3:2|3:2,0:0:0:0:
363,252,138101,1,10,0:2:0:0:
443,191,138450,5,4,3:2:0:0:
509,265,138799,2,0,L|510:321,1,50,8|8,0:2|0:2,0:0:0:0:
503,364,139148,2,0,L|446:369,1,50,8|8,0:2|0:2,0:0:0:0:
405,354,139496,1,0,3:2:0:0:
308,379,139845,5,12,0:2:0:0:
136,197,140717,2,0,L|144:140,1,50,2|2,0:2|0:2,0:0:0:0:
143,97,141066,6,0,P|174:84|246:94,1,99.9999999999999,6|0,3:2|3:2,0:0:0:0:
287,100,141589,1,8,0:2:0:0:
257,196,141938,2,0,L|272:305,1,99.9999999999999,2|8,3:2|0:2,0:0:0:0:
283,348,142462,1,2,0:2:0:0:
283,348,142636,2,0,P|307:335|377:348,1,99.9999999999999,2|8,3:2|0:2,0:0:0:0:
473,367,143334,2,0,L|459:267,1,99.9999999999999,2|8,3:2|0:2,0:0:0:0:
427,237,143857,1,2,0:2:0:0:
427,237,144031,6,0,L|440:137,1,99.9999999999999,2|10,3:2|0:2,0:0:0:0:
398,46,144729,2,0,P|366:35|301:62,1,99.9999999999999,2|10,3:2|0:2,0:0:0:0:
278,98,145252,2,0,L|168:77,1,99.9999999999999,2|2,0:2|0:2,0:0:0:0:
138,50,145775,1,10,0:2:0:0:
72,125,146124,2,0,L|90:233,1,99.9999999999999,0|8,3:2|0:2,0:0:0:0:
104,276,146648,1,2,0:2:0:0:
104,276,146822,6,0,L|210:271,1,99.9999999999999,2|10,3:2|0:2,0:0:0:0:
273,216,147520,2,0,P|298:205|372:224,1,99.9999999999999,2|10,3:2|0:2,0:0:0:0:
413,237,148043,2,0,L|395:354,1,99.9999999999999,2|0,0:2|0:0,0:0:0:0:
391,384,148566,1,10,0:2:0:0:
302,338,148915,1,2,3:2:0:0:
207,372,149264,1,10,0:2:0:0:
146,292,149613,6,0,B|97:281|97:281|50:298,2,99.9999999999999,2|8|0,3:2|0:2|3:2,0:0:0:0:
232,241,150659,2,0,L|243:186,1,50,10|2,0:2|0:2,0:0:0:0:
210,160,151008,1,4,3:2:0:0:
210,160,151182,2,0,L|199:105,1,50,8|0,0:2|0:0,0:0:0:0:
222,65,151531,1,0,3:2:0:0:
312,23,151880,2,0,L|371:35,1,50,10|10,0:2|0:2,0:0:0:0:
400,63,152229,6,0,L|390:171,1,99.9999999999999,6|0,3:2|3:2,0:0:0:0:
383,212,152752,1,8,0:2:0:0:
304,274,153101,2,0,P|255:253|199:267,1,99.9999999999999,2|8,3:2|0:2,0:0:0:0:
174,294,153624,1,2,0:2:0:0:
174,294,153799,2,0,L|64:277,1,99.9999999999999,2|10,3:2|0:2,0:0:0:0:
41,249,154322,1,2,0:2:0:0:
41,249,154496,1,0,3:2:0:0:
93,163,154845,2,0,L|93:107,1,50,8|2,0:2|0:2,0:0:0:0:
86,63,155194,6,0,P|116:49|187:62,1,99.9999999999999,2|10,3:2|0:2,0:0:0:0:
264,111,155892,2,0,L|248:218,1,99.9999999999999,2|10,3:2|0:2,0:0:0:0:
205,235,156415,2,0,L|221:342,1,99.9999999999999,2|0,0:2|0:0,0:0:0:0:
251,372,156938,1,8,0:2:0:0:
331,311,157287,1,8,0:2:0:0:
418,370,157636,1,10,0:2:0:0:
418,370,157810,6,0,B|467:382|467:382|521:355,1,99.9999999999999,6|0,3:2|0:0,0:0:0:0:
506,309,158334,2,0,L|506:258,1,50,10|2,0:2|0:2,0:0:0:0:
497,209,158682,1,0,3:2:0:0:
415,151,159031,1,8,0:2:0:0:
344,222,159380,2,0,L|244:212,1,99.9999999999999,0|8,3:2|0:2,0:0:0:0:
176,138,160078,1,2,3:2:0:0:
232,55,160427,1,10,0:2:0:0:
142,9,160775,6,0,L|32:23,1,99.9999999999999,6|10,3:2|0:2,0:0:0:0:
6,55,161299,1,2,0:2:0:0:
6,55,161473,2,0,L|16:111,1,50,0|0,3:2|0:0,0:0:0:0:
29,157,161822,1,10,0:2:0:0:
29,157,161996,1,10,0:2:0:0:
145,293,173159,6,0,L|303:277,1,150,4|8,3:2|0:2,0:0:0:0:
374,216,174031,1,0,3:2:0:0:
374,216,174206,2,0,L|435:221,2,50,14|10|10,0:2|0:2|0:2,0:0:0:0:
341,177,174729,6,0,L|340:61,1,99.9999999999999,6|10,3:2|0:2,0:0:0:0:
315,33,175252,1,2,0:2:0:0:
315,33,175427,2,0,B|266:50|266:50|206:34,1,99.9999999999999,0|10,3:2|0:2,0:0:0:0:
132,86,176124,2,0,L|131:195,1,99.9999999999999,0|8,3:2|0:2,0:0:0:0:
182,271,176822,2,0,L|182:335,1,50,0|0,3:2|0:0,0:0:0:0:
183,371,177171,1,10,0:2:0:0:
82,373,177520,6,0,L|82:267,1,99.9999999999999,2|10,3:2|0:2,0:0:0:0:
51,240,178043,1,2,0:2:0:0:
51,240,178217,2,0,B|34:193|34:193|55:129,1,99.9999999999999,0|8,3:2|0:2,0:0:0:0:
133,88,178915,2,0,L|240:88,1,99.9999999999999,0|8,3:2|0:2,0:0:0:0:
321,146,179613,1,0,3:2:0:0:
321,146,179787,2,0,L|389:146,2,50,2|10|2,0:2|0:2|0:2,0:0:0:0:
287,183,180310,6,0,L|287:298,1,99.9999999999999,2|10,3:2|0:2,0:0:0:0:
293,337,180834,1,2,0:2:0:0:
293,337,181008,2,0,P|319:325|399:346,1,99.9999999999999,0|10,3:2|0:2,0:0:0:0:
476,382,181706,2,0,L|476:282,1,99.9999999999999,0|8,3:2|0:2,0:0:0:0:
449,246,182229,1,2,0:2:0:0:
449,246,182403,2,0,L|449:146,1,99.9999999999999,0|8,3:2|0:2,0:0:0:0:
497,58,183101,6,0,P|449:43|402:55,1,99.9999999999999,2|8,3:2|0:2,0:0:0:0:
333,128,183799,2,0,P|285:142|238:130,1,99.9999999999999,2|8,3:2|0:2,0:0:0:0:
148,85,184496,2,0,B|127:130|127:130|147:180,1,99.9999999999999,2|8,3:2|0:2,0:0:0:0:
210,253,185194,1,2,3:2:0:0:
145,329,185543,2,0,L|92:331,1,50,10|2,0:2|0:2,0:0:0:0:
47,346,185892,6,0,L|45:246,1,99.9999999999999,4|8,3:2|0:2,0:0:0:0:
5,154,186589,1,0,3:2:0:0:
87,96,186938,2,0,L|144:95,1,50,10|2,0:2|0:2,0:0:0:0:
179,122,187287,2,0,L|300:120,1,99.9999999999999,0|8,3:2|0:2,0:0:0:0:
358,58,187985,1,2,3:2:0:0:
429,127,188334,2,0,L|426:177,1,50,10|2,0:2|0:2,0:0:0:0:
394,215,188682,6,0,L|406:332,1,99.9999999999999,0|8,3:2|0:2,0:0:0:0:
317,365,189380,2,0,P|293:342|224:342,1,99.9999999999999,0|8,3:2|0:2,0:0:0:0:
132,364,190078,2,0,L|133:251,1,99.9999999999999,2|10,3:2|0:2,0:0:0:0:
93,178,190775,1,0,3:2:0:0:
93,178,190950,2,0,L|41:175,2,50,2|10|2,0:2|0:2|3:2,0:0:0:0:
131,146,191473,6,0,P|167:130|235:146,1,99.9999999999999,4|8,3:2|0:2,0:0:0:0:
305,200,192171,1,0,3:2:0:0:
385,140,192520,2,0,L|385:82,1,50,10|2,0:2|0:2,0:0:0:0:
388,39,192869,2,0,L|273:38,1,99.9999999999999,0|8,3:2|0:2,0:0:0:0:
210,101,193566,1,0,3:2:0:0:
141,28,193915,2,0,L|84:29,1,50,10|2,0:2|0:2,0:0:0:0:
41,22,194264,6,0,L|36:134,1,99.9999999999999,0|8,3:2|0:2,0:0:0:0:
60,219,194962,2,0,B|107:203|107:203|167:221,1,99.9999999999999,0|8,3:2|0:2,0:0:0:0:
233,280,195659,1,4,3:2:0:0:
292,199,196008,2,0,L|292:146,1,50,8|8,0:2|0:2,0:0:0:0:
255,115,196357,2,0,L|255:62,1,50,8|10,0:2|0:2,0:0:0:0:
294,33,196706,1,10,0:2:0:0:
294,33,196880,6,0,B|342:47|342:47|398:31,1,99.9999999999999,6|0,3:2|3:2,0:0:0:0:
436,13,197403,1,8,0:2:0:0:
501,88,197752,2,0,L|500:198,1,99.9999999999999,2|8,3:2|0:2,0:0:0:0:
492,237,198275,1,2,0:2:0:0:
492,237,198450,2,0,P|452:226|388:242,1,99.9999999999999,2|8,3:2|0:2,0:0:0:0:
317,300,199148,2,0,L|208:297,1,99.9999999999999,2|8,3:2|0:2,0:0:0:0:
174,270,199671,1,2,0:2:0:0:
174,270,199845,6,0,L|180:154,1,99.9999999999999,2|10,3:2|0:2,0:0:0:0:
224,80,200543,2,0,B|176:66|176:66|124:82,1,99.9999999999999,2|10,3:2|0:2,0:0:0:0:
78,77,201066,2,0,L|72:176,1,99.9999999999999,2|2,0:2|0:2,0:0:0:0:
62,225,201589,1,10,0:2:0:0:
144,281,201938,2,0,L|263:278,1,99.9999999999999,0|8,3:2|0:2,0:0:0:0:
298,278,202462,1,2,0:2:0:0:
298,278,202636,5,6,3:2:0:0:
390,241,202985,1,10,0:2:0:0:
394,141,203334,1,2,3:2:0:0:
315,88,203682,1,10,0:2:0:0:
315,88,203857,2,0,L|202:100,1,99.9999999999999,2|0,0:2|0:0,0:0:0:0:
165,100,204380,2,0,B|145:148|145:148|163:203,1,99.9999999999999,10|2,0:2|3:2,0:0:0:0:
227,267,205078,1,10,0:2:0:0:
155,336,205427,6,0,L|52:337,2,99.9999999999999,2|8|0,3:2|0:2|3:2,0:0:0:0:
247,373,206473,2,0,L|296:372,1,50,10|2,0:2|0:2,0:0:0:0:
342,348,206822,1,4,3:2:0:0:
342,348,206996,2,0,L|342:283,1,50,8|0,0:2|0:0,0:0:0:0:
342,247,207345,1,0,3:2:0:0:
268,178,207694,2,0,L|203:178,1,50,10|10,0:2|0:2,0:0:0:0:
167,181,208043,6,0,B|186:135|186:135|165:71,1,99.9999999999999,6|0,3:2|3:2,0:0:0:0:
157,39,208566,1,8,0:2:0:0:
251,5,208915,2,0,L|359:7,1,99.9999999999999,2|8,3:2|0:2,0:0:0:0:
398,22,209438,1,2,0:2:0:0:
398,22,209613,2,0,L|384:132,1,99.9999999999999,2|8,3:2|0:2,0:0:0:0:
295,165,210310,2,0,L|309:275,1,99.9999999999999,2|8,3:2|0:2,0:0:0:0:
308,318,210834,1,2,0:2:0:0:
308,318,211008,6,0,P|348:302|415:322,1,99.9999999999999,2|10,3:2|0:2,0:0:0:0:
491,359,211706,2,0,L|492:246,1,99.9999999999999,2|10,3:2|0:2,0:0:0:0:
495,208,212229,2,0,B|449:189|449:189|390:203,1,99.9999999999999,2|0,0:2|0:0,0:0:0:0:
360,230,212752,1,8,0:2:0:0:
298,151,213101,1,10,0:2:0:0:
346,65,213450,1,10,0:2:0:0:
346,65,213624,6,0,L|455:81,1,99.9999999999999,6|0,3:2|0:0,0:0:0:0:
482,113,214148,2,0,L|490:172,1,50,10|2,0:2|0:2,0:0:0:0:
488,212,214496,1,0,3:2:0:0:
409,273,214845,1,8,0:2:0:0:
326,216,215194,2,0,B|278:203|278:203|227:223,1,99.9999999999999,0|8,3:2|0:2,0:0:0:0:
160,292,215892,1,2,3:2:0:0:
84,226,216241,1,10,0:2:0:0:
144,146,216589,6,0,L|144:40,1,99.9999999999999,6|10,3:2|0:2,0:0:0:0:
118,9,217113,1,2,0:2:0:0:
118,9,217287,2,0,L|62:18,1,50,0|0,3:2|0:0,0:0:0:0:
25,37,217636,1,10,0:2:0:0:
25,37,217810,1,10,0:2:0:0:
227,249,219380,6,0,L|338:231,1,99.9999999999999,6|10,3:2|0:2,0:0:0:0:
375,226,219903,1,6,3:2:0:0:
414,134,220252,2,0,L|406:79,1,50,2|8,3:2|0:2,0:0:0:0:
373,46,220601,2,0,B|329:72|329:72|267:62,1,99.9999999999999,6|2,3:2|3:2,0:0:0:0:
238,37,221124,2,0,L|177:45,1,50,8|6,0:2|3:2,0:0:0:0:
116,113,221648,1,6,3:2:0:0:
116,113,221822,1,14,0:2:0:0:
194,174,222171,6,0,L|191:282,1,99.9999999999999,6|10,3:2|0:2,0:0:0:0:
193,324,222694,1,6,3:2:0:0:
107,375,223043,2,0,L|55:362,1,50,2|8,3:2|0:2,0:0:0:0:
25,325,223392,2,0,P|47:294|38:228,1,99.9999999999999,6|2,3:2|3:2,0:0:0:0:
16,191,223915,2,0,L|25:132,1,50,8|6,0:2|3:2,0:0:0:0:
97,74,224438,1,6,3:2:0:0:
97,74,224613,1,14,0:2:0:0:
187,116,224962,6,0,L|293:100,1,99.9999999999999,6|10,3:2|0:2,0:0:0:0:
335,97,225485,1,6,3:2:0:0:
413,159,225834,2,0,L|408:210,1,50,2|8,3:2|0:2,0:0:0:0:
403,258,226182,2,0,B|356:237|356:237|308:247,1,99.9999999999999,6|2,3:2|3:2,0:0:0:0:
265,273,226706,2,0,L|214:268,1,50,8|6,0:2|3:2,0:3:0:0:
140,210,227229,1,6,3:2:0:0:
140,210,227403,1,14,0:2:0:0:
69,280,227752,6,0,L|64:329,2,50,6|2|10,3:2|0:2|0:2,0:3:0:0:
34,243,228275,2,0,P|21:216|45:148,1,99.9999999999999,6|2,3:2|3:2,0:0:0:0:
71,113,228799,1,10,0:2:0:0:
71,113,228973,1,6,3:2:0:0:
160,163,229334,6,0,L|159:216,2,50,2|2|2,0:2|0:2|0:2,0:0:0:0:
198,132,229863,2,0,L|197:79,2,50,2|2|2,0:2|0:2|0:2,0:0:0:0:
241,158,230392,1,2,3:2:0:0:
359,65,230922,2,0,B|438:41|494:102|494:102|445:115,1,200,6|0,3:2|0:0,0:0:0:0:
