osu file format v14

[General]
AudioFilename: audio.mp3
AudioLeadIn: 0
PreviewTime: 70855
Countdown: 0
SampleSet: Soft
StackLeniency: 0.7
Mode: 0
LetterboxInBreaks: 0
WidescreenStoryboard: 1

[Editor]
Bookmarks: 12849,24023,35186,46349,57512,65884,71291,93791,104954,116104,127279,135651,141058,163558,174721,185884,196872,219372,229140
DistanceSpacing: 2
BeatDivisor: 4
GridSize: 32
TimelineZoom: 1

[Metadata]
Title:Tobenai Mahoutsukai
TitleUnicode:飛べない魔法使い
Artist:yanaginagi
ArtistUnicode:やなぎなぎ
Creator:Shirahane Suou
Version:Light Insane
Source:しゅぷれ~むキャンディ ~王道には王道たる理由があるんです!~
Tags:supreme candy oudou ni wa oudoutaru riyuu ga arun desu 枕 makura japanese video game visual novel eroge opening pop rock ピクセルビー pixelbee shizuku- kazato asa shikibe mayu
BeatmapID:2828048
BeatmapSetID:1334557

[Difficulty]
HPDrainRate:4.8
CircleSize:3.8
OverallDifficulty:7
ApproachRate:8.5
SliderMultiplier:1.7
SliderTickRate:1

[Events]
//Background and Video events
0,0,"cute.jpg",0,0
//Break Periods
2,163545,172483
//Storyboard Layer 0 (Background)
//Storyboard Layer 1 (Fail)
//Storyboard Layer 2 (Pass)
//Storyboard Layer 3 (Foreground)
//Storyboard Layer 4 (Overlay)
//Storyboard Sound Samples

[TimingPoints]
1183,366.412213740458,4,2,1,60,1,0
12170,348.837209302326,4,2,1,40,1,0
12171,-333.333333333333,4,2,1,40,0,0
12868,348.837209302326,4,2,1,50,1,0
12868,-166.666666666667,4,2,1,50,0,0
21240,-133.333333333333,4,2,1,50,0,0
22635,-133.333333333333,4,2,1,60,0,0
24030,-111.111111111111,4,2,1,60,0,0
35193,-142.857142857143,4,2,1,40,0,0
45658,-100,4,2,1,50,0,0
46356,-111.111111111111,4,2,1,60,0,0
57519,-125,4,2,1,60,0,0
70949,-250,4,2,1,50,0,0
71298,-90.9090909090909,4,2,1,70,0,1
92228,-133.333333333333,4,2,1,70,0,1
92315,-90.9090909090909,4,2,1,40,0,0
93798,-111.111111111111,4,2,1,60,0,0
104961,-125,4,2,1,50,0,0
115426,-100,4,2,1,60,0,0
116123,-111.111111111111,4,2,1,60,0,0
127286,-125,4,2,1,60,0,0
140193,-166.666666666667,4,2,1,50,0,0
141065,-90.9090909090909,4,2,1,70,0,1
161995,-133.333333333333,4,2,1,70,0,1
162083,-100,4,2,1,40,0,0
173158,-111.111111111111,4,2,1,60,0,0
185891,-100,4,2,1,70,0,0
196879,-90.9090909090909,4,2,1,70,0,1
217809,-133.333333333333,4,2,1,70,0,1
217897,-133.333333333333,4,2,1,40,0,0
219379,-111.111111111111,4,2,1,60,0,0
229333,352.941176470588,4,2,1,60,1,0
230391,-100,4,2,1,60,0,0
230921,-133.333333333333,4,2,1,60,0,0
231009,-133.333333333333,4,2,1,5,0,0

[Colours]
Combo1 : 214,126,137
Combo2 : 138,170,196
Combo3 : 251,179,182
Combo4 : 136,164,210

[HitObjects]
245,233,12344,6,0,L|210:226,2,25.4999992218018,2|2|2,0:2|0:2|0:2,0:0:0:0:
328,252,12868,5,2,3:2:0:0:
332,231,13216,1,2,3:2:0:0:
336,210,13565,1,0,3:2:0:0:
340,189,13914,1,2,3:2:0:0:
265,145,14263,5,0,3:2:0:0:
261,124,14611,1,0,3:2:0:0:
257,103,14960,1,0,3:2:0:0:
253,82,15309,1,2,3:2:0:0:
172,136,15658,5,2,3:2:0:0:
151,132,16006,1,2,3:2:0:0:
130,128,16355,1,0,3:2:0:0:
109,124,16704,1,0,3:2:0:0:
50,212,17054,5,0,3:2:0:0:
71,216,17403,1,0,3:2:0:0:
92,220,17752,1,2,3:2:0:0:
113,224,18100,1,2,3:2:0:0:
151,309,18449,5,2,3:2:0:0:
172,305,18798,1,0,3:2:0:0:
193,301,19147,1,0,3:2:0:0:
214,297,19495,1,2,3:2:0:0:
284,230,19844,5,0,3:2:0:0:
305,234,20193,1,2,3:2:0:0:
326,238,20542,1,0,3:2:0:0:
347,242,20890,1,0,3:2:0:0:
420,347,21240,6,0,P|364:336|299:374,1,127.500004863739,2|0,3:2|3:2,0:0:0:0:
191,384,21763,2,0,L|199:303,1,63.7500024318696,4|2,0:2|3:2,0:0:0:0:
211,196,22112,1,4,0:3:0:0:
278,277,22286,1,8,0:2:0:0:
131,262,22461,1,4,0:3:0:0:
204,132,22635,6,0,L|213:217,1,63.7500024318696,6|0,3:2|0:0,0:0:0:0:
311,109,22984,1,10,0:2:0:0:
311,109,23071,1,8,0:2:0:0:
311,109,23158,1,0,3:2:0:0:
217,34,23333,2,0,L|144:42,1,63.7500024318696,2|0,3:2|3:0,0:0:0:0:
23,56,23681,1,10,0:2:0:0:
115,151,23856,1,8,0:2:0:0:
115,151,23943,1,8,0:2:0:0:
115,151,24030,6,0,L|101:240,1,76.4999976654053,6|0,3:2|0:0,0:0:0:0:
88,354,24379,1,10,0:2:0:0:
199,291,24554,2,0,B|285:274|252:332|347:306,1,152.999995330811,6|2,3:2|3:2,0:0:0:0:
434,222,25077,1,8,0:2:0:0:
307,106,25251,6,0,B|284:196|284:196|304:222|336:220,1,152.999995330811,6|2,3:2|3:2,0:0:0:0:
409,121,25774,1,8,0:2:0:0:
318,14,25949,2,0,B|256:23|256:23|236:49|236:49|160:61,1,152.999995330811,6|6,3:2|3:2,0:0:0:0:
70,16,26472,1,14,0:2:0:0:
170,197,26821,6,0,L|267:179,1,76.4999976654053,6|0,3:2|0:0,0:0:0:0:
325,101,27170,1,10,0:2:0:0:
435,229,27344,2,0,B|339:206|339:206|329:237|311:252,1,152.999995330811,6|2,3:2|3:2,0:0:0:0:
435,312,27868,1,8,0:2:0:0:
511,180,28042,6,0,P|500:104|486:29,1,152.999995330811,6|2,3:2|3:2,0:0:0:0:
408,122,28565,1,8,0:2:0:0:
288,23,28740,2,0,B|332:61|332:61|311:161,1,152.999995330811,6|6,3:2|3:2,0:0:0:0:
214,225,29263,2,0,L|191:144,1,76.4999976654053,14|2,0:2|0:2,0:0:0:0:
294,296,29612,6,0,P|267:322|230:333,1,76.4999976654053,6|0,3:2|0:0,0:0:0:0:
127,253,29961,1,10,0:2:0:0:
20,373,30135,2,0,B|53:333|53:333|18:226,1,152.999995330811,6|2,3:2|3:2,0:0:0:0:
76,122,30658,1,8,0:2:0:0:
218,227,30833,6,0,L|384:205,1,152.999995330811,6|2,3:2|3:2,0:0:0:0:
459,121,31356,1,8,0:2:0:0:
367,47,31530,2,0,B|281:30|314:88|219:62,1,152.999995330811,6|6,3:2|3:2,0:0:0:0:
108,12,32054,1,14,0:2:0:0:
14,214,32402,6,0,L|101:200,1,76.4999976654053,6|2,3:2|0:2,0:0:0:0:
252,225,32751,1,10,0:2:0:0:
153,325,32926,2,0,L|167:238,1,76.4999976654053,6|0,3:2|0:0,0:0:0:0:
218,124,33274,1,2,3:2:0:0:
165,249,33449,1,10,0:2:0:0:
311,151,33623,1,6,3:2:0:0:
311,151,33972,5,2,3:2:0:0:
403,295,34147,1,10,0:2:0:0:
443,220,34321,1,2,3:2:0:0:
318,297,34495,1,2,0:2:0:0:
358,222,34669,1,2,3:2:0:0:
363,370,34844,1,10,0:2:0:0:
176,249,35193,5,2,3:2:0:0:
113,298,35542,1,2,3:2:0:0:
63,236,35891,1,0,3:2:0:0:
0,286,36240,1,0,3:2:0:0:
13,174,36588,5,2,3:2:0:0:
76,124,36937,1,2,3:2:0:0:
126,186,37286,1,0,3:2:0:0:
189,137,37635,2,0,P|198:108|195:79,1,59.4999981842042,10|0,0:2|0:0,0:0:0:0:
291,6,37984,5,2,3:2:0:0:
340,69,38333,1,0,3:2:0:0:
278,119,38682,1,2,3:2:0:0:
328,182,39031,1,0,3:2:0:0:
402,19,39379,5,2,3:2:0:0:
451,82,39728,1,2,3:2:0:0:
389,132,40077,1,0,3:2:0:0:
439,195,40426,2,0,L|450:272,1,59.4999981842042,8|2,0:2|0:2,0:0:0:0:
433,369,40774,5,2,3:2:0:0:
370,320,41123,1,2,3:2:0:0:
320,382,41472,1,0,3:2:0:0:
257,332,41821,1,0,3:2:0:0:
420,258,42170,5,2,3:2:0:0:
357,209,42519,1,2,3:2:0:0:
307,271,42868,1,0,3:2:0:0:
244,221,43216,2,0,L|174:211,1,59.4999981842042,10|2,0:2|0:2,0:0:0:0:
45,343,43565,5,0,3:2:0:0:
108,293,43914,1,0,3:2:0:0:
158,355,44263,1,0,3:2:0:0:
221,306,44612,1,0,3:2:0:0:
105,113,44961,5,8,0:2:0:0:
262,170,45135,1,12,0:2:0:0:
262,170,45484,1,0,3:2:0:0:
212,54,45658,2,0,L|203:99,1,42.5,12|0,0:2|0:0,0:0:0:0:
173,179,45833,1,0,3:2:0:0:
173,179,45920,1,0,3:2:0:0:
173,179,46007,2,0,L|182:224,3,42.5,8|0|2|0,0:2|3:2|3:2|3:2,0:0:0:0:
174,259,46356,6,0,B|274:248|274:248|282:273|301:292,1,152.999995330811,6|10,3:2|0:2,0:0:0:0:
351,140,46879,1,2,0:2:0:0:
436,237,47054,2,0,L|357:226,1,76.4999976654053,0|0,3:2|0:0,0:0:0:0:
256,152,47402,2,0,L|267:73,1,76.4999976654053,8|2,0:2|0:2,0:0:0:0:
425,7,47751,6,0,B|441:64|441:64|427:91|427:91|446:159,1,152.999995330811,2|10,3:2|0:2,0:0:0:0:
420,322,48274,1,2,0:2:0:0:
512,248,48449,2,0,L|433:237,1,76.4999976654053,0|0,3:2|0:0,0:0:0:0:
342,367,48798,1,10,0:2:0:0:
220,237,49147,6,0,P|267:181|340:190,1,152.999995330811,2|8,3:2|0:2,0:0:0:0:
268,314,49670,1,2,0:2:0:0:
130,219,49844,2,0,L|144:305,1,76.4999976654053,2|0,3:2|0:0,0:0:0:0:
38,362,50193,2,0,L|50:286,1,76.4999976654053,8|2,0:2|0:2,0:0:0:0:
78,136,50542,6,0,P|151:123|210:169,1,152.999995330811,2|10,3:2|0:2,0:0:0:0:
276,286,51065,1,2,0:2:0:0:
380,203,51240,2,0,L|298:193,1,76.4999976654053,0|0,3:2|0:0,0:0:0:0:
172,270,51588,1,8,0:2:0:0:
374,353,51937,6,0,L|528:333,1,152.999995330811,2|10,3:2|0:2,0:0:0:0:
422,263,52461,1,2,0:2:0:0:
512,171,52635,2,0,L|502:262,1,76.4999976654053,0|0,3:2|0:0,0:0:0:0:
418,165,52984,2,0,L|426:88,1,76.4999976654053,10|0,0:2|0:0,0:0:0:0:
323,210,53333,6,0,P|279:195|190:263,1,152.999995330811,2|10,3:2|0:2,0:0:0:0:
139,103,53856,1,2,0:2:0:0:
42,178,54030,2,0,L|125:190,1,76.4999976654053,0|0,3:2|0:0,0:0:0:0:
234,117,54379,2,0,L|223:41,1,76.4999976654053,10|2,0:2|0:2,0:0:0:0:
20,26,54728,6,0,L|46:208,2,152.999995330811,0|8|0,3:2|0:2|3:2,0:0:0:0:
163,191,55774,1,8,0:2:0:0:
18,296,56123,2,0,L|115:281,1,76.4999976654053,12|0,0:2|0:0,0:0:0:0:
243,260,56472,1,8,0:2:0:0:
177,116,56647,2,0,L|163:193,1,76.4999976654053,8|0,0:2|3:0,0:0:0:0:
230,335,56995,2,0,L|243:259,1,76.4999976654053,8|0,0:2|3:2,0:0:0:0:
272,109,57344,1,8,0:2:0:0:
327,302,57519,5,6,3:2:0:0:
142,285,57693,1,6,3:2:0:0:
142,285,58042,2,0,P|102:278|39:339,1,136,10|2,0:2|3:2,0:0:0:0:
193,370,58565,1,8,0:2:0:0:
229,241,58740,6,0,L|210:92,1,136,6|2,3:2|3:2,0:0:0:0:
117,32,59263,2,0,L|108:99,1,68,10|0,0:2|0:0,0:0:0:0:
0,197,59612,2,0,P|34:184|77:195,1,68,0|0,3:2|0:0,0:0:0:0:
163,283,59961,2,0,P|150:249|161:206,1,68,10|2,0:2|0:2,0:0:0:0:
251,88,60309,6,0,L|389:106,1,136,6|8,3:2|0:2,0:0:0:0:
504,206,60833,2,0,P|438:200|395:249,1,136,2|0,3:2|3:2,0:0:0:0:
294,341,61356,1,8,0:2:0:0:
294,341,61705,6,0,L|274:204,1,136,6|8,3:2|0:2,0:0:0:0:
191,111,62228,2,0,L|171:245,1,136,2|0,3:2|3:2,0:0:0:0:
80,340,62751,1,8,0:2:0:0:
80,340,63100,5,6,3:2:0:0:
16,172,63274,1,6,3:2:0:0:
16,172,63623,2,0,B|70:164|70:164|94:177|94:177|168:165,1,136,10|2,0:2|3:2,0:0:0:0:
254,125,64147,1,8,0:2:0:0:
298,263,64321,6,0,P|239:275|235:215,1,136,6|2,3:2|3:2,0:0:0:0:
335,120,64844,2,0,B|406:102|381:155|465:134,1,136,10|0,0:2|3:2,0:0:0:0:
352,201,65368,1,8,0:2:0:0:
438,49,65542,1,8,0:2:0:0:
229,27,65891,6,0,L|240:109,1,68,14|0,0:2|0:0,0:0:0:0:
132,187,66240,2,0,L|141:119,1,68,10|2,0:2|3:2,0:0:0:0:
233,257,66588,2,0,L|223:189,1,68,8|2,0:2|3:2,0:0:0:0:
82,268,66937,2,0,P|112:281|146:279,1,68,10|0,0:2|0:0,0:0:0:0:
281,346,67286,6,0,P|247:343|216:357,1,68,8|0,0:2|0:0,0:0:0:0:
320,241,67635,1,10,0:2:0:0:
393,384,67809,2,0,L|413:243,1,136,0|0,3:2|3:2,0:0:0:0:
310,173,68333,2,0,L|319:240,1,68,10|2,0:2|0:2,0:0:0:0:
396,141,68681,5,4,3:2:0:0:
396,141,69030,1,8,0:2:0:0:
326,83,69205,1,8,0:2:0:0:
310,173,69379,1,8,0:2:0:0:
412,51,69554,1,8,0:2:0:0:
256,25,69728,1,0,3:2:0:0:
256,25,69902,1,0,3:2:0:0:
301,198,70077,5,12,0:2:0:0:
301,198,70426,1,8,0:2:0:0:
160,91,70600,1,8,0:2:0:0:
160,91,71298,6,0,B|146:162|146:162|175:198|175:198|162:275,1,187.000005706787,6|0,3:2|3:2,0:0:0:0:
46,377,71821,2,0,L|61:279,1,93.5000028533936,8|0,0:2|0:0,0:0:0:0:
232,345,72170,2,0,P|193:370|147:368,1,93.5000028533936,2|0,3:2|0:0,0:0:0:0:
260,241,72519,1,8,0:2:0:0:
331,384,72693,1,2,0:2:0:0:
426,253,72868,6,0,L|396:67,1,187.000005706787,2|8,3:2|0:2,0:0:0:0:
294,0,73391,1,0,0:0:0:0:
206,141,73565,2,0,P|158:153|98:132,1,93.5000028533936,2|0,3:2|0:0,0:0:0:0:
31,10,73914,1,8,0:2:0:0:
159,53,74088,1,2,0:2:0:0:
29,202,74263,6,0,L|11:84,1,93.5000028533936,2|0,3:2|0:0,0:0:0:0:
192,233,74612,2,0,L|210:115,1,93.5000028533936,10|0,0:2|0:0,0:0:0:0:
136,327,74961,2,0,P|199:264|286:286,1,187.000005706787,2|10,3:2|0:2,0:0:0:0:
446,194,75484,6,0,P|395:223|400:130,1,187.000005706787,2|2,0:2|0:2,0:0:0:0:
484,298,76007,2,0,P|435:322|372:312,1,93.5000028533936,10|2,0:2|0:2,0:0:0:0:
369,310,76269,1,2,0:2:0:0:
369,310,76356,2,0,L|254:321,1,93.5000028533936,2|0,3:2|0:2,0:0:0:0:
146,216,76705,1,8,0:2:0:0:
157,353,76879,1,2,0:2:0:0:
256,214,77054,6,0,L|237:96,1,93.5000028533936,2|0,3:2|0:0,0:0:0:0:
87,62,77402,2,0,P|108:103|146:127,1,93.5000028533936,10|0,0:2|0:0,0:0:0:0:
265,19,77751,2,0,P|218:17|178:38,1,93.5000028533936,2|0,3:2|0:0,0:0:0:0:
146,216,78100,1,10,0:2:0:0:
87,62,78274,1,2,0:2:0:0:
242,122,78449,5,0,3:2:0:0:
242,122,78798,2,0,L|353:108,1,93.5000028533936,10|0,0:2|0:0,0:0:0:0:
344,264,79147,2,0,P|305:234|291:180,1,93.5000028533936,2|0,3:2|0:0,0:0:0:0:
424,100,79495,2,0,P|419:147|379:186,1,93.5000028533936,10|0,0:2|0:0,0:0:0:0:
260,339,79844,6,0,B|57:305,2,187.000005706787,2|8|0,3:2|0:2|3:2,0:0:0:0:
128,142,80891,2,0,L|28:153,1,93.5000028533936,10|2,0:2|0:2,0:0:0:0:
192,237,81240,5,4,3:2:0:0:
237,49,81414,2,0,B|216:92|216:92|239:166,1,93.5000028533936,8|0,0:2|0:0,0:0:0:0:
407,188,81763,2,0,P|318:195|290:278,1,187.000005706787,0|10,3:2|0:2,0:0:0:0:
448,307,82286,1,10,0:2:0:0:
495,149,82461,6,0,B|470:27|470:27|463:54|430:74,1,187.000005706787,6|0,3:2|3:2,0:0:0:0:
295,8,82984,2,0,P|325:50|318:119,1,93.5000028533936,8|0,0:2|0:0,0:0:0:0:
205,185,83333,2,0,L|220:79,1,93.5000028533936,2|0,3:2|0:0,0:0:0:0:
307,232,83681,1,8,0:2:0:0:
218,92,83856,1,2,0:2:0:0:
93,205,84030,6,0,B|114:272|114:272|97:320|97:320|117:390,1,187.000005706787,2|10,3:2|0:2,0:0:0:0:
22,268,84554,1,2,0:2:0:0:
192,327,84728,2,0,L|301:311,1,93.5000028533936,0|0,3:2|0:0,0:0:0:0:
424,235,85077,1,8,0:2:0:0:
387,384,85251,1,2,0:2:0:0:
310,214,85426,6,0,L|324:119,1,93.5000028533936,2|0,3:2|0:0,0:0:0:0:
466,67,85774,2,0,P|449:111|392:140,1,93.5000028533936,10|0,0:2|0:0,0:0:0:0:
286,37,86123,2,0,P|333:29|386:64,1,93.5000028533936,2|0,3:2|0:0,0:0:0:0:
239,122,86472,1,10,0:2:0:0:
372,48,86647,1,2,0:2:0:0:
269,215,86821,6,0,L|173:204,1,93.5000028533936,0|0,3:2|0:0,0:0:0:0:
25,134,87170,2,0,L|117:123,1,93.5000028533936,8|0,0:2|0:0,0:0:0:0:
222,299,87519,2,0,L|126:288,1,93.5000028533936,8|0,0:2|0:0,0:0:0:0:
239,122,87868,1,10,0:2:0:0:
335,297,88042,6,0,P|305:212|360:140,1,187.000005706787,6|0,3:2|3:0,0:0:0:0:
512,139,88565,1,10,0:2:0:0:
399,233,88740,1,2,0:2:0:0:
346,43,88914,2,0,L|449:62,1,93.5000028533936,0|0,3:2|0:0,0:0:0:0:
239,122,89263,2,0,L|147:105,1,93.5000028533936,8|0,0:2|0:0,0:0:0:0:
277,281,89612,6,0,B|227:259|174:290|174:290|164:339|132:358,1,187.000005706787,0|8,3:2|0:2,0:0:0:0:
0,183,90309,2,0,P|45:176|86:198,1,93.5000028533936,2|0,3:2|0:0,0:0:0:0:
179,18,90658,2,0,P|133:11|92:33,1,93.5000028533936,10|0,0:2|0:0,0:0:0:0:
244,148,91007,6,0,B|341:120|309:200|424:158,1,187.000005706787,6|10,3:2|0:2,0:0:0:0:
278,250,91530,1,2,0:2:0:0:
413,369,91705,2,0,L|391:260,1,93.5000028533936,0|0,3:2|0:0,0:0:0:0:
375,73,92054,5,10,0:2:0:0:
247,260,92228,2,0,B|217:227|217:227|245:148,1,127.500004863739,10|0,0:2|0:0,0:0:0:0:
62,33,93274,2,0,L|54:-11,3,31.1666676177979,0|0|0|8,3:2|3:2|3:2|0:2,0:0:0:0:
135,174,93798,6,0,L|149:84,1,76.4999976654053,6|0,3:2|0:0,0:0:0:0:
61,226,94147,1,10,0:2:0:0:
190,255,94321,2,0,P|132:208|61:226,1,152.999995330811,6|2,3:2|3:2,0:0:0:0:
149,341,94844,1,8,0:2:0:0:
279,234,95019,6,0,P|265:309|254:384,1,152.999995330811,6|2,3:2|3:2,0:0:0:0:
190,255,95542,1,8,0:2:0:0:
348,317,95716,2,0,P|420:325|472:270,1,152.999995330811,6|6,3:2|3:2,0:0:0:0:
365,203,96240,1,14,0:2:0:0:
487,27,96588,6,0,P|480:65|475:103,1,76.4999976654053,6|0,3:2|0:0,0:0:0:0:
407,0,96937,1,10,0:2:0:0:
332,116,97112,2,0,P|258:131|193:93,1,152.999995330811,6|2,3:2|3:2,0:0:0:0:
129,0,97635,1,8,0:2:0:0:
75,140,97809,6,0,P|83:216|89:292,1,152.999995330811,6|2,3:2|3:2,0:0:0:0:
163,384,98333,1,8,0:2:0:0:
313,323,98507,2,0,P|260:270|188:283,1,152.999995330811,6|6,3:2|3:2,0:0:0:0:
75,384,99030,2,0,P|37:376|0:372,1,76.4999976654053,14|2,0:2|0:2,0:0:0:0:
0,190,99379,6,0,P|37:197|75:202,1,76.4999976654053,6|0,3:2|0:0,0:0:0:0:
201,158,99728,1,10,0:2:0:0:
107,51,99902,2,0,B|191:26|163:87|254:53,1,152.999995330811,6|2,3:2|3:2,0:0:0:0:
338,142,100426,1,8,0:2:0:0:
435,27,100600,6,0,L|455:193,1,152.999995330811,6|2,3:2|3:2,0:0:0:0:
476,308,101123,1,8,0:2:0:0:
363,269,101298,2,0,B|306:279|306:279|289:306|289:306|198:324,1,152.999995330811,6|6,3:2|3:2,0:0:0:0:
115,277,101821,1,14,0:2:0:0:
243,92,102170,6,0,L|232:180,1,76.4999976654053,6|2,3:2|0:2,0:0:0:0:
151,41,102519,1,10,0:2:0:0:
72,140,102693,2,0,L|160:129,1,76.4999976654053,6|0,3:2|0:0,0:0:0:0:
239,8,103042,1,2,3:2:0:0:
147,130,103216,1,10,0:2:0:0:
308,170,103391,1,6,3:2:0:0:
308,170,103740,5,2,3:2:0:0:
220,318,103914,1,10,0:2:0:0:
306,319,104088,1,2,3:2:0:0:
177,243,104263,1,2,0:2:0:0:
263,243,104437,1,2,3:2:0:0:
134,318,104612,1,10,0:2:0:0:
63,120,104961,6,0,L|209:93,1,136,6|10,3:2|0:2,0:0:0:0:
281,0,105484,1,2,0:2:0:0:
281,0,105658,2,0,L|270:78,1,68,0|0,3:2|0:0,0:0:0:0:
381,127,106007,2,0,L|371:59,1,68,8|2,0:2|0:2,0:0:0:0:
350,209,106356,6,0,P|398:163|463:170,1,136,2|10,3:2|0:2,0:0:0:0:
438,317,106879,1,2,0:2:0:0:
438,317,107054,2,0,L|426:230,1,68,0|0,3:2|0:0,0:0:0:0:
344,365,107402,1,10,0:2:0:0:
344,365,107751,6,0,L|184:347,1,136,2|8,3:2|0:2,0:0:0:0:
116,273,108274,1,2,0:2:0:0:
116,273,108449,2,0,P|181:269|219:216,1,136,2|8,3:2|0:2,0:0:0:0:
296,159,108972,1,2,0:2:0:0:
205,127,109147,6,0,B|147:138|147:138|129:159|129:159|54:171,1,136,2|10,3:2|0:2,0:0:0:0:
2,121,109670,1,2,0:2:0:0:
2,121,109844,1,0,3:2:0:0:
161,14,110193,2,0,L|241:26,1,68,8|2,0:2|0:2,0:0:0:0:
349,82,110542,6,0,P|284:87|245:145,1,136,2|10,3:2|0:2,0:0:0:0:
219,265,111065,1,2,0:2:0:0:
219,265,111240,2,0,L|299:251,1,68,0|0,3:2|0:0,0:0:0:0:
397,178,111588,2,0,L|330:166,1,68,8|2,0:2|0:2,0:0:0:0:
459,243,111937,6,0,P|434:181|468:125,1,136,2|10,3:2|0:2,0:0:0:0:
489,32,112461,1,2,0:2:0:0:
489,32,112635,1,0,3:2:0:0:
300,81,112984,2,0,L|221:71,1,68,10|2,0:2|0:2,0:0:0:0:
115,24,113333,6,0,L|153:170,2,136,0|8|0,3:2|0:2|3:2,0:0:0:0:
254,191,114379,1,8,0:2:0:0:
65,286,114728,5,8,0:2:0:0:
237,330,114902,1,12,0:2:0:0:
237,330,115251,1,0,3:2:0:0:
125,384,115426,2,0,L|137:323,1,42.5,12|0,0:2|0:0,0:0:0:0:
176,267,115600,1,0,3:2:0:0:
176,267,115687,1,0,3:2:0:0:
176,267,115774,2,0,L|164:206,3,42.5,8|0|2|0,0:2|3:2|3:2|3:2,0:0:0:0:
88,174,116123,6,0,P|161:188|222:145,1,152.999995330811,6|10,3:2|0:2,0:0:0:0:
276,4,116647,1,2,0:2:0:0:
377,103,116821,2,0,P|339:95|301:89,1,76.4999976654053,0|0,3:2|0:0,0:0:0:0:
143,102,117170,2,0,P|149:64|156:26,1,76.4999976654053,8|2,0:2|0:2,0:0:0:0:
223,146,117519,6,0,P|206:230|193:316,1,152.999995330811,2|10,3:2|0:2,0:0:0:0:
117,194,118042,1,2,0:2:0:0:
20,279,118216,2,0,P|57:284|95:292,1,76.4999976654053,0|0,3:2|0:0,0:0:0:0:
229,384,118565,1,10,0:2:0:0:
392,194,118914,6,0,B|303:179|334:238|249:227,1,152.999995330811,2|8,3:2|0:2,0:0:0:0:
165,118,119437,1,2,0:2:0:0:
278,58,119612,2,0,P|270:95|265:133,1,76.4999976654053,2|0,3:2|0:0,0:0:0:0:
152,212,119961,2,0,P|159:249|164:287,1,76.4999976654053,8|2,0:2|0:2,0:0:0:0:
281,383,120309,6,0,P|310:344|409:349,1,152.999995330811,2|10,3:2|0:2,0:0:0:0:
430,180,120833,1,2,0:2:0:0:
512,280,121007,2,0,P|474:273|436:267,1,76.4999976654053,0|0,3:2|0:0,0:0:0:0:
346,129,121356,1,8,0:2:0:0:
167,272,121705,6,0,P|214:215|203:141,1,152.999995330811,2|10,3:2|0:2,0:0:0:0:
130,25,122228,1,2,0:2:0:0:
33,102,122402,2,0,P|70:107|108:116,1,76.4999976654053,0|0,3:2|0:0,0:0:0:0:
224,53,122751,2,0,P|261:58|299:67,1,76.4999976654053,10|0,0:2|0:0,0:0:0:0:
449,134,123100,6,0,P|374:132|323:187,1,152.999995330811,2|10,3:2|0:2,0:0:0:0:
491,219,123623,1,2,0:2:0:0:
398,300,123798,2,0,P|402:262|408:224,1,76.4999976654053,0|0,3:2|0:0,0:0:0:0:
493,309,124147,2,0,P|487:346|482:384,1,76.4999976654053,10|2,0:2|0:2,0:0:0:0:
329,377,124495,6,0,B|288:342|288:342|183:370,2,152.999995330811,0|8|0,3:2|0:2|3:2,0:0:0:0:
166,258,125542,1,8,0:2:0:0:
350,76,125891,6,0,L|336:158,1,76.4999976654053,12|0,0:2|0:0,0:0:0:0:
316,275,126240,1,8,0:2:0:0:
246,124,126414,2,0,L|232:206,1,76.4999976654053,8|0,0:2|3:2,0:0:0:0:
147,336,126763,1,8,0:2:0:0:
139,177,126937,1,0,3:2:0:0:
228,294,127112,1,8,0:2:0:0:
246,124,127286,5,6,3:2:0:0:
85,254,127461,1,6,3:2:0:0:
85,254,127809,2,0,P|48:218|58:122,1,136,10|2,0:2|3:2,0:0:0:0:
144,38,128333,1,8,0:2:0:0:
246,124,128507,6,0,L|403:102,1,136,6|2,3:2|3:2,0:0:0:0:
443,0,129030,2,0,L|375:9,1,68,10|0,0:2|0:0,0:0:0:0:
461,149,129379,2,0,P|477:109|470:64,1,68,0|0,3:2|0:0,0:0:0:0:
385,197,129728,2,0,P|386:230|400:261,1,68,10|2,0:2|0:2,0:0:0:0:
495,345,130077,6,0,L|360:367,1,136,6|8,3:2|0:2,0:0:0:0:
232,335,130600,2,0,P|270:280|263:214,1,136,2|0,3:2|3:2,0:0:0:0:
194,98,131123,1,8,0:2:0:0:
27,250,131472,6,0,P|15:183|1:117,1,136,6|8,3:2|0:2,0:0:0:0:
123,16,131995,2,0,P|108:82|97:149,1,136,2|0,3:2|3:2,0:0:0:0:
164,274,132519,1,8,0:2:0:0:
164,274,132868,5,6,3:2:0:0:
340,202,133042,1,6,3:2:0:0:
339,202,133391,2,0,P|272:191|205:179,1,136,10|2,0:2|3:2,0:0:0:0:
104,113,133914,1,8,0:2:0:0:
217,48,134088,6,0,B|288:30|271:85|347:62,1,136,6|2,3:2|3:2,0:0:0:0:
464,4,134612,2,0,L|438:152,1,136,10|0,0:2|3:2,0:0:0:0:
400,269,135135,1,8,0:2:0:0:
305,178,135309,1,8,0:2:0:0:
181,327,135658,6,0,L|264:311,1,68,14|0,0:2|0:0,0:0:0:0:
119,228,136007,2,0,L|202:212,1,68,10|2,0:2|3:2,0:0:0:0:
318,111,136356,2,0,L|302:194,1,68,8|2,0:2|3:2,0:0:0:0:
217,43,136705,2,0,L|201:126,1,68,10|0,0:2|0:0,0:0:0:0:
52,158,137054,6,0,L|39:91,1,68,8|0,0:2|0:0,0:0:0:0:
119,228,137402,1,10,0:2:0:0:
0,311,137577,2,0,P|66:308|112:355,1,136,0|0,3:2|3:2,0:0:0:0:
228,277,138100,2,0,L|217:365,1,68,10|2,0:2|0:2,0:0:0:0:
318,228,138449,5,4,3:2:0:0:
318,228,138798,1,8,0:2:0:0:
171,161,138972,1,8,0:2:0:0:
315,105,139147,1,8,0:2:0:0:
233,245,139321,1,8,0:2:0:0:
204,77,139495,1,0,3:2:0:0:
204,77,139670,1,0,3:2:0:0:
137,255,139844,5,12,0:2:0:0:
137,255,141065,6,0,B|206:241|206:241|242:265|242:265|329:250,1,187.000005706787,6|0,3:2|3:2,0:0:0:0:
290,76,141588,2,0,L|276:168,1,93.5000028533936,8|0,0:2|0:0,0:0:0:0:
408,287,141937,2,0,L|390:168,1,93.5000028533936,2|0,3:2|0:0,0:0:0:0:
326,346,142286,1,8,0:2:0:0:
394,194,142461,1,2,0:2:0:0:
222,289,142635,6,0,B|125:261|157:341|42:299,1,187.000005706787,2|8,3:2|0:2,0:0:0:0:
196,193,143158,1,0,0:0:0:0:
75,123,143333,2,0,L|96:225,1,93.5000028533936,2|0,3:2|0:0,0:0:0:0:
197,100,143681,1,8,0:2:0:0:
61,32,143856,1,2,0:2:0:0:
196,193,144030,6,0,L|302:180,1,93.5000028533936,2|0,3:2|0:0,0:0:0:0:
390,72,144379,2,0,L|284:85,1,93.5000028533936,10|0,0:2|0:0,0:0:0:0:
465,150,144728,2,0,P|501:94|451:-10,1,187.000005706787,2|10,3:2|0:2,0:0:0:0:
378,168,145251,6,0,L|404:355,1,187.000005706787,2|2,0:2|0:2,0:0:0:0:
286,262,145774,2,0,B|239:256|239:256|196:282,1,93.5000028533936,10|2,0:2|0:2,0:0:0:0:
169,304,146036,1,2,0:2:0:0:
169,304,146123,2,0,L|155:201,1,93.5000028533936,2|0,3:2|0:2,0:0:0:0:
38,105,146472,1,8,0:2:0:0:
50,257,146647,1,2,0:2:0:0:
161,105,146821,6,0,L|275:121,1,93.5000028533936,2|0,3:2|0:0,0:0:0:0:
363,231,147170,2,0,P|317:234|280:207,1,93.5000028533936,10|0,0:2|0:0,0:0:0:0:
322,56,147519,2,0,P|347:93|342:139,1,93.5000028533936,2|0,3:2|0:0,0:0:0:0:
211,266,147868,1,10,0:2:0:0:
254,118,148042,1,2,0:2:0:0:
363,231,148216,5,0,3:2:0:0:
363,231,148565,2,0,L|455:217,1,93.5000028533936,10|0,0:2|0:0,0:0:0:0:
349,334,148914,2,0,L|441:320,1,93.5000028533936,2|0,3:2|0:0,0:0:0:0:
274,277,149263,2,0,P|253:318|256:364,1,93.5000028533936,10|0,0:2|0:0,0:0:0:0:
456,218,149612,6,0,L|431:25,2,187.000005706787,2|8|0,3:2|0:2|3:2,0:0:0:0:
282,17,150658,2,0,L|263:113,1,93.5000028533936,10|2,0:2|0:2,0:0:0:0:
177,259,151007,5,4,3:2:0:0:
79,146,151181,2,0,L|194:165,1,93.5000028533936,8|0,0:2|0:0,0:0:0:0:
305,329,151530,2,0,B|208:301|240:381|125:339,1,187.000005706787,0|10,3:2|0:2,0:0:0:0:
263,213,152054,1,10,0:2:0:0:
386,384,152228,6,0,B|417:329|417:329|369:201,1,187.000005706787,6|0,3:2|3:2,0:0:0:0:
264,109,152751,2,0,L|159:123,1,93.5000028533936,8|0,0:2|0:0,0:0:0:0:
75,238,153100,2,0,L|167:225,1,93.5000028533936,2|0,3:2|0:0,0:0:0:0:
281,349,153449,1,8,0:2:0:0:
263,213,153623,1,2,0:2:0:0:
139,340,153798,6,0,P|50:362|-22:308,1,187.000005706787,2|10,3:2|0:2,0:0:0:0:
51,161,154321,1,2,0:2:0:0:
171,227,154495,2,0,L|291:209,1,93.5000028533936,0|0,3:2|0:0,0:0:0:0:
309,54,154844,1,8,0:2:0:0:
203,126,155019,1,2,0:2:0:0:
352,244,155193,6,0,P|359:198|339:156,1,93.5000028533936,2|0,3:2|0:0,0:0:0:0:
277,309,155542,2,0,P|313:338|359:341,1,93.5000028533936,10|0,0:2|0:0,0:0:0:0:
512,258,155891,2,0,P|466:262|430:290,1,93.5000028533936,2|0,3:2|0:0,0:0:0:0:
340,157,156240,1,10,0:2:0:0:
359,342,156414,1,2,0:2:0:0:
450,167,156588,6,0,L|429:61,1,93.5000028533936,0|0,3:2|0:0,0:0:0:0:
270,0,156937,2,0,P|280:44|263:87,1,93.5000028533936,8|0,0:2|0:0,0:0:0:0:
98,81,157286,2,0,P|131:49|176:42,1,93.5000028533936,8|0,0:2|0:0,0:0:0:0:
115,177,157635,1,10,0:2:0:0:
31,9,157809,6,0,B|-9:64|-9:64|30:199,1,187.000005706787,6|0,3:2|0:0,0:0:0:0:
147,266,158333,1,10,0:2:0:0:
24,178,158507,1,2,0:2:0:0:
39,362,158681,2,0,L|56:262,1,93.5000028533936,0|0,3:2|0:0,0:0:0:0:
210,337,159030,2,0,P|172:363|126:360,1,93.5000028533936,8|0,0:2|0:0,0:0:0:0:
243,245,159379,6,0,B|292:207|370:248|370:248|331:257|322:268,1,187.000005706787,0|8,3:2|0:2,0:0:0:0:
132,166,160077,2,0,P|137:119|144:73,1,93.5000028533936,2|0,3:2|0:0,0:0:0:0:
272,0,160426,2,0,P|278:46|284:92,1,93.5000028533936,10|0,0:2|0:0,0:0:0:0:
460,204,160774,6,0,P|371:194|322:268,1,187.000005706787,6|10,3:2|0:2,0:0:0:0:
218,149,161298,1,2,0:2:0:0:
218,341,161472,2,0,L|234:231,1,93.5000028533936,0|0,3:2|0:0,0:0:0:0:
144,73,161821,5,10,0:2:0:0:
2,237,161995,2,0,P|63:229|107:272,1,127.500004863739,10|0,0:2|0:0,0:0:0:0:
253,282,173158,6,0,B|296:245|296:245|276:141,1,152.999995330811,4|0,3:2|0:0,0:0:0:0:
116,191,173681,2,0,L|201:209,1,76.4999976654053,8|0,0:2|3:2,0:0:0:0:
336,243,174030,1,0,3:2:0:0:
315,58,174205,1,14,0:2:0:0:
291,49,174292,1,8,0:2:0:0:
265,47,174379,1,10,0:2:0:0:
241,52,174466,1,8,0:2:0:0:
218,64,174553,1,10,0:2:0:0:
200,82,174641,1,8,0:2:0:0:
189,105,174728,6,0,P|262:125|336:147,1,152.999995330811,6|10,3:2|0:2,0:0:0:0:
400,27,175251,1,2,0:2:0:0:
504,137,175426,2,0,P|467:126|430:115,1,76.4999976654053,0|0,3:2|0:0,0:0:0:0:
335,249,175774,2,0,P|371:238|408:227,1,76.4999976654053,10|2,0:2|0:2,0:0:0:0:
287,342,176123,6,0,B|201:325|234:383|139:357,2,152.999995330811,0|8|0,3:2|0:2|3:2,0:0:0:0:
69,293,177170,2,0,P|48:324|43:362,1,76.4999976654053,10|0,0:2|0:0,0:0:0:0:
178,273,177519,6,0,L|158:108,1,152.999995330811,2|10,3:2|0:2,0:0:0:0:
49,22,178042,2,0,L|30:173,1,152.999995330811,2|0,0:2|0:0,0:0:0:0:
69,293,178565,1,8,0:2:0:0:
263,183,178914,6,0,B|325:174|325:174|355:187|355:187|437:179,2,152.999995330811,0|8|0,3:2|0:2|3:2,0:0:0:0:
166,311,179786,1,2,0:2:0:0:
167,182,179961,1,10,0:2:0:0:
260,285,180135,1,2,0:2:0:0:
91,381,180309,6,0,B|58:336|58:336|90:231,1,152.999995330811,2|10,3:2|0:2,0:0:0:0:
117,96,180833,1,2,0:2:0:0:
243,170,181007,2,0,L|158:183,1,76.4999976654053,0|0,3:2|0:0,0:0:0:0:
228,74,181356,2,0,L|303:62,1,76.4999976654053,10|2,0:2|0:2,0:0:0:0:
419,160,181705,6,0,B|377:129|377:129|397:25,2,152.999995330811,0|8|0,3:2|0:2|3:2,0:0:0:0:
512,354,182751,2,0,P|479:333|442:329,1,76.4999976654053,8|0,0:2|0:0,0:0:0:0:
328,384,183100,6,0,L|357:228,1,152.999995330811,2|8,3:2|0:2,0:0:0:0:
159,59,183798,2,0,L|186:209,1,152.999995330811,2|8,3:2|0:2,0:0:0:0:
0,314,184495,2,0,P|73:306|122:361,1,152.999995330811,2|8,3:2|0:2,0:0:0:0:
332,301,185193,2,0,L|245:289,1,76.4999976654053,2|0,3:2|0:0,0:0:0:0:
401,220,185542,1,10,0:2:0:0:
426,343,185716,1,2,0:2:0:0:
302,201,185891,6,0,L|324:24,1,170,4|8,3:2|0:2,0:0:0:0:
486,209,186588,2,0,L|395:221,1,85,0|0,3:2|0:0,0:0:0:0:
322,363,186937,1,10,0:2:0:0:
435,314,187112,1,2,0:2:0:0:
291,246,187286,6,0,B|246:224|198:247|198:247|192:289|160:308,1,170,0|8,3:2|0:2,0:0:0:0:
64,122,187984,2,0,P|109:122|156:165,1,85,2|0,3:2|0:0,0:0:0:0:
161,307,188333,1,10,0:2:0:0:
74,213,188507,1,2,0:2:0:0:
234,224,188681,6,0,B|326:199|299:276|414:234,1,170,0|8,3:2|0:2,0:0:0:0:
512,55,189379,2,0,B|404:46|404:46|400:75|382:103,1,170,0|8,3:2|0:2,0:0:0:0:
126,114,190077,6,0,L|218:98,1,85,2|2,3:2|0:2,0:0:0:0:
305,32,190426,2,0,P|292:116|281:200,1,170,10|0,0:2|3:2,0:0:0:0:
287,337,190949,1,2,0:2:0:0:
186,264,191123,1,10,0:2:0:0:
164,262,191210,1,0,3:2:0:0:
144,267,191297,1,2,3:2:0:0:
125,276,191384,1,0,3:2:0:0:
109,290,191472,6,0,P|154:284|123:173,1,170,4|8,3:2|0:2,0:0:0:0:
32,4,192170,2,0,L|13:93,1,85,0|0,3:2|0:0,0:0:0:0:
32,235,192519,1,10,0:2:0:0:
97,116,192693,1,2,0:2:0:0:
186,264,192868,6,0,L|369:239,1,170,0|8,3:2|0:2,0:0:0:0:
481,103,193565,2,0,P|438:114|388:97,1,85,0|0,3:2|0:0,0:0:0:0:
310,0,193914,1,10,0:2:0:0:
441,20,194088,1,2,0:2:0:0:
297,98,194263,6,0,L|128:77,1,170,0|8,3:2|0:2,0:0:0:0:
0,306,194961,2,0,L|168:285,1,170,0|8,3:2|0:2,0:0:0:0:
375,375,195658,6,0,L|357:279,1,85,4|0,3:2|0:0,0:0:0:0:
325,146,196007,1,8,0:2:0:0:
442,241,196181,1,8,0:2:0:0:
414,94,196356,1,8,0:2:0:0:
290,227,196530,1,10,0:2:0:0:
269,231,196617,1,8,0:2:0:0:
248,230,196704,1,10,0:2:0:0:
227,224,196791,1,8,0:2:0:0:
210,213,196879,6,0,B|171:181|113:186|113:186|93:228|51:241,1,187.000005706787,6|0,3:2|3:2,0:0:0:0:
10,50,197402,2,0,P|55:58|86:92,1,93.5000028533936,8|0,0:2|0:0,0:0:0:0:
241,0,197751,2,0,P|218:40|224:85,1,93.5000028533936,2|0,3:2|0:0,0:0:0:0:
356,199,198100,1,8,0:2:0:0:
315,67,198274,1,2,0:2:0:0:
226,186,198449,6,0,B|242:253|242:253|220:291|220:291|243:389,1,187.000005706787,2|8,3:2|0:2,0:0:0:0:
144,240,198972,1,0,0:0:0:0:
313,314,199147,2,0,L|429:299,1,93.5000028533936,2|0,3:2|0:0,0:0:0:0:
512,181,199495,1,8,0:2:0:0:
364,213,199670,1,2,0:2:0:0:
486,360,199844,6,0,B|510:321|510:321|496:264,1,93.5000028533936,2|0,3:2|0:0,0:0:0:0:
379,121,200193,2,0,L|364:218,1,93.5000028533936,10|0,0:2|0:0,0:0:0:0:
512,181,200542,2,0,L|497:84,1,93.5000028533936,2|0,3:2|0:0,0:0:0:0:
372,9,200891,1,10,0:2:0:0:
272,144,201065,6,0,B|169:113|192:196|94:167,1,187.000005706787,2|2,0:2|0:2,0:0:0:0:
5,17,201588,2,0,B|33:56|33:56|23:109,1,93.5000028533936,10|2,0:2|0:2,0:0:0:0:
0,133,201850,1,2,0:2:0:0:
0,133,201937,2,0,L|19:243,1,93.5000028533936,2|0,3:2|0:2,0:0:0:0:
57,374,202286,1,8,0:2:0:0:
15,225,202461,1,2,0:2:0:0:
195,276,202635,6,0,L|93:289,1,93.5000028533936,6|0,3:2|0:0,0:0:0:0:
214,185,202984,2,0,L|306:173,1,93.5000028533936,10|0,0:2|0:0,0:0:0:0:
256,364,203333,2,0,L|154:377,1,93.5000028533936,2|0,3:2|0:0,0:0:0:0:
292,276,203681,1,10,0:2:0:0:
163,375,203856,1,2,0:2:0:0:
214,185,204030,5,0,3:2:0:0:
214,185,204379,2,0,L|202:85,1,93.5000028533936,10|0,0:2|0:0,0:0:0:0:
56,40,204728,2,0,P|72:82|111:107,1,93.5000028533936,2|0,3:2|0:0,0:0:0:0:
233,7,205077,2,0,P|187:0|146:20,1,93.5000028533936,10|0,0:2|0:0,0:0:0:0:
297,82,205426,6,0,L|488:65,2,187.000005706787,2|8|0,3:2|0:2|3:2,0:0:0:0:
179,282,206472,2,0,L|272:290,1,93.5000028533936,10|2,0:2|0:2,0:0:0:0:
401,218,206821,5,4,3:2:0:0:
297,82,206995,2,0,P|306:127|315:173,1,93.5000028533936,8|0,0:2|0:0,0:0:0:0:
475,313,207344,2,0,P|491:221|511:129,1,187.000005706787,0|10,3:2|0:2,0:0:0:0:
395,19,207868,1,10,0:2:0:0:
316,173,208042,6,0,B|249:166|187:162|187:162|209:139|231:125,1,187.000005706787,6|0,3:2|3:2,0:0:0:0:
393,113,208565,2,0,P|417:164|407:209,1,93.5000028533936,8|0,0:2|0:0,0:0:0:0:
308,316,208914,2,0,L|196:306,1,93.5000028533936,2|0,3:2|0:0,0:0:0:0:
74,240,209263,1,8,0:2:0:0:
144,382,209437,1,2,0:2:0:0:
193,217,209612,6,0,L|158:33,1,187.000005706787,2|8,3:2|0:2,0:0:0:0:
91,149,210135,1,0,0:0:0:0:
255,97,210309,2,0,P|301:102|347:110,1,93.5000028533936,2|0,3:2|0:0,0:0:0:0:
479,188,210658,1,8,0:2:0:0:
436,45,210833,1,2,0:2:0:0:
367,214,211007,6,0,P|320:206|274:200,1,93.5000028533936,2|0,3:2|0:0,0:0:0:0:
158,33,211356,2,0,P|111:38|65:46,1,93.5000028533936,10|0,0:2|0:0,0:0:0:0:
0,192,211705,2,0,P|46:184|92:178,1,93.5000028533936,2|0,3:2|0:0,0:0:0:0:
195,316,212054,1,10,0:2:0:0:
57,277,212228,1,2,0:2:0:0:
174,117,212402,6,0,L|190:237,1,93.5000028533936,0|0,3:2|0:0,0:0:0:0:
285,365,212751,2,0,L|297:272,1,93.5000028533936,8|0,0:2|0:2,0:0:0:0:
374,137,213100,2,0,P|325:169|274:161,1,93.5000028533936,8|0,0:2|0:2,0:0:0:0:
366,29,213449,1,10,0:2:0:0:
488,145,213623,6,0,L|464:340,1,187.000005706787,6|0,3:2|0:0,0:0:0:0:
329,384,214147,1,10,0:2:0:0:
365,241,214321,1,2,0:2:0:0:
244,328,214495,2,0,L|121:317,1,93.5000028533936,0|0,3:2|0:0,0:0:0:0:
111,178,214844,2,0,L|204:186,1,93.5000028533936,8|0,0:2|0:0,0:0:0:0:
43,271,215193,6,0,P|-9:198|21:114,1,187.000005706787,0|8,3:2|0:2,0:0:0:0:
230,0,215891,2,0,P|224:46|219:92,1,93.5000028533936,2|0,3:2|0:0,0:0:0:0:
118,208,216240,2,0,P|113:161|107:115,1,93.5000028533936,10|0,0:2|0:0,0:0:0:0:
219,245,216588,6,0,P|128:241|69:309,1,187.000005706787,6|10,3:2|0:2,0:0:0:0:
237,348,217112,1,2,0:2:0:0:
311,181,217286,2,0,L|324:290,1,93.5000028533936,0|0,3:2|0:0,0:0:0:0:
205,132,217635,5,10,0:2:0:0:
378,65,217809,2,0,P|316:73|265:37,1,127.500004863739,10|0,0:2|0:0,0:0:0:0:
478,148,219379,6,0,L|390:166,1,76.4999976654053,6|0,3:2|0:0,0:0:0:0:
294,120,219728,1,10,0:2:0:0:
246,233,219902,2,0,L|271:386,1,152.999995330811,6|2,3:2|3:2,0:0:0:0:
332,268,220426,1,8,0:2:0:0:
183,338,220600,6,0,P|109:342|59:288,1,152.999995330811,6|2,3:2|3:2,0:0:0:0:
128,175,221123,1,8,0:2:0:0:
246,233,221298,2,0,P|311:225|428:214,1,152.999995330811,6|6,3:2|3:2,0:0:0:0:
497,151,221821,1,14,0:2:0:0:
322,10,222170,6,0,P|315:47|310:85,1,76.4999976654053,6|0,3:2|0:0,0:0:0:0:
258,194,222519,1,10,0:2:0:0:
143,120,222693,2,0,P|158:203|169:286,1,152.999995330811,6|2,3:2|3:2,0:0:0:0:
231,370,223216,1,8,0:2:0:0:
326,284,223391,6,0,P|364:274|455:349,1,152.999995330811,6|2,3:2|3:2,0:0:0:0:
365,365,223914,1,8,0:2:0:0:
416,244,224088,2,0,P|407:148|398:77,1,152.999995330811,6|6,3:2|3:2,0:0:0:0:
301,0,224612,2,0,P|305:37|308:76,1,76.4999976654053,14|2,0:2|0:2,0:0:0:0:
232,206,224961,6,0,P|194:211|160:196,1,76.4999976654053,6|0,3:2|0:0,0:0:0:0:
76,120,225309,1,10,0:2:0:0:
2,209,225484,2,0,L|34:361,1,152.999995330811,6|2,3:2|3:2,0:0:0:0:
93,247,226007,1,8,0:2:0:0:
208,346,226181,6,0,B|289:326|268:384|356:355,1,152.999995330811,6|2,3:2|3:2,0:0:0:0:
443,279,226705,1,8,0:2:0:0:
346,196,226879,2,0,P|270:206|194:219,1,152.999995330811,6|6,3:2|3:2,0:0:0:0:
115,333,227402,1,14,0:2:0:0:
4,149,227751,6,0,P|41:143|79:139,1,76.4999976654053,6|2,3:2|0:2,0:0:0:0:
147,10,228100,1,10,0:2:0:0:
262,107,228274,2,0,P|224:100|186:96,1,76.4999976654053,6|0,3:2|0:0,0:0:0:0:
288,12,228623,1,2,3:2:0:0:
186,96,228798,1,10,0:2:0:0:
357,89,228972,1,6,3:2:0:0:
357,89,229333,5,2,0:2:0:0:
332,176,229509,1,2,0:2:0:0:
307,263,229685,1,2,0:2:0:0:
419,154,229862,5,2,0:2:0:0:
245,198,230038,1,2,0:2:0:0:
394,241,230215,1,2,0:2:0:0:
270,111,230391,5,2,3:2:0:0:
117,333,230921,6,0,B|115:312|137:283|137:283|73:256|54:209|41:180|85:152|106:168|120:190|102:207,1,255.000009727478,6|0,3:2|0:0,0:0:0:0:
