osu file format v14

[General]
AudioFilename: audio.mp3
AudioLeadIn: 0
PreviewTime: 70855
Countdown: 0
SampleSet: Soft
StackLeniency: 0.7
Mode: 0
LetterboxInBreaks: 0
WidescreenStoryboard: 1

[Editor]
Bookmarks: 12849,24023,35186,46349,57512,65884,71291,93791,104954,116104,127279,135651,141058,163558,174721,185884,196872,219372,229140
DistanceSpacing: 0.8
BeatDivisor: 4
GridSize: 32
TimelineZoom: 1

[Metadata]
Title:Tobenai Mahoutsukai
TitleUnicode:飛べない魔法使い
Artist:yanaginagi
ArtistUnicode:やなぎなぎ
Creator:Shirahane Suou
Version:Insane
Source:しゅぷれ~むキャンディ ~王道には王道たる理由があるんです!~
Tags:supreme candy oudou ni wa oudoutaru riyuu ga arun desu 枕 makura japanese video game visual novel eroge opening pop rock ピクセルビー pixelbee shizuku- kazato asa shikibe mayu
BeatmapID:2764729
BeatmapSetID:1334557

[Difficulty]
HPDrainRate:5.3
CircleSize:4
OverallDifficulty:8
ApproachRate:9
SliderMultiplier:1.9
SliderTickRate:1

[Events]
//Background and Video events
0,0,"cute.jpg",0,0
//Break Periods
2,163545,172558
//Storyboard Layer 0 (Background)
//Storyboard Layer 1 (Fail)
//Storyboard Layer 2 (Pass)
//Storyboard Layer 3 (Foreground)
//Storyboard Layer 4 (Overlay)
//Storyboard Sound Samples

[TimingPoints]
1183,366.412213740458,4,2,1,60,1,0
12170,348.837209302326,4,2,1,40,1,0
12171,-333.333333333333,4,2,1,40,0,0
12868,348.837209302326,4,2,1,50,1,0
12868,-166.666666666667,4,2,1,50,0,0
22635,-111.111111111111,4,2,1,60,0,0
35193,-142.857142857143,4,2,1,40,0,0
45658,-100,4,2,1,50,0,0
46356,-111.111111111111,4,2,1,60,0,0
57519,-125,4,2,1,60,0,0
65891,-111.111111111111,4,2,1,60,0,0
70949,-250,4,2,1,50,0,0
71298,-90.9090909090909,4,2,1,70,0,1
92228,-133.333333333333,4,2,1,70,0,1
92315,-90.9090909090909,4,2,1,40,0,0
93798,-111.111111111111,4,2,1,60,0,0
104961,-125,4,2,1,50,0,0
115426,-100,4,2,1,60,0,0
116123,-111.111111111111,4,2,1,60,0,0
127286,-125,4,2,1,60,0,0
135658,-111.111111111111,4,2,1,60,0,0
140193,-166.666666666667,4,2,1,50,0,0
141065,-90.9090909090909,4,2,1,70,0,1
161995,-133.333333333333,4,2,1,70,0,1
162083,-100,4,2,1,40,0,0
173158,-111.111111111111,4,2,1,60,0,0
185891,-100,4,2,1,70,0,0
196879,-90.9090909090909,4,2,1,70,0,1
217809,-133.333333333333,4,2,1,70,0,1
217897,-133.333333333333,4,2,1,40,0,0
219379,-111.111111111111,4,2,1,60,0,0
229333,352.941176470588,4,2,1,60,1,0
230391,-100,4,2,1,60,0,0
230480,-100,4,2,1,5,0,0
230921,-133.333333333333,4,2,1,60,0,0
231009,-133.333333333333,4,2,1,5,0,0

[Colours]
Combo1 : 214,126,137
Combo2 : 138,170,196
Combo3 : 251,179,182
Combo4 : 136,164,210

[HitObjects]
356,77,12345,6,0,L|322:83,2,28.4999991302491,2|2|2,0:2|0:2|0:2,0:0:0:0:
380,58,12868,6,0,P|371:114|366:171,1,113.999996520996,2|2,3:2|3:2,0:0:0:0:
428,233,13392,1,2,0:2:0:0:
375,304,13566,2,0,P|346:307|318:312,1,56.9999982604981,0|0,3:2|0:0,0:0:0:0:
225,197,13915,1,2,3:2:0:0:
225,197,14089,6,0,P|253:200|281:205,1,56.9999982604981,2|0,0:2|3:2,0:0:0:0:
158,303,14438,2,0,P|186:298|214:294,1,56.9999982604981,2|0,0:2|3:2,0:0:0:0:
133,164,14787,2,0,P|137:192|141:220,1,56.9999982604981,2|0,0:2|3:2,0:0:0:0:
58,324,15136,1,2,0:2:0:0:
58,324,15310,2,0,P|61:295|66:267,1,56.9999982604981,2|0,3:2|0:0,0:0:0:0:
132,384,15659,6,0,P|181:352|237:365,1,113.999996520996,2|2,3:2|3:2,0:0:0:0:
316,384,16182,1,2,0:2:0:0:
310,301,16357,2,0,P|309:272|311:244,1,56.9999982604981,0|0,3:2|0:0,0:0:0:0:
223,210,16706,2,0,P|225:238|224:266,1,56.9999982604981,0|0,3:2|0:0,0:0:0:0:
287,161,17055,6,0,P|245:169|181:130,1,113.999996520996,0|0,3:2|3:3,0:0:0:0:
345,24,17752,2,0,P|353:51|358:79,1,56.9999982604981,2|0,3:2|0:0,0:0:0:0:
457,73,18101,2,0,P|448:100|443:128,1,56.9999982604981,2|0,3:2|0:0,0:0:0:0:
378,179,18450,6,0,P|433:173|480:204,1,113.999996520996,2|0,3:2|3:2,0:0:0:0:
423,317,18973,2,0,P|421:288|415:260,1,56.9999982604981,2|0,0:2|3:2,0:0:0:0:
505,366,19322,1,2,0:2:0:0:
505,366,19496,2,0,P|510:338|512:309,1,56.9999982604981,2|0,3:2|0:0,0:0:0:0:
330,301,19845,5,0,3:2:0:0:
330,301,20194,2,0,P|273:305|216:313,1,113.999996520996,2|0,3:2|3:2,0:0:0:0:
110,264,20717,2,0,P|116:291|120:319,1,56.9999982604981,2|0,0:2|3:2,0:0:0:0:
199,171,21066,1,2,0:2:0:0:
199,171,21241,6,0,P|192:198|188:226,1,56.9999982604981,2|0,3:2|0:0,0:0:0:0:
106,163,21589,1,0,3:2:0:0:
276,222,21763,2,0,P|282:245|290:293,1,56.9999982604981,4|2,0:2|3:2,0:2:0:0:
83,366,22113,1,4,0:3:0:0:
199,171,22287,1,8,0:2:0:0:
61,258,22462,1,4,0:3:0:0:
249,363,22635,6,0,P|290:375|336:360,1,85.4999973907472,6|0,3:2|0:0,0:0:0:0:
469,194,22985,1,10,0:2:0:0:
469,194,23071,1,8,0:2:0:0:
469,194,23158,1,0,3:2:0:0:
427,378,23333,1,2,3:2:0:0:
332,159,23507,1,0,3:0:0:0:
502,296,23681,1,10,0:2:0:0:
269,263,23857,1,8,0:2:0:0:
269,263,23944,1,8,0:2:0:0:
269,263,24031,6,0,P|216:256|169:275,1,85.4999973907472,6|0,3:2|0:0,0:0:0:0:
332,159,24380,1,10,0:2:0:0:
194,0,24555,2,0,P|211:83|224:168,1,170.999994781494,6|2,3:2|3:2,0:0:0:0:
304,17,25078,1,8,0:2:0:0:
124,109,25252,6,0,P|45:128|-25:66,1,170.999994781494,6|2,3:2|3:2,0:0:0:0:
157,233,25775,1,8,0:2:0:0:
29,384,25950,2,0,P|42:299|59:215,1,170.999994781494,6|6,3:2|3:2,0:0:0:0:
201,53,26473,2,0,P|218:91|215:133,1,85.4999973907472,14|0,0:2|0:0,0:0:0:0:
125,346,26822,6,0,P|163:329|205:332,1,85.4999973907472,6|0,3:2|0:0,0:0:0:0:
303,168,27170,1,10,0:2:0:0:
445,356,27345,2,0,B|346:339|346:339|336:298|353:270,1,170.999994781494,6|2,3:2|3:2,0:0:0:0:
195,161,27869,1,8,0:2:0:0:
333,0,28043,6,0,P|316:83|303:168,1,170.999994781494,6|2,3:2|3:2,0:0:0:0:
177,25,28566,1,8,0:2:0:0:
50,157,28740,2,0,P|99:123|200:168,1,170.999994781494,6|6,3:2|3:2,0:0:0:0:
198,349,29264,2,0,P|182:304|201:253,1,85.4999973907472,14|2,0:2|0:2,0:0:0:0:
352,257,29613,6,0,P|321:293|267:302,1,85.4999973907472,6|0,3:2|0:0,0:0:0:0:
101,237,29962,1,10,0:2:0:0:
218,84,30136,2,0,B|248:93|278:102|278:102|268:158|263:209,1,170.999994781494,6|2,3:2|3:2,0:0:0:0:
112,332,30659,1,8,0:2:0:0:
170,166,30834,6,0,P|186:249|199:334,1,170.999994781494,6|2,3:2|3:2,0:0:0:0:
278,191,31357,1,8,0:2:0:0:
448,288,31531,2,0,P|369:269|299:331,1,170.999994781494,6|6,3:2|3:2,0:0:0:0:
250,91,32055,2,0,P|292:97|334:105,1,85.4999973907472,14|0,0:2|0:0,0:0:0:0:
119,199,32403,5,6,3:2:0:0:
155,0,32578,1,2,0:2:0:0:
278,191,32752,1,10,0:2:0:0:
68,107,32927,2,0,P|17:154|36:266,1,170.999994781494,6|2,3:2|3:2,0:0:0:0:
183,111,33450,1,10,0:2:0:0:
236,300,33624,2,0,P|193:294|150:293,1,85.4999973907472,6|0,3:2|0:0,0:0:0:0:
298,172,33973,5,2,3:2:0:0:
351,382,34148,1,10,0:2:0:0:
186,201,34322,1,2,3:2:0:0:
430,125,34496,1,2,0:2:0:0:
331,285,34671,1,2,3:2:0:0:
246,47,34845,2,0,P|289:32|333:37,1,85.4999973907472,10|2,0:2|0:2,0:0:0:0:
186,201,35194,6,0,B|111:178|130:228|48:200,1,132.999995941162,2|2,3:2|3:2,0:0:0:0:
157,285,35717,1,2,0:2:0:0:
90,118,35892,1,0,3:2:0:0:
157,285,36241,2,0,P|161:317|165:351,1,66.4999979705811,0|2,3:2|0:2,0:0:0:0:
283,232,36589,6,0,P|273:303|265:375,1,132.999995941162,2|2,3:2|3:2,0:0:0:0:
374,261,37113,1,2,0:2:0:0:
416,383,37287,2,0,P|380:378|344:374,1,66.4999979705811,0|0,3:2|0:0,0:0:0:0:
474,241,37636,2,0,P|469:276|465:312,1,66.4999979705811,10|0,0:2|0:0,0:0:0:0:
358,129,37985,6,0,P|368:207|377:285,1,132.999995941162,2|0,3:2|3:2,0:0:0:0:
286,201,38508,1,2,0:2:0:0:
444,157,38682,2,0,P|478:85|456:32,1,132.999995941162,2|0,3:2|3:2,0:0:0:0:
385,96,39206,1,2,0:2:0:0:
341,22,39380,6,0,P|275:13|209:5,1,132.999995941162,2|2,3:2|3:2,0:0:0:0:
121,148,39903,1,2,0:2:0:0:
56,68,40078,2,0,P|93:62|134:58,1,66.4999979705811,0|0,3:2|0:0,0:0:0:0:
218,172,40427,2,0,P|214:138|209:106,1,66.4999979705811,8|2,0:2|0:2,0:0:0:0:
43,193,40775,6,0,P|106:186|150:233,1,132.999995941162,2|2,3:2|3:2,0:0:0:0:
74,278,41299,1,2,0:2:0:0:
218,172,41473,1,0,3:2:0:0:
74,278,41822,2,0,P|79:310|82:343,1,66.4999979705811,0|2,3:2|0:2,0:0:0:0:
245,259,42171,6,0,P|198:305|201:369,1,132.999995941162,2|2,3:2|3:2,0:0:0:0:
289,339,42694,1,2,0:2:0:0:
374,384,42869,2,0,P|377:350|382:318,1,66.4999979705811,0|0,3:2|0:0,0:0:0:0:
314,182,43217,2,0,P|319:214|321:247,1,66.4999979705811,10|2,0:2|0:2,0:0:0:0:
384,125,43566,6,0,P|321:140|266:106,1,132.999995941162,0|0,3:2|3:2,0:0:0:0:
42,224,44264,2,0,P|88:180|153:182,1,132.999995941162,0|0,3:2|3:2,0:0:0:0:
338,48,44962,5,8,0:2:0:0:
200,277,45136,1,12,0:2:0:0:
200,277,45485,1,0,3:2:0:0:
418,175,45659,2,0,L|357:164,1,47.5,12|0,0:2|0:0,0:0:0:0:
265,105,45834,1,0,3:2:0:0:
265,105,45921,1,0,3:2:0:0:
265,105,46008,2,0,L|276:166,1,47.5,8|0,0:2|3:2,0:0:0:0:
344,300,46182,1,2,3:2:0:0:
344,300,46270,1,0,3:2:0:0:
344,300,46357,6,0,P|302:258|196:281,1,170.999994781494,6|10,3:2|0:2,0:3:0:0:
17,200,46880,1,2,0:2:0:0:
87,346,47055,2,0,P|104:307|98:265,1,85.4999973907472,0|0,3:2|0:0,0:0:0:0:
64,112,47403,1,8,0:2:0:0:
9,297,47577,1,2,0:2:0:0:
154,182,47752,6,0,P|208:167|296:238,1,170.999994781494,2|10,3:2|0:2,0:0:0:0:
417,78,48275,1,2,0:2:0:0:
506,212,48449,2,0,P|463:205|421:201,1,85.4999973907472,0|0,3:2|0:0,0:0:0:0:
241,139,48798,2,0,P|283:132|325:128,1,85.4999973907472,10|0,0:2|0:0,0:0:0:0:
512,23,49147,6,0,P|505:66|501:108,1,85.4999973907472,2|0,3:2|0:0,0:0:0:0:
335,229,49496,1,8,0:2:0:0:
417,78,49671,1,2,0:2:0:0:
506,212,49845,2,0,P|463:205|421:201,1,85.4999973907472,2|0,3:2|0:0,0:0:0:0:
319,43,50193,1,8,0:2:0:0:
235,186,50368,1,2,0:2:0:0:
86,51,50543,6,0,P|165:31|229:83,1,170.999994781494,2|10,3:2|0:2,0:0:0:0:
51,135,51066,1,2,0:2:0:0:
151,209,51241,2,0,P|147:166|141:124,1,85.4999973907472,0|0,3:2|0:0,0:0:0:0:
0,48,51589,1,8,0:2:0:0:
54,232,51764,1,2,0:2:0:0:
230,83,51938,6,0,B|279:91|305:125|305:125|340:96|382:99,1,170.999994781494,2|10,3:2|0:2,0:0:0:0:
512,187,52462,1,2,0:2:0:0:
384,279,52636,2,0,P|370:239|378:198,1,85.4999973907472,0|0,3:2|0:0,0:0:0:0:
512,354,52984,2,0,P|470:346|430:360,1,85.4999973907472,10|0,0:2|0:0,0:0:0:0:
215,373,53333,6,0,P|272:314|257:233,1,170.999994781494,2|10,3:2|0:2,0:0:0:0:
167,108,53857,1,2,0:2:0:0:
44,235,54031,2,0,P|86:231|129:228,1,85.4999973907472,0|0,3:2|0:0,0:0:0:0:
263,140,54379,1,10,0:2:0:0:
188,294,54554,1,2,0:2:0:0:
81,143,54728,6,0,P|71:103|81:61,1,85.4999973907472,0|0,3:2|0:3,0:3:0:0:
263,140,55077,2,0,P|273:180|263:222,1,85.4999973907472,8|0,0:2|0:3,0:3:0:0:
219,45,55426,2,0,P|259:35|301:45,1,85.4999973907472,0|0,3:2|0:3,0:3:0:0:
303,305,55775,2,0,P|263:315|221:305,1,85.4999973907472,8|0,0:2|0:3,0:3:0:0:
416,155,56124,6,0,P|456:145|498:155,1,85.4999973907472,12|0,0:2|0:3,0:3:0:0:
406,332,56473,1,8,0:2:0:0:
263,222,56647,2,0,P|268:179|273:137,1,85.4999973907472,8|0,0:2|3:0,0:0:0:0:
409,0,56996,1,8,0:2:0:0:
416,155,57170,1,0,3:2:0:0:
277,36,57345,1,8,0:2:0:0:
505,58,57519,5,6,3:2:0:0:
352,238,57693,1,6,3:2:0:0:
352,238,58042,2,0,P|427:248|502:259,1,152,10|2,0:2|3:2,0:0:0:0:
327,132,58566,1,8,0:2:0:0:
230,332,58740,6,0,P|219:256|208:181,1,152,6|2,3:2|3:2,0:0:0:0:
131,38,59263,2,0,P|168:40|206:45,1,76,10|0,0:2|0:0,0:0:0:0:
397,0,59612,2,0,P|392:37|388:75,1,76,0|0,3:2|0:0,0:0:0:0:
410,265,59961,1,10,0:2:0:0:
303,152,60135,1,2,0:2:0:0:
476,115,60310,6,0,B|502:132|527:146|527:146|517:191|513:237,1,152,6|8,3:2|0:2,0:0:0:0:
404,372,60833,2,0,P|366:365|328:361,1,76,2|2,3:2|0:2,0:0:0:0:
193,271,61182,1,0,3:2:0:0:
293,189,61356,2,0,P|311:221|310:259,1,76,8|2,0:2|0:2,0:0:0:0:
153,368,61705,6,0,B|112:343|54:341|54:341|70:320|94:317,1,152,6|8,3:2|0:2,0:0:0:0:
185,198,62228,2,0,P|198:237|193:273,1,76,2|2,3:2|0:2,0:0:0:0:
70,161,62577,1,0,3:2:0:0:
249,105,62752,1,8,0:2:0:0:
249,105,63100,5,6,3:2:0:0:
94,317,63275,1,6,3:2:0:0:
94,317,63624,2,0,P|166:305|223:353,1,152,10|2,0:2|3:2,0:0:0:0:
378,240,64147,1,8,0:2:0:0:
306,384,64321,6,0,P|297:308|286:233,1,152,6|2,3:2|3:2,0:0:0:0:
391,87,64845,2,0,P|365:132|259:130,1,152,10|0,0:2|3:2,0:0:0:0:
82,94,65368,1,8,0:2:0:0:
198,0,65542,2,0,P|192:37|188:75,1,76,8|4,0:2|0:3,0:0:0:0:
53,217,65891,6,0,P|95:198|149:212,1,85.4999973907472,14|0,0:2|0:0,0:0:0:0:
67,10,66240,2,0,P|78:56|82:94,1,85.4999973907472,10|2,0:2|3:2,0:0:0:0:
221,242,66588,2,0,P|225:199|235:158,1,85.4999973907472,8|2,0:2|3:2,0:0:0:0:
69,324,66938,2,0,P|106:317|160:314,1,85.4999973907472,10|0,0:2|0:0,0:0:0:0:
405,231,67286,6,0,P|352:218|314:215,1,85.4999973907472,8|0,0:2|0:0,0:0:0:0:
413,112,67635,1,10,0:2:0:0:
458,306,67810,2,0,B|476:284|503:268|503:268|493:218|493:156,1,170.999994781494,0|0,3:2|3:2,0:0:0:0:
340,52,68333,2,0,P|315:99|320:136,1,85.4999973907472,10|2,0:2|0:2,0:0:0:0:
506,27,68682,6,0,P|459:19|421:14,1,85.4999973907472,4|0,3:2|0:0,0:0:0:0:
221,126,69031,1,8,0:2:0:0:
413,112,69205,1,8,0:2:0:0:
235,250,69379,1,8,0:2:0:0:
255,20,69554,1,8,0:2:0:0:
393,204,69728,1,0,3:2:0:0:
393,204,69903,1,0,3:2:0:0:
128,186,70077,5,12,0:2:0:0:
128,186,70426,1,8,0:2:0:0:
332,357,70600,1,8,0:2:0:0:
332,357,70949,6,0,L|323:303,1,38,2|2,0:2|0:2,0:0:0:0:
417,185,71298,6,0,B|302:168|338:247|219:227,1,209.000006378174,6|0,3:2|3:2,0:0:0:0:
50,90,71821,2,0,P|110:81|145:102,1,104.500003189087,8|0,0:2|0:0,0:0:0:0:
104,307,72170,2,0,P|97:259|85:200,1,104.500003189087,2|0,3:2|0:0,0:0:0:0:
191,384,72519,1,8,0:2:0:0:
0,278,72693,1,2,0:2:0:0:
209,178,72868,6,0,B|300:158|272:214|365:191,1,156.750004783631,2|0,3:2|0:0,0:0:0:0:
420,132,73216,2,0,B|377:103|377:103|320:110,1,104.500003189087,8|0,0:2|0:0,0:0:0:0:
416,319,73565,2,0,L|519:297,1,104.500003189087,2|0,3:2|0:0,0:0:0:0:
361,192,73914,1,8,0:2:0:0:
323,384,74088,1,2,0:2:0:0:
472,191,74263,6,0,L|447:33,1,156.750004783631,2|0,3:2|0:0,0:0:0:0:
354,47,74612,2,0,P|407:60|456:24,1,104.500003189087,10|0,0:2|0:0,0:0:0:0:
233,0,74961,2,0,P|222:46|211:110,1,104.500003189087,2|0,3:2|0:0,0:0:0:0:
245,346,75309,1,10,0:2:0:0:
472,191,75484,6,0,B|354:166|354:166|324:200|330:248,1,209.000006378174,2|2,0:2|0:2,0:0:0:0:
134,344,76007,1,10,0:2:0:0:
220,110,76181,1,2,0:2:0:0:
220,110,76269,1,2,0:2:0:0:
220,110,76356,2,0,L|238:226,1,104.500003189087,2|0,3:2|0:2,0:0:0:0:
357,384,76705,1,8,0:2:0:0:
377,138,76879,1,2,0:2:0:0:
220,299,77054,6,0,P|145:311|92:257,1,156.750004783631,2|0,3:2|0:0,0:0:0:0:
73,166,77402,2,0,P|103:211|88:264,1,104.500003189087,10|0,0:2|0:0,0:0:0:0:
3,86,77751,2,0,B|46:58|46:58|104:62,1,104.500003189087,2|0,3:2|0:0,0:0:0:0:
234,215,78100,1,10,0:2:0:0:
99,61,78274,1,2,0:2:0:0:
363,89,78449,6,0,L|202:102,1,156.750004783631,0|0,3:2|0:0,0:0:0:0:
136,159,78798,2,0,B|84:170|84:170|38:146,1,104.500003189087,10|0,0:2|0:0,0:0:0:0:
234,215,79147,2,0,P|241:261|247:332,1,104.500003189087,2|0,3:2|0:0,0:0:0:0:
425,174,79495,2,0,P|418:220|412:291,1,104.500003189087,10|0,0:2|0:0,0:0:0:0:
396,49,79844,6,0,B|457:15|505:56|505:56|454:80,1,156.750004783631,2|0,3:2|0:0,0:0:0:0:
380,62,80193,2,0,P|328:53|275:48,1,104.500003189087,8|0,0:2|0:0,0:0:0:0:
131,228,80542,2,0,P|182:219|235:214,1,104.500003189087,0|0,3:2|0:0,0:0:0:0:
81,87,80891,1,10,0:2:0:0:
234,214,81065,1,2,0:2:0:0:
31,301,81240,5,4,3:2:0:0:
172,117,81414,2,0,P|178:72|145:12,1,104.500003189087,8|0,0:2|0:0,0:0:0:0:
142,269,81763,2,0,P|208:323|277:316,1,156.750004783631,0|0,3:2|0:0,0:0:0:0:
311,291,82112,1,10,0:2:0:0:
84,185,82286,1,10,0:2:0:0:
287,0,82461,6,0,P|268:99|255:210,1,209.000006378174,6|0,3:2|3:2,0:0:0:0:
458,342,82984,2,0,P|450:290|440:239,1,104.500003189087,8|0,0:2|0:0,0:0:0:0:
196,312,83333,2,0,P|247:318|299:328,1,104.500003189087,2|0,3:2|0:0,0:0:0:0:
99,199,83681,1,8,0:2:0:0:
80,384,83856,1,2,0:2:0:0:
270,188,84030,6,0,B|296:139|253:75|253:75|236:115,1,156.750004783631,2|0,3:2|0:0,0:0:0:0:
256,206,84379,1,10,0:2:0:0:
331,14,84554,1,2,0:2:0:0:
112,85,84728,2,0,P|54:76|6:72,1,104.500003189087,0|0,3:2|0:0,0:0:0:0:
178,298,85077,1,8,0:2:0:0:
239,108,85251,1,2,0:2:0:0:
25,188,85426,6,0,B|-9:235|-9:235|18:338,1,156.750004783631,2|0,3:2|0:0,0:0:0:0:
81,384,85774,2,0,B|104:339|104:339|89:283,1,104.500003189087,10|0,0:2|0:0,0:0:0:0:
317,198,86123,2,0,P|299:256|291:302,1,104.500003189087,2|0,3:2|0:0,0:0:0:0:
141,103,86472,1,10,0:2:0:0:
291,299,86647,1,2,0:2:0:0:
387,77,86821,6,0,P|346:54|284:59,1,104.500003189087,0|0,3:2|0:0,0:0:0:0:
98,208,87170,2,0,P|149:198|203:193,1,104.500003189087,8|0,0:2|0:0,0:0:0:0:
417,353,87519,2,0,P|412:301|402:249,1,104.500003189087,8|0,0:2|0:0,0:0:0:0:
290,56,87868,1,10,0:2:0:0:
149,298,88042,6,0,P|50:306|-6:224,1,209.000006378174,6|0,3:2|3:0,0:0:0:0:
221,168,88565,1,10,0:2:0:0:
193,384,88740,1,2,0:2:0:0:
92,212,88914,2,0,P|96:164|104:107,1,104.500003189087,0|0,3:2|0:0,0:0:0:0:
324,253,89263,2,0,P|272:251|229:279,1,104.500003189087,8|0,0:2|0:0,0:0:0:0:
72,16,89612,6,0,P|131:20|178:28,1,104.500003189087,0|0,3:2|0:0,0:0:0:0:
403,123,89961,2,0,P|344:127|297:135,1,104.500003189087,8|0,0:2|0:0,0:0:0:0:
286,358,90309,1,2,3:2:0:0:
450,226,90484,1,0,0:0:0:0:
199,117,90658,2,0,P|217:187|230:275,1,156.750004783631,10|0,0:2|0:0,0:0:0:0:
182,337,91007,6,0,B|93:320|121:376|31:359,1,156.750004783631,6|0,3:2|0:0,0:0:0:0:
0,333,91356,1,10,0:2:0:0:
177,201,91530,1,2,0:2:0:0:
0,79,91705,2,0,L|25:209,1,104.500003189087,0|0,3:2|0:0,0:0:0:0:
206,354,92054,5,10,0:2:0:0:
190,67,92228,2,0,B|174:121|174:121|191:151|191:151|175:208,1,142.500005435944,10|0,0:2|0:0,0:0:0:0:
472,335,93275,6,0,L|477:375,2,34.8333343963623,0|0|0,3:2|3:2|3:2,0:0:0:0:
467,301,93449,1,8,0:2:0:0:
312,115,93798,6,0,P|321:156|330:198,1,85.4999973907472,6|0,3:2|0:0,0:0:0:0:
373,13,94147,1,10,0:2:0:0:
209,151,94321,2,0,P|127:167|61:117,1,170.999994781494,6|2,3:2|3:2,0:0:0:0:
258,254,94845,1,8,0:2:0:0:
117,384,95019,6,0,B|99:281|99:281|119:257|159:259,1,170.999994781494,6|2,3:2|3:2,0:0:0:0:
329,363,95542,1,8,0:2:0:0:
483,204,95717,2,0,P|417:153|335:167,1,170.999994781494,6|6,3:2|3:2,0:0:0:0:
162,68,96240,2,0,P|199:85|240:75,1,85.4999973907472,14|0,0:2|0:0,0:0:0:0:
55,194,96589,6,0,P|48:151|41:109,1,85.4999973907472,6|0,3:2|0:0,0:0:0:0:
179,235,96938,1,10,0:2:0:0:
0,316,97112,2,0,P|81:307|136:368,1,170.999994781494,6|2,3:2|3:2,0:0:0:0:
283,199,97635,1,8,0:2:0:0:
456,338,97810,6,0,B|387:324|387:324|355:344|355:344|283:330,1,170.999994781494,6|2,3:2|3:2,0:0:0:0:
155,213,98333,1,8,0:2:0:0:
334,91,98507,2,0,P|394:147|390:229,1,170.999994781494,6|6,3:2|3:2,0:0:0:0:
224,84,99031,2,0,P|227:41|233:0,1,85.4999973907472,14|2,0:2|0:2,0:0:0:0:
490,114,99379,6,0,P|495:156|499:198,1,85.4999973907472,6|0,3:2|0:0,0:0:0:0:
429,382,99728,1,10,0:2:0:0:
283,199,99903,2,0,B|269:311|269:311|292:335|321:332,1,170.999994781494,6|2,3:2|3:2,0:0:0:0:
375,141,100426,1,8,0:2:0:0:
184,253,100600,6,0,P|143:271|44:197,1,170.999994781494,6|2,3:2|3:2,0:0:0:0:
180,384,101124,1,8,0:2:0:0:
283,199,101298,2,0,P|272:114|259:29,1,170.999994781494,6|6,3:2|3:2,0:0:0:0:
49,101,101821,2,0,P|92:107|134:116,1,85.4999973907472,14|0,0:2|0:0,0:0:0:0:
248,325,102170,5,6,3:2:0:0:
47,209,102345,1,2,0:2:0:0:
235,123,102519,1,10,0:2:0:0:
139,323,102693,2,0,P|141:280|146:237,1,85.4999973907472,6|0,3:2|0:0,0:0:0:0:
340,134,103042,1,2,3:2:0:0:
248,325,103217,1,10,0:2:0:0:
134,116,103391,2,0,P|91:100|38:118,1,85.4999973907472,6|0,3:2|0:0,0:0:0:0:
139,323,103740,5,2,3:2:0:0:
235,123,103914,1,10,0:2:0:0:
341,354,104089,1,2,3:2:0:0:
416,145,104263,1,2,0:2:0:0:
231,233,104438,1,2,3:2:0:0:
457,364,104612,2,0,P|450:321|442:279,1,85.4999973907472,10|2,0:2|0:2,0:0:0:0:
330,65,104961,6,0,P|390:22|463:36,1,152,6|10,3:2|0:2,0:0:0:0:
320,166,105484,1,2,0:2:0:0:
237,12,105659,2,0,P|230:49|224:86,1,76,0|0,3:2|0:0,0:0:0:0:
89,114,106007,2,0,P|82:76|75:39,1,76,8|2,0:2|0:2,0:0:0:0:
133,196,106356,6,0,P|85:211|-1:153,1,152,2|10,3:2|0:2,0:0:0:0:
158,292,106879,1,2,0:2:0:0:
47,383,107054,2,0,P|51:345|58:307,1,76,0|0,3:2|0:0,0:0:0:0:
216,373,107403,2,0,P|178:377|140:384,1,76,10|0,0:2|0:0,0:0:0:0:
259,251,107752,6,0,P|314:298|386:281,1,152,2|8,3:2|0:2,0:0:0:0:
507,193,108275,1,2,0:2:0:0:
418,38,108449,2,0,P|411:114|405:190,1,152,2|8,3:2|0:2,0:0:0:0:
508,76,108973,1,2,0:2:0:0:
319,129,109147,6,0,P|243:122|167:116,1,152,2|10,3:2|0:2,0:0:0:0:
5,144,109670,1,2,0:2:0:0:
93,284,109845,2,0,P|135:230|80:190,1,152,0|8,3:2|0:2,0:0:0:0:
0,320,110368,1,2,0:2:0:0:
141,384,110542,6,0,P|216:377|292:371,1,152,2|10,3:2|0:2,0:0:0:0:
396,292,111066,1,2,0:2:0:0:
281,210,111240,2,0,P|293:246|301:283,1,76,0|0,3:2|0:0,0:0:0:0:
415,384,111589,2,0,P|451:371|488:363,1,76,8|2,0:2|0:2,0:0:0:0:
512,183,111938,6,0,P|436:173|360:168,1,152,2|10,3:2|0:2,0:0:0:0:
208,103,112461,1,2,0:2:0:0:
317,2,112635,2,0,P|312:40|308:78,1,76,0|0,3:2|0:0,0:0:0:0:
229,222,112984,1,10,0:2:0:0:
361,168,113159,1,2,0:2:0:0:
208,103,113333,6,0,P|170:107|132:112,1,76,0|0,3:2|0:0,0:0:0:0:
27,246,113682,2,0,P|65:241|97:259,1,76,8|0,0:2|0:0,0:0:0:0:
240,384,114031,2,0,P|237:347|232:309,1,76,0|0,3:2|0:0,0:0:0:0:
361,169,114379,2,0,P|380:202|375:239,1,76,8|0,0:2|0:0,0:0:0:0:
501,315,114728,5,8,0:2:0:0:
274,222,114903,1,12,0:2:0:0:
274,222,115252,1,0,3:2:0:0:
394,78,115426,2,0,L|384:26,1,47.5,12|0,0:2|0:0,0:0:0:0:
256,114,115600,1,0,3:2:0:0:
256,114,115688,1,0,3:2:0:0:
256,114,115775,2,0,L|308:124,1,47.5,8|0,0:2|3:2,0:0:0:0:
507,170,115949,1,2,3:2:0:0:
507,170,116036,1,0,3:2:0:0:
507,170,116123,6,0,P|425:169|383:239,1,170.999994781494,6|10,3:2|0:2,0:0:0:0:
192,224,116647,1,2,0:2:0:0:
275,384,116821,2,0,P|279:341|284:298,1,85.4999973907472,0|0,3:2|0:0,0:0:0:0:
204,115,117170,1,8,0:2:0:0:
383,239,117345,1,2,0:2:0:0:
171,335,117519,6,0,B|100:354|52:306|52:306|88:284,1,170.999994781494,2|10,3:2|0:2,0:0:0:0:
89,91,118042,1,2,0:2:0:0:
238,212,118216,2,0,P|196:220|156:209,1,85.4999973907472,0|0,3:2|0:0,0:0:0:0:
316,100,118566,2,0,P|359:102|402:106,1,85.4999973907472,10|0,0:2|0:0,0:0:0:0:
418,306,118914,6,0,P|375:308|332:312,1,85.4999973907472,2|0,3:2|0:0,0:0:0:0:
204,124,119262,1,8,0:2:0:0:
380,209,119437,1,2,0:2:0:0:
221,348,119611,2,0,P|224:305|229:262,1,85.4999973907472,2|0,3:2|0:0,0:0:0:0:
91,91,119961,1,8,0:2:0:0:
66,279,120135,1,2,0:2:0:0:
204,124,120310,6,0,P|270:74|351:92,1,170.999994781494,2|10,3:2|0:2,0:0:0:0:
497,171,120832,1,2,0:2:0:0:
371,294,121007,2,0,P|374:251|380:209,1,85.4999973907472,0|0,3:2|0:0,0:0:0:0:
453,68,121355,1,8,0:2:0:0:
285,162,121530,1,2,0:2:0:0:
481,341,121705,6,0,P|487:244|501:148,1,170.999994781494,2|10,3:2|0:2,0:0:0:0:
363,24,122228,1,2,0:2:0:0:
285,162,122402,2,0,P|243:170|203:156,1,85.4999973907472,0|0,3:2|0:3,0:3:0:0:
91,10,122752,2,0,P|132:1|172:15,1,85.4999973907472,10|0,0:2|0:3,0:3:0:0:
171,245,123100,6,0,P|119:201|137:97,1,170.999994781494,2|10,3:2|0:2,0:0:0:0:
270,256,123623,1,2,0:2:0:0:
118,374,123797,2,0,P|75:376|32:381,1,85.4999973907472,0|0,3:2|0:0,0:0:0:0:
171,245,124147,1,10,0:2:0:0:
232,384,124320,1,2,0:2:0:0:
76,286,124495,6,0,P|66:246|76:204,1,85.4999973907472,0|0,3:2|0:3,0:3:0:0:
208,84,124844,2,0,P|218:124|208:166,1,85.4999973907472,8|0,0:2|0:3,0:3:0:0:
35,123,125193,2,0,P|75:113|117:123,1,85.4999973907472,0|0,3:2|0:3,0:3:0:0:
253,245,125542,2,0,P|213:255|171:245,1,85.4999973907472,8|0,0:2|0:3,0:3:0:0:
171,0,125890,6,0,P|211:-10|253:0,1,85.4999973907472,12|0,0:2|0:3,0:3:0:0:
440,52,126239,1,8,0:2:0:0:
304,168,126413,2,0,P|309:125|314:83,1,85.4999973907472,8|0,0:2|3:2,0:0:0:0:
367,272,126762,1,8,0:2:0:0:
208,166,126936,1,0,3:2:0:0:
408,148,127111,1,8,0:2:0:0:
251,308,127285,5,6,3:2:0:0:
216,62,127461,1,6,3:2:0:0:
216,62,127809,2,0,P|146:84|86:41,1,152,10|2,0:2|3:2,0:0:0:0:
208,166,128333,1,8,0:2:0:0:
77,334,128507,6,0,P|86:258|99:183,1,152,6|2,3:2|3:2,0:0:0:0:
216,62,129030,2,0,P|253:56|287:70,1,76,10|0,0:2|0:0,0:0:0:0:
436,139,129379,2,0,P|398:142|360:148,1,76,0|0,3:2|0:0,0:0:0:0:
254,282,129728,1,10,0:2:0:0:
370,247,129903,1,2,0:2:0:0:
238,157,130077,6,0,P|191:140|106:205,1,152,6|8,3:2|0:2,0:0:0:0:
2,300,130600,2,0,P|39:303|77:310,1,76,2|2,3:2|0:2,0:0:0:0:
189,230,130949,1,0,3:2:0:0:
273,374,131124,2,0,P|235:377|197:384,1,76,8|2,0:2|0:2,0:0:0:0:
316,250,131473,6,0,P|387:267|443:220,1,152,6|8,3:2|0:2,0:0:0:0:
512,81,131996,2,0,P|474:85|436:92,1,76,2|2,3:2|0:2,0:0:0:0:
269,107,132345,1,0,3:2:0:0:
366,183,132519,2,0,P|361:145|354:107,1,76,8|0,0:2|0:0,0:0:0:0:
192,10,132868,5,6,3:2:0:0:
273,251,133042,1,6,3:2:0:0:
273,251,133391,2,0,P|215:205|142:218,1,152,10|2,0:2|3:2,0:0:0:0:
108,39,133914,1,8,0:2:0:0:
0,136,134089,6,0,P|75:129|151:124,1,152,6|2,3:2|3:2,0:0:0:0:
297,2,134612,2,0,P|245:53|259:125,1,152,10|0,0:2|3:2,0:0:0:0:
356,298,135135,1,8,0:2:0:0:
462,154,135310,2,0,P|424:155|386:159,1,76,8|2,0:2|3:2,0:0:0:0:
218,213,135659,6,0,P|255:214|304:220,1,85.4999973907472,14|0,0:2|0:0,0:0:0:0:
148,369,136007,2,0,P|159:326|127:269,1,85.4999973907472,10|2,0:2|3:2,0:0:0:0:
24,134,136356,2,0,P|13:177|42:231,1,85.4999973907472,8|2,0:2|3:2,0:0:0:0:
226,118,136705,2,0,P|188:119|130:128,1,85.4999973907472,10|0,0:2|0:0,0:0:0:0:
280,302,137054,6,0,P|314:297|371:297,1,85.4999973907472,8|0,0:2|0:0,0:0:0:0:
475,195,137403,1,10,0:2:0:0:
324,42,137577,2,0,P|349:122|369:217,1,170.999994781494,0|0,3:2|3:2,0:0:0:0:
512,106,138100,2,0,P|476:94|426:114,1,85.4999973907472,10|2,0:2|0:2,0:0:0:0:
179,200,138449,6,0,L|268:210,1,85.4999973907472,4|0,3:2|0:0,0:0:0:0:
457,363,138798,1,8,0:2:0:0:
367,207,138973,1,8,0:2:0:0:
347,384,139147,1,8,0:2:0:0:
494,232,139321,1,8,0:2:0:0:
305,292,139496,1,0,3:2:0:0:
305,292,139670,1,0,3:2:0:0:
330,89,139845,5,12,0:2:0:0:
330,89,140193,6,0,B|303:48|268:47|268:47|244:74|248:121|248:121|207:117|180:138,1,227.999993041992,2|2,0:2|0:2,0:0:0:0:
20,208,141065,6,0,B|138:181|113:256|222:224,1,209.000006378174,6|0,3:2|3:2,0:0:0:0:
478,164,141588,2,0,P|468:210|459:281,1,104.500003189087,8|0,0:2|0:0,0:0:0:0:
321,74,141937,2,0,P|331:120|340:191,1,104.500003189087,2|0,3:2|0:0,0:0:0:0:
154,341,142286,1,8,0:2:0:0:
207,120,142461,1,2,0:2:0:0:
387,316,142635,6,0,P|303:297|232:286,1,156.750004783631,2|0,3:2|0:0,0:0:0:0:
170,232,142984,2,0,B|212:201|212:201|269:207,1,104.500003189087,8|0,0:2|0:0,0:0:0:0:
66,384,143333,2,0,P|59:336|44:278,1,104.500003189087,2|0,3:2|0:0,0:0:0:0:
207,120,143681,1,8,0:2:0:0:
154,341,143856,1,2,0:2:0:0:
17,181,144030,6,0,L|39:14,1,156.750004783631,2|0,3:2|0:0,0:0:0:0:
130,2,144379,2,0,P|87:32|36:25,1,104.500003189087,10|0,0:2|0:0,0:0:0:0:
219,225,144728,2,0,P|172:217|112:214,1,104.500003189087,2|0,3:2|0:0,0:0:0:0:
291,79,145077,1,10,0:2:0:0:
381,320,145251,6,0,B|328:275|328:275|371:133,1,209.000006378174,2|2,0:2|0:2,0:0:0:0:
496,339,145774,1,10,0:2:0:0:
290,382,145949,1,2,0:2:0:0:
290,382,146036,1,2,0:2:0:0:
290,382,146123,2,0,L|173:360,1,104.500003189087,2|0,3:2|0:2,0:0:0:0:
27,158,146472,1,8,0:2:0:0:
237,237,146647,1,2,0:2:0:0:
37,384,146821,6,0,P|47:313|67:230,1,156.750004783631,2|0,3:2|0:0,0:0:0:0:
124,165,147170,2,0,B|153:208|153:208|141:264,1,104.500003189087,10|0,0:2|0:0,0:0:0:0:
0,69,147519,2,0,P|46:60|112:54,1,104.500003189087,2|0,3:2|0:0,0:0:0:0:
297,182,147868,1,10,0:2:0:0:
235,0,148042,1,2,0:2:0:0:
124,165,148216,6,0,L|97:353,1,156.750004783631,0|0,3:2|0:0,0:0:0:0:
191,354,148565,2,0,P|147:318|100:321,1,104.500003189087,10|0,0:2|0:0,0:0:0:0:
297,182,148914,2,0,P|292:134|282:78,1,104.500003189087,2|0,3:2|0:0,0:0:0:0:
492,258,149263,2,0,P|497:210|507:154,1,104.500003189087,10|0,0:2|0:0,0:0:0:0:
304,283,149612,6,0,B|364:262|406:312|406:312|365:324,1,156.750004783631,2|0,3:2|0:0,0:0:0:0:
283,299,149961,2,0,P|236:288|173:280,1,104.500003189087,8|0,0:2|0:0,0:0:0:0:
25,139,150309,2,0,P|72:128|135:120,1,104.500003189087,0|0,3:2|0:0,0:0:0:0:
272,14,150658,1,10,0:2:0:0:
127,120,150833,1,2,0:2:0:0:
359,206,151007,5,4,3:2:0:0:
164,384,151181,2,0,P|169:336|182:276,1,104.500003189087,8|0,0:2|0:0,0:0:0:0:
440,321,151530,2,0,P|385:298|303:348,1,156.750004783631,0|0,3:2|0:0,0:0:0:0:
294,373,151879,1,10,0:2:0:0:
512,219,152054,1,10,0:2:0:0:
322,0,152228,6,0,P|345:115|359:209,1,209.000006378174,6|0,3:2|3:2,0:0:0:0:
126,384,152751,2,0,P|133:337|147:275,1,104.500003189087,8|0,0:2|0:0,0:0:0:0:
20,79,153100,2,0,P|65:112|117:98,1,104.500003189087,2|0,3:2|0:0,0:0:0:0:
326,220,153449,1,8,0:2:0:0:
239,14,153623,1,2,0:2:0:0:
54,217,153798,6,0,L|212:187,1,156.750004783631,2|0,3:2|0:0,0:0:0:0:
241,161,154147,1,10,0:2:0:0:
119,334,154321,1,2,0:2:0:0:
106,110,154495,2,0,P|101:60|90:3,1,104.500003189087,0|0,3:2|0:0,0:0:0:0:
33,239,154844,1,8,0:2:0:0:
90,6,155019,1,2,0:2:0:0:
259,177,155193,6,0,B|319:206|372:171|372:171|326:151,1,156.750004783631,2|0,3:2|0:0,0:0:0:0:
241,161,155542,2,0,P|213:200|215:256,1,104.500003189087,10|0,0:2|0:0,0:0:0:0:
420,384,155891,2,0,P|414:336|403:278,1,104.500003189087,2|0,3:2|0:0,0:0:0:0:
277,74,156240,1,10,0:2:0:0:
486,201,156414,1,2,0:2:0:0:
244,366,156588,6,0,P|198:358|139:351,1,104.500003189087,0|0,3:2|0:0,0:0:0:0:
37,175,156937,2,0,P|5:221|16:277,1,104.500003189087,8|0,0:2|0:0,0:0:0:0:
165,108,157286,2,0,P|156:61|141:2,1,104.500003189087,8|0,0:2|0:0,0:0:0:0:
316,149,157635,1,10,0:2:0:0:
94,268,157809,6,0,P|185:258|259:344,1,209.000006378174,6|0,3:2|0:0,0:0:0:0:
467,177,158333,1,10,0:2:0:0:
377,377,158507,1,2,0:2:0:0:
316,149,158681,2,0,P|321:101|329:46,1,104.500003189087,0|0,3:2|0:0,0:0:0:0:
178,212,159030,2,0,P|173:164|165:109,1,104.500003189087,8|0,0:2|0:0,0:0:0:0:
378,246,159379,6,0,P|321:239|275:268,1,104.500003189087,0|0,3:2|0:0,0:0:0:0:
89,368,159728,2,0,P|146:375|189:344,1,104.500003189087,8|0,0:2|0:0,0:0:0:0:
165,108,160077,1,2,3:2:0:0:
0,250,160251,1,0,0:0:0:0:
60,35,160426,2,0,P|71:96|82:195,1,156.750004783631,10|0,0:2|0:0,0:0:0:0:
145,245,160774,6,0,B|238:222|210:278|299:256,1,156.750004783631,6|0,3:2|0:0,0:0:0:0:
336,241,161123,1,10,0:2:0:0:
165,108,161298,1,2,0:2:0:0:
355,14,161472,2,0,L|324:125,1,104.500003189087,0|0,3:2|0:0,0:0:0:0:
206,340,161821,5,10,0:2:0:0:
467,247,161995,2,0,B|420:217|420:217|336:241,1,142.500005435944,10|0,0:2|0:0,0:0:0:0:
0,140,173158,6,0,B|64:129|64:129|97:144|97:144|196:130,1,170.999994781494,4|0,3:2|0:0,0:0:0:0:
330,21,173681,1,8,0:2:0:0:
257,201,173856,1,0,3:2:0:0:
188,19,174030,1,0,3:2:0:0:
367,142,174205,1,14,0:2:0:0:
379,167,174292,1,8,0:2:0:0:
385,195,174379,1,10,0:2:0:0:
382,223,174466,1,8,0:2:0:0:
372,250,174553,1,10,0:2:0:0:
355,273,174641,1,8,0:2:0:0:
332,290,174728,6,0,P|247:299|163:309,1,170.999994781494,6|10,3:2|0:2,0:0:0:0:
0,178,175251,2,0,P|81:187|139:128,1,170.999994781494,2|0,0:2|0:0,0:0:0:0:
339,180,175774,1,10,0:2:0:0:
232,34,175949,1,2,0:2:0:0:
238,245,176123,6,0,P|248:286|254:329,1,85.4999973907472,0|2,3:2|0:2,0:0:0:0:
435,256,176472,1,8,0:2:0:0:
363,384,176647,1,2,0:2:0:0:
339,180,176821,2,0,P|344:137|354:96,1,85.4999973907472,0|0,3:2|0:0,0:0:0:0:
176,41,177170,2,0,P|206:70|211:111,1,85.4999973907472,10|0,0:2|0:0,0:0:0:0:
60,224,177519,6,0,B|149:204|127:270|224:248,1,170.999994781494,2|10,3:2|0:2,0:0:0:0:
415,290,178042,2,0,P|335:281|296:353,1,170.999994781494,2|0,0:2|0:0,0:0:0:0:
119,384,178565,2,0,P|126:341|134:299,1,85.4999973907472,8|0,0:2|0:0,0:0:0:0:
253,140,178914,6,0,P|172:151|126:84,2,170.999994781494,0|8|0,3:2|0:2|3:2,0:0:0:0:
397,8,179786,1,2,0:2:0:0:
348,200,179961,1,10,0:2:0:0:
253,36,180135,1,2,0:2:0:0:
437,114,180309,6,0,B|482:158|482:158|453:265,1,170.999994781494,2|10,3:2|0:2,0:0:0:0:
303,359,180833,2,0,L|124:336,1,170.999994781494,2|0,0:2|0:0,0:0:0:0:
8,189,181356,1,10,0:2:0:0:
173,238,181530,1,2,0:2:0:0:
31,372,181705,6,0,P|36:329|44:287,1,85.4999973907472,0|2,3:2|0:2,0:0:0:0:
128,124,182054,1,8,0:2:0:0:
44,287,182228,1,2,0:2:0:0:
258,249,182402,2,0,L|170:237,1,85.4999973907472,0|0,3:2|0:0,0:0:0:0:
74,30,182751,2,0,L|158:18,1,85.4999973907472,8|0,0:2|0:0,0:0:0:0:
360,87,183100,6,0,P|312:80|251:130,1,128.249996086121,2|0,3:2|0:0,0:0:0:0:
244,165,183449,2,0,L|259:254,1,85.4999973907472,8|0,0:2|0:0,0:0:0:0:
402,378,183798,2,0,L|425:242,1,128.249996086121,2|0,3:2|0:0,0:0:0:0:
427,214,184147,2,0,P|388:192|338:201,1,85.4999973907472,8|0,0:2|0:0,0:0:0:0:
197,342,184495,6,0,B|155:328|104:318|104:318|130:300,1,128.249996086121,2|0,3:2|0:0,0:0:0:0:
154,272,184844,2,0,P|148:229|140:187,1,85.4999973907472,8|0,0:2|0:0,0:0:0:0:
266,42,185193,2,0,P|258:84|252:126,1,85.4999973907472,2|0,3:2|0:0,0:0:0:0:
57,237,185542,1,10,0:2:0:0:
149,78,185716,1,2,0:2:0:0:
258,249,185891,6,0,P|327:242|402:241,1,142.5,4|0,3:2|0:0,0:0:0:0:
440,249,186240,2,0,P|438:207|430:152,1,95,8|0,0:2|0:0,0:0:0:0:
286,41,186588,2,0,P|279:87|276:135,1,95,0|0,3:2|0:0,0:0:0:0:
146,254,186937,1,10,0:2:0:0:
149,78,187112,1,2,0:2:0:0:
258,249,187286,6,0,P|250:291|242:347,1,95,0|0,3:2|0:0,0:0:0:0:
55,384,187635,2,0,P|69:321|50:289,1,95,8|0,0:2|0:0,0:0:0:0:
8,140,187984,2,0,B|114:112|79:195|188:158,1,190,2|10,3:2|0:2,0:0:0:0:
300,42,188507,1,2,0:2:0:0:
417,225,188681,6,0,P|349:236|301:186,1,142.5,0|0,3:2|0:0,0:0:0:0:
282,156,189030,2,0,P|324:148|379:143,1,95,8|0,0:2|0:0,0:0:0:0:
468,319,189379,2,0,P|420:323|374:331,1,95,0|0,3:2|0:0,0:0:0:0:
209,384,189728,2,0,P|229:346|221:295,1,95,8|0,0:2|0:0,0:0:0:0:
89,161,190077,5,2,3:2:0:0:
140,332,190251,1,2,0:2:0:0:
304,254,190426,2,0,P|212:206|140:250,1,190,10|0,0:2|3:2,0:0:0:0:
0,142,190949,1,2,0:2:0:0:
118,2,191123,1,10,0:2:0:0:
144,20,191210,1,0,3:2:0:0:
161,47,191297,1,2,3:2:0:0:
167,78,191384,1,0,3:2:0:0:
164,114,191472,6,0,P|227:103|307:97,1,142.5,4|0,3:2|0:0,0:0:0:0:
341,87,191821,2,0,P|330:128|322:184,1,95,8|0,0:2|0:0,0:0:0:0:
203,322,192170,2,0,P|196:274|184:229,1,95,0|0,3:2|0:0,0:0:0:0:
62,121,192518,1,10,0:2:0:0:
114,282,192693,1,2,0:2:0:0:
237,150,192868,6,0,P|198:131|126:151,1,95,0|0,3:2|0:0,0:0:0:0:
293,277,193216,2,0,P|339:283|382:263,1,95,8|0,0:2|0:0,0:0:0:0:
512,120,193565,2,0,B|405:92|439:174|331:138,1,190,0|10,3:2|0:2,0:0:0:0:
376,63,194088,1,2,0:2:0:0:
488,202,194262,6,0,P|478:265|469:343,1,142.5,0|0,3:2|0:0,0:0:0:0:
463,384,194612,2,0,P|420:367|362:378,1,95,8|0,0:2|0:0,0:0:0:0:
256,261,194960,2,0,P|298:254|350:249,1,95,0|0,3:2|0:0,0:0:0:0:
281,76,195309,2,0,P|252:114|255:160,1,95,8|0,0:2|0:0,0:0:0:0:
439,154,195658,6,0,P|396:147|344:143,1,95,4|0,3:2|0:0,0:0:0:0:
169,39,196007,1,8,0:2:0:0:
344,143,196181,1,8,0:2:0:0:
166,228,196356,1,8,0:2:0:0:
325,376,196530,1,10,0:2:0:0:
355,368,196617,1,8,0:2:0:0:
379,347,196704,1,10,0:2:0:0:
390,317,196791,1,8,0:2:0:0:
386,286,196879,6,0,B|338:244|274:250|274:250|265:294|224:320,1,209.000006378174,6|0,3:2|3:2,0:0:0:0:
104,136,197402,2,0,P|150:114|210:128,1,104.500003189087,8|0,0:2|0:0,0:0:0:0:
67,355,197751,2,0,P|59:308|46:251,1,104.500003189087,2|0,3:2|0:0,0:0:0:0:
96,17,198100,1,8,0:2:0:0:
46,252,198274,1,2,0:2:0:0:
285,149,198449,6,0,P|367:160|440:174,1,156.750004783631,2|0,3:2|0:0,0:0:0:0:
501,235,198798,2,0,B|457:263|457:263|393:248,1,104.500003189087,8|0,0:2|0:0,0:0:0:0:
317,50,199147,2,0,P|368:56|420:66,1,104.500003189087,2|0,3:2|0:0,0:0:0:0:
184,214,199495,1,8,0:2:0:0:
190,0,199670,1,2,0:2:0:0:
308,174,199844,6,0,P|293:243|279:328,1,156.750004783631,2|0,3:2|0:0,0:0:0:0:
372,354,200193,2,0,P|330:323|279:327,1,104.500003189087,10|0,0:2|0:0,0:0:0:0:
82,235,200542,2,0,P|137:222|184:214,1,104.500003189087,2|0,3:2|0:0,0:0:0:0:
287,12,200891,1,10,0:2:0:0:
485,126,201065,6,0,B|369:96|397:181|284:148,1,209.000006378174,2|2,0:2|0:2,0:0:0:0:
512,263,201588,1,10,0:2:0:0:
340,384,201763,1,2,0:2:0:0:
340,384,201850,1,2,0:2:0:0:
340,384,201937,2,0,L|356:280,1,104.500003189087,2|0,3:2|0:2,0:0:0:0:
169,115,202286,1,8,0:2:0:0:
216,334,202461,1,2,0:2:0:0:
405,168,202635,6,0,P|337:151|264:196,1,156.750004783631,6|0,3:2|0:0,0:0:0:0:
178,219,202984,2,0,P|242:220|270:181,1,104.500003189087,10|0,0:2|0:0,0:0:0:0:
82,42,203333,2,0,P|69:96|59:151,1,104.500003189087,2|0,3:2|0:0,0:0:0:0:
156,348,203681,1,10,0:2:0:0:
60,144,203856,1,2,0:2:0:0:
238,302,204030,6,0,P|311:323|379:288,1,156.750004783631,0|0,3:2|0:0,0:0:0:0:
401,250,204379,2,0,P|393:203|376:144,1,104.500003189087,10|0,0:2|0:0,0:0:0:0:
225,0,204728,2,0,P|210:50|201:101,1,104.500003189087,2|0,3:2|0:0,0:0:0:0:
57,273,205077,2,0,P|107:240|153:241,1,104.500003189087,10|0,0:2|0:0,0:0:0:0:
326,384,205426,6,0,B|284:349|284:349|309:241,1,156.750004783631,2|0,3:2|0:0,0:0:0:0:
359,181,205774,2,0,B|391:223|391:223|382:281,1,104.500003189087,8|0,0:2|0:0,0:0:0:0:
202,102,206123,2,0,P|212:46|223:0,1,104.500003189087,0|0,3:2|0:0,0:0:0:0:
154,244,206472,1,10,0:2:0:0:
314,79,206647,1,2,0:2:0:0:
106,76,206821,5,4,3:2:0:0:
307,249,206995,2,0,P|363:235|410:228,1,104.500003189087,8|0,0:2|0:0,0:0:0:0:
193,384,207344,2,0,P|226:319|196:246,1,156.750004783631,0|0,3:2|0:0,0:0:0:0:
154,244,207693,1,10,0:2:0:0:
338,373,207868,1,10,0:2:0:0:
421,96,208042,6,0,P|327:109|210:131,1,209.000006378174,6|0,3:2|3:2,0:0:0:0:
119,367,208565,2,0,P|166:373|224:384,1,104.500003189087,8|0,0:2|0:0,0:0:0:0:
98,189,208914,2,0,P|43:177|-1:195,1,104.500003189087,2|0,3:2|0:0,0:0:0:0:
199,269,209263,1,8,0:2:0:0:
0,194,209437,1,2,0:2:0:0:
184,0,209612,6,0,P|196:75|204:156,1,156.750004783631,2|0,3:2|0:0,0:0:0:0:
300,170,209961,2,0,P|247:145|190:166,1,104.500003189087,8|0,0:2|0:0,0:0:0:0:
411,317,210309,2,0,P|457:307|519:299,1,104.500003189087,2|0,3:2|0:0,0:0:0:0:
381,112,210658,1,8,0:2:0:0:
284,314,210833,1,2,0:2:0:0:
471,164,211007,6,0,P|495:99|453:24,1,156.750004783631,2|0,3:2|0:0,0:0:0:0:
368,0,211356,2,0,P|404:33|465:19,1,104.500003189087,10|0,0:2|0:0,0:0:0:0:
252,123,211705,2,0,P|243:76|229:19,1,104.500003189087,2|0,3:2|0:0,0:0:0:0:
217,250,212054,1,10,0:2:0:0:
381,112,212228,1,2,0:2:0:0:
132,87,212402,6,0,P|84:92|24:104,1,104.500003189087,0|0,3:2|0:0,0:0:0:0:
217,250,212751,1,8,0:2:0:0:
40,365,212926,1,2,0:2:0:0:
40,365,213013,1,2,0:2:0:0:
40,365,213100,2,0,P|47:318|58:258,1,104.500003189087,10|2,0:2|0:2,0:0:0:0:
212,137,213449,1,10,0:2:0:0:
337,353,213623,6,0,B|208:322|208:322|190:278|223:244,1,209.000006378174,6|0,3:2|0:0,0:0:0:0:
298,40,214147,1,10,0:2:0:0:
375,248,214321,1,2,0:2:0:0:
212,137,214495,2,0,P|258:133|310:171,1,104.500003189087,0|0,3:2|0:0,0:0:0:0:
101,306,214844,2,0,P|95:258|83:200,1,104.500003189087,8|0,0:2|0:0,0:0:0:0:
224,384,215193,6,0,P|230:336|242:278,1,104.500003189087,0|0,3:2|0:0,0:0:0:0:
441,361,215542,2,0,P|382:352|328:392,1,104.500003189087,8|0,0:2|0:0,0:0:0:0:
489,169,215891,2,0,P|496:215|502:278,1,104.500003189087,2|0,3:2|0:0,0:0:0:0:
306,121,216240,2,0,B|277:69|325:12|325:12|337:48,1,156.750004783631,10|0,0:2|0:0,0:0:0:0:
302,140,216588,6,0,B|210:119|240:178|151:158,1,156.750004783631,6|0,3:2|0:0,0:0:0:0:
122,134,216937,1,10,0:2:0:0:
336,239,217112,1,2,0:2:0:0:
154,368,217286,2,0,L|175:248,1,104.500003189087,0|0,3:2|0:0,0:0:0:0:
214,42,217635,5,10,0:2:0:0:
469,140,217809,2,0,B|411:133|411:133|384:148|384:148|330:142,1,142.500005435944,10|0,0:2|0:0,0:0:0:0:
300,351,219379,6,0,P|342:343|384:336,1,85.4999973907472,6|0,3:2|0:0,0:0:0:0:
200,240,219728,1,10,0:2:0:0:
340,49,219902,2,0,P|325:133|312:217,1,170.999994781494,6|2,3:2|3:2,0:0:0:0:
184,359,220426,1,8,0:2:0:0:
104,205,220600,6,0,P|154:139|236:140,1,170.999994781494,6|2,3:2|3:2,0:0:0:0:
101,316,221123,1,8,0:2:0:0:
0,196,221298,2,0,P|10:112|21:27,1,170.999994781494,6|6,3:2|3:2,0:0:0:0:
209,44,221821,2,0,P|166:49|124:54,1,85.4999973907472,14|0,0:2|0:0,0:0:0:0:
200,240,222170,6,0,P|242:234|284:229,1,85.4999973907472,6|0,3:2|0:0,0:0:0:0:
465,165,222519,1,10,0:2:0:0:
374,0,222693,2,0,B|350:19|326:37|326:37|340:79|359:142,1,170.999994781494,6|2,3:2|3:2,0:0:0:0:
438,72,223216,1,8,0:2:0:0:
253,128,223391,6,0,P|168:118|82:113,1,170.999994781494,6|2,3:2|3:2,0:0:0:0:
217,34,223914,1,8,0:2:0:0:
119,210,224088,2,0,B|94:277|150:326|150:326|170:289,1,170.999994781494,6|6,3:2|3:2,0:0:0:0:
340,220,224612,2,0,P|297:218|261:239,1,85.4999973907472,14|2,0:2|0:2,0:0:0:0:
444,376,224961,6,0,P|447:333|453:291,1,85.4999973907472,6|0,3:2|0:0,0:0:0:0:
399,104,225309,1,10,0:2:0:0:
261,238,225484,2,0,P|208:258|115:184,1,170.999994781494,6|2,3:2|3:2,0:0:0:0:
297,119,226007,1,8,0:2:0:0:
344,334,226181,6,0,B|250:308|274:373|178:341,1,170.999994781494,6|2,3:2|3:2,0:0:0:0:
29,236,226705,1,8,0:2:0:0:
191,89,226879,2,0,P|208:172|222:257,1,170.999994781494,6|6,3:2|3:2,0:0:0:0:
84,384,227402,2,0,P|90:341|99:299,1,85.4999973907472,14|0,0:2|0:0,0:0:0:0:
94,119,227751,5,6,3:2:0:0:
179,341,227926,1,2,0:2:0:0:
29,236,228100,1,10,0:2:0:0:
236,169,228274,2,0,P|278:171|321:176,1,85.4999973907472,6|0,3:2|0:0,0:0:0:0:
465,357,228623,1,2,3:2:0:0:
299,271,228798,1,10,0:2:0:0:
407,108,228972,2,0,P|428:144|426:186,1,85.4999973907472,6|0,3:2|0:0,0:0:0:0:
239,338,229333,5,2,0:2:0:0:
211,253,229509,1,2,0:2:0:0:
299,271,229685,1,2,0:2:0:0:
150,318,229862,5,2,0:2:0:0:
272,188,230038,1,2,0:2:0:0:
325,356,230215,1,2,0:2:0:0:
124,233,230391,6,0,L|115:165,1,47.5,2|0,3:2|0:0,0:0:0:0:
318,85,230921,6,0,B|216:120|223:36|117:83|117:83|163:89|187:113,1,285.000010871888,6|0,3:2|0:0,0:0:0:0:
