osu file format v14

[General]
AudioFilename: audio.mp3
AudioLeadIn: 0
PreviewTime: 70855
Countdown: 0
SampleSet: Soft
StackLeniency: 0.7
Mode: 0
LetterboxInBreaks: 0
WidescreenStoryboard: 1

[Editor]
Bookmarks: 12849,24023,35186,46349,57512,65884,71291,93791,104954,116104,127279,135651,141058,163545,174721,185884,196872,219372,229140
DistanceSpacing: 0.8
BeatDivisor: 4
GridSize: 16
TimelineZoom: 1

[Metadata]
Title:Tobenai Mahoutsukai
TitleUnicode:飛べない魔法使い
Artist:yanaginagi
ArtistUnicode:やなぎなぎ
Creator:Shirahane Suou
Version:Hard
Source:しゅぷれ~むキャンディ ~王道には王道たる理由があるんです!~
Tags:supreme candy oudou ni wa oudoutaru riyuu ga arun desu 枕 makura japanese video game visual novel eroge opening pop rock ピクセルビー pixelbee shizuku- kazato asa shikibe mayu
BeatmapID:2764728
BeatmapSetID:1334557

[Difficulty]
HPDrainRate:4
CircleSize:3.5
OverallDifficulty:6
ApproachRate:7.5
SliderMultiplier:1.4
SliderTickRate:1

[Events]
//Background and Video events
0,0,"cute.jpg",0,0
//Break Periods
2,163545,172238
//Storyboard Layer 0 (Background)
//Storyboard Layer 1 (Fail)
//Storyboard Layer 2 (Pass)
//Storyboard Layer 3 (Foreground)
//Storyboard Layer 4 (Overlay)
//Storyboard Sound Samples

[TimingPoints]
1183,366.412213740458,4,2,1,60,1,0
12170,348.837209302326,4,2,1,40,1,0
12171,-133.333333333333,4,2,1,40,0,0
12868,348.837209302326,4,2,1,50,1,0
12868,-133.333333333333,4,2,1,50,0,0
22635,-133.333333333333,4,2,1,60,0,0
24030,-111.111111111111,4,2,1,60,0,0
35193,-133.333333333333,4,2,1,40,0,0
45658,-111.111111111111,4,2,1,50,0,0
46356,-111.111111111111,4,2,1,60,0,0
70949,-111.111111111111,4,2,1,50,0,0
71298,-100,4,2,1,70,0,1
92315,-100,4,2,1,40,0,0
93798,-111.111111111111,4,2,1,60,0,0
104961,-111.111111111111,4,2,1,50,0,0
115426,-111.111111111111,4,2,1,60,0,0
140193,-111.111111111111,4,2,1,50,0,0
141065,-100,4,2,1,70,0,1
162083,-111.111111111111,4,2,1,40,0,0
173158,-111.111111111111,4,2,1,60,0,0
185891,-100,4,2,1,70,0,0
196879,-100,4,2,1,70,0,1
217897,-100,4,2,1,40,0,0
219379,-111.111111111111,4,2,1,60,0,0
229333,352.941176470588,4,2,1,60,1,0
229333,-133.333333333333,4,2,1,60,0,0
229862,-111.111111111111,4,2,1,60,0,0
230921,-133.333333333333,4,2,1,60,0,0
231009,-133.333333333333,4,2,1,5,0,0

[Colours]
Combo1 : 214,126,137
Combo2 : 138,170,196
Combo3 : 251,179,182
Combo4 : 136,164,210

[HitObjects]
111,75,12344,6,0,L|98:17,2,52.5000020027161,2|2|2,0:2|0:2|0:2,0:0:0:0:
180,121,12868,6,0,L|165:238,1,105.000004005432,2|2,3:2|3:2,0:0:0:0:
266,302,13565,2,0,L|279:197,1,105.000004005432,0|2,3:2|3:2,0:0:0:0:
296,72,14263,2,0,P|325:60|407:77,1,105.000004005432,0|0,3:2|3:2,0:0:0:0:
506,131,14961,1,0,3:2:0:0:
420,223,15309,1,2,3:2:0:0:
499,321,15658,6,0,L|379:336,1,105.000004005432,2|2,3:2|3:2,0:0:0:0:
321,373,16181,1,2,0:2:0:0:
321,373,16356,2,0,L|200:358,1,105.000004005432,0|0,3:2|3:2,0:0:0:0:
104,301,17054,2,0,L|123:187,1,105.000004005432,0|0,3:2|3:2,0:0:0:0:
197,97,17751,1,2,3:2:0:0:
280,191,18100,1,2,3:2:0:0:
363,96,18449,6,0,P|394:81|474:109,1,105.000004005432,2|0,3:2|3:2,0:0:0:0:
512,171,18972,1,2,0:2:0:0:
512,171,19147,2,0,L|512:285,1,105.000004005432,0|2,3:2|3:2,0:0:0:0:
438,378,19844,1,0,3:2:0:0:
344,293,20193,2,0,L|344:188,1,105.000004005432,2|0,3:2|3:2,0:0:0:0:
264,89,20891,1,0,3:2:0:0:
186,188,21240,6,0,P|155:203|83:184,1,105.000004005432,2|0,3:2|3:2,0:0:0:0:
25,134,21763,1,4,0:2:0:0:
25,134,21937,2,0,L|25:67,1,52.5000020027161,2|4,3:2|0:3,0:0:0:0:
83,18,22286,2,0,L|150:17,1,52.5000020027161,8|4,0:2|0:3,0:0:0:0:
209,65,22635,6,0,L|276:64,1,52.5000020027161,6|0,3:2|0:0,0:0:0:0:
339,31,22984,2,0,L|339:-4,2,26.2500010013581,10|8|0,0:2|0:2|3:2,0:0:0:0:
395,95,23333,2,0,L|395:154,1,52.5000020027161,2|0,3:2|3:0,0:0:0:0:
335,210,23681,2,0,L|335:269,1,52.5000020027161,10|8,0:2|0:2,0:0:0:0:
277,321,24030,6,0,P|236:289|152:318,1,125.999996154785,6|10,3:2|0:2,0:0:0:0:
89,330,24554,2,0,P|82:267|71:205,1,125.999996154785,6|2,3:2|3:2,0:0:0:0:
24,144,25077,1,8,0:2:0:0:
24,144,25251,6,0,P|78:172|137:155,1,125.999996154785,6|2,3:2|3:2,0:0:0:0:
209,114,25774,1,8,0:2:0:0:
209,114,25949,2,0,P|219:176|226:238,1,125.999996154785,6|6,3:2|3:2,0:0:0:0:
206,318,26472,1,14,0:2:0:0:
357,380,26821,6,0,P|392:330|375:271,1,125.999996154785,6|10,3:2|0:2,0:0:0:0:
325,206,27344,2,0,P|331:143|342:81,1,125.999996154785,6|2,3:2|3:2,0:0:0:0:
405,27,27868,1,8,0:2:0:0:
405,27,28042,6,0,P|346:44|296:8,1,125.999996154785,6|2,3:2|3:2,0:0:0:0:
235,63,28565,1,8,0:2:0:0:
235,63,28740,2,0,P|172:69|110:80,1,125.999996154785,6|6,3:2|3:2,0:0:0:0:
37,42,29263,1,14,0:2:0:0:
1,201,29612,6,0,P|59:183|109:219,1,125.999996154785,6|10,3:2|0:2,0:0:0:0:
171,165,30135,2,0,P|160:227|153:289,1,125.999996154785,6|2,3:2|3:2,0:0:0:0:
208,357,30658,1,8,0:2:0:0:
208,357,30833,6,0,P|243:372|317:315,1,125.999996154785,6|2,3:2|3:2,0:0:0:0:
335,254,31356,1,8,0:2:0:0:
335,254,31530,2,0,P|273:243|211:236,1,125.999996154785,6|6,3:2|3:2,0:0:0:0:
141,189,32054,1,14,0:2:0:0:
234,55,32402,6,0,L|299:55,1,62.9999980773926,6|2,3:2|0:2,0:0:0:0:
341,132,32751,1,10,0:2:0:0:
341,132,32926,2,0,P|388:152|465:122,1,125.999996154785,6|2,3:2|3:2,0:0:0:0:
511,198,33449,1,10,0:2:0:0:
511,198,33623,2,0,L|511:277,1,62.9999980773926,6|0,3:2|0:0,0:0:0:0:
462,331,33972,5,2,3:2:0:0:
401,273,34147,2,0,P|364:264|328:278,1,62.9999980773926,10|2,0:2|3:2,0:0:0:0:
286,331,34495,1,2,0:2:0:0:
286,331,34670,1,2,3:2:0:0:
231,270,34844,2,0,L|231:194,1,62.9999980773926,10|2,0:2|0:2,0:0:0:0:
282,106,35193,6,0,P|245:122|179:102,1,105.000004005432,2|2,3:2|3:2,0:0:0:0:
49,95,35891,2,0,L|49:205,1,105.000004005432,0|0,3:2|3:2,0:0:0:0:
1,328,36588,2,0,P|49:311|98:327,1,105.000004005432,2|2,3:2|3:2,0:0:0:0:
176,373,37112,1,2,0:2:0:0:
176,373,37286,2,0,L|242:373,1,52.5000020027161,0|0,3:2|0:0,0:0:0:0:
299,325,37635,1,10,0:2:0:0:
422,383,37984,6,0,P|402:350|427:276,1,105.000004005432,2|0,3:2|3:2,0:0:0:0:
504,184,38681,2,0,L|504:69,1,105.000004005432,2|0,3:2|3:2,0:0:0:0:
473,0,39205,1,2,0:2:0:0:
473,0,39379,2,0,P|434:19|361:-7,1,105.000004005432,2|2,3:2|3:2,0:0:0:0:
292,0,39902,1,2,0:2:0:0:
292,0,40077,2,0,L|292:65,1,52.5000020027161,0|0,3:2|0:0,0:0:0:0:
293,135,40426,1,8,0:2:0:0:
167,82,40774,6,0,L|167:187,1,105.000004005432,2|2,3:2|3:2,0:0:0:0:
91,301,41472,2,0,P|139:284|189:299,1,105.000004005432,0|0,3:2|3:2,0:0:0:0:
311,361,42170,2,0,L|311:256,1,105.000004005432,2|2,3:2|3:2,0:0:0:0:
262,188,42693,1,2,0:2:0:0:
262,188,42868,2,0,L|262:122,1,52.5000020027161,0|0,3:2|0:0,0:0:0:0:
309,65,43216,1,10,0:2:0:0:
180,16,43565,6,0,P|133:35|85:17,1,105.000004005432,0|0,3:2|3:2,0:0:0:0:
3,127,44263,2,0,L|124:127,1,105.000004005432,0|0,3:2|3:2,0:0:0:0:
244,130,44961,5,8,0:2:0:0:
181,194,45135,1,12,0:2:0:0:
188,330,45484,1,0,3:2:0:0:
108,312,45658,2,0,L|29:309,1,62.9999980773926,12|0,0:2|3:2,0:0:0:0:
22,278,45920,1,0,3:0:0:0:
22,278,46007,2,0,L|22:229,3,31.4999990386963,8|0|2|0,0:2|3:2|3:2|3:2,0:0:0:0:
0,211,46356,6,0,L|0:80,1,125.999996154785,6|10,3:2|0:2,0:0:0:0:
60,29,46879,1,2,0:2:0:0:
60,29,47054,2,0,P|92:20|130:36,1,62.9999980773926,0|0,3:2|0:0,0:0:0:0:
174,93,47402,2,0,P|206:101|244:85,1,62.9999980773926,8|2,0:2|0:2,0:0:0:0:
300,37,47751,6,0,P|276:94|298:152,1,125.999996154785,2|10,3:2|0:2,0:3:0:0:
364,209,48274,1,2,0:2:0:0:
364,209,48449,2,0,L|435:209,1,62.9999980773926,0|0,3:2|0:0,0:0:0:0:
486,152,48798,1,10,0:2:0:0:
387,21,49147,6,0,L|254:21,1,125.999996154785,2|8,3:2|0:2,0:0:0:0:
202,78,49670,1,2,0:2:0:0:
202,78,49844,2,0,L|74:78,1,125.999996154785,2|8,3:2|0:2,0:0:0:0:
11,31,50368,1,2,0:2:0:0:
11,31,50542,6,0,P|36:86|10:142,1,125.999996154785,2|10,3:2|0:2,0:0:0:0:
8,227,51065,1,2,0:2:0:0:
8,227,51240,1,0,3:2:0:0:
149,309,51588,2,0,L|221:298,1,62.9999980773926,8|2,0:2|0:2,0:0:0:0:
286,333,51937,6,0,P|247:286|263:228,1,125.999996154785,2|10,3:2|0:2,0:0:0:0:
323,171,52461,1,2,0:2:0:0:
323,171,52635,2,0,L|323:99,1,62.9999980773926,0|0,3:2|0:0,0:0:0:0:
270,45,52984,2,0,P|237:36|207:45,1,62.9999980773926,10|0,0:2|0:0,0:0:0:0:
142,90,53333,6,0,L|142:233,1,125.999996154785,2|10,3:2|0:2,0:0:0:0:
179,294,53856,1,2,0:2:0:0:
179,294,54030,1,0,3:2:0:0:
41,382,54379,2,0,P|29:347|46:313,1,62.9999980773926,10|2,0:2|0:2,0:0:0:0:
5,247,54728,6,0,L|5:108,1,125.999996154785,0|8,3:2|0:2,0:0:0:0:
138,25,55426,2,0,P|180:45|258:17,1,125.999996154785,0|8,3:2|0:2,0:0:0:0:
403,87,56123,6,0,P|365:87|331:110,1,62.9999980773926,12|0,0:2|0:0,0:0:0:0:
286,157,56472,1,8,0:2:0:0:
338,220,56647,2,0,L|326:298,1,62.9999980773926,8|0,0:2|3:0,0:0:0:0:
276,345,56995,1,8,0:2:0:0:
214,291,57170,2,0,P|179:282|137:296,1,62.9999980773926,0|8,3:2|0:2,0:0:0:0:
37,347,57519,5,6,3:2:0:0:
37,347,57693,1,6,3:2:0:0:
3,188,58042,2,0,P|36:148|121:161,1,125.999996154785,10|2,0:2|3:2,0:0:0:0:
180,193,58565,1,8,0:2:0:0:
180,193,58740,6,0,L|200:61,1,125.999996154785,6|2,3:2|3:2,0:0:0:0:
255,8,59263,2,0,P|291:1|341:19,1,62.9999980773926,10|0,0:2|0:0,0:0:0:0:
361,74,59612,1,0,3:2:0:0:
507,1,59961,2,0,L|507:77,1,62.9999980773926,10|2,0:2|0:2,0:0:0:0:
466,134,60309,6,0,L|466:265,1,125.999996154785,6|8,3:2|0:2,0:0:0:0:
452,341,60833,2,0,P|444:283|386:277,1,125.999996154785,2|0,3:2|3:2,0:0:0:0:
313,315,61356,2,0,L|244:314,1,62.9999980773926,8|2,0:2|0:2,0:0:0:0:
180,357,61705,6,0,P|212:305|194:247,1,125.999996154785,6|8,3:2|0:2,0:0:0:0:
124,201,62228,2,0,P|181:213|201:159,1,125.999996154785,2|0,3:2|3:2,0:0:0:0:
139,104,62751,1,8,0:2:0:0:
285,27,63100,5,6,3:2:0:0:
285,27,63274,1,6,3:2:0:0:
431,99,63623,2,0,P|368:109|307:122,1,125.999996154785,10|2,0:2|3:2,0:0:0:0:
245,176,64147,1,8,0:2:0:0:
245,176,64321,6,0,P|204:193|139:132,1,125.999996154785,6|2,3:2|3:2,0:0:0:0:
97,82,64844,2,0,L|80:223,1,125.999996154785,10|0,0:2|3:2,0:0:0:0:
70,292,65368,1,8,0:2:0:0:
70,292,65542,1,8,0:2:0:0:
210,376,65891,6,0,L|346:376,1,125.999996154785,14|10,0:2|0:2,0:0:0:0:
399,324,66414,1,2,3:2:0:0:
341,274,66588,1,8,0:2:0:0:
341,274,66763,1,2,3:2:0:0:
395,212,66937,1,10,0:2:0:0:
304,75,67286,6,0,P|339:81|369:73,1,62.9999980773926,8|0,0:2|0:0,0:0:0:0:
436,31,67635,1,10,0:2:0:0:
436,31,67809,2,0,P|399:78|429:137,1,125.999996154785,0|0,3:2|3:2,0:0:0:0:
484,188,68333,1,10,0:2:0:0:
374,309,68681,6,0,L|307:309,1,62.9999980773926,4|0,3:2|0:0,0:0:0:0:
244,260,69030,1,8,0:2:0:0:
244,260,69205,1,8,0:2:0:0:
184,316,69379,1,8,0:2:0:0:
184,316,69554,1,8,0:2:0:0:
112,276,69728,2,0,L|114:193,1,62.9999980773926,0|0,3:2|3:2,0:0:0:0:
55,111,70077,6,0,B|114:86|114:86|186:124,1,125.999996154785,12|8,0:2|0:2,0:0:0:0:
274,186,70600,1,8,0:2:0:0:
512,0,71298,6,0,B|458:0|458:0|434:18|434:18|359:18,1,140,6|0,3:2|3:2,0:0:0:0:
303,56,71821,2,0,L|220:56,1,70,8|0,0:2|0:0,0:0:0:0:
157,18,72170,2,0,P|149:62|156:88,1,70,2|0,3:2|0:0,0:0:0:0:
223,144,72519,1,8,0:2:0:0:
223,144,72693,1,2,0:2:0:0:
158,198,72868,6,0,L|158:358,1,140,2|8,3:2|0:2,0:0:0:0:
235,384,73391,1,0,0:0:0:0:
303,335,73565,2,0,P|332:326|374:335,1,70,2|0,3:2|0:0,0:0:0:0:
450,361,73914,2,0,P|457:327|448:293,1,70,8|2,0:2|0:2,0:0:0:0:
384,177,74263,6,0,P|430:207|510:166,1,140,2|10,3:2|0:2,0:0:0:0:
384,59,74961,2,0,L|227:59,1,140,2|10,3:2|0:2,0:0:0:0:
191,125,75484,6,0,L|191:265,1,140,2|2,0:2|0:2,0:0:0:0:
187,349,76007,2,0,P|153:357|120:346,1,70,10|0,0:2|0:2,0:0:0:0:
38,327,76356,2,0,L|38:253,1,70,0|0,3:2|0:0,0:0:0:0:
66,180,76705,1,8,0:2:0:0:
66,180,76879,1,2,0:2:0:0:
0,73,77054,6,0,P|40:46|130:87,1,140,2|10,3:2|0:2,0:0:0:0:
276,9,77751,2,0,L|276:149,1,140,2|10,3:2|0:2,0:0:0:0:
218,210,78274,1,2,0:2:0:0:
275,271,78449,6,0,L|347:271,1,70,0|0,3:2|0:0,0:0:0:0:
407,214,78798,2,0,L|479:214,1,70,10|0,0:2|0:0,0:0:0:0:
477,129,79147,2,0,L|407:129,1,70,2|0,3:2|0:0,0:0:0:0:
331,93,79495,2,0,P|321:62|342:12,1,70,10|0,0:2|0:0,0:0:0:0:
201,0,79844,6,0,P|232:40|199:129,1,140,2|8,3:2|0:2,0:0:0:0:
151,182,80368,1,0,0:0:0:0:
212,238,80542,2,0,L|283:238,1,70,0|0,3:2|0:0,0:0:0:0:
340,177,80891,1,10,0:2:0:0:
340,177,81065,1,2,0:2:0:0:
418,271,81240,6,0,L|419:343,2,70,4|8|0,3:2|0:2|0:2,0:0:0:0:
309,331,81763,2,0,P|276:349|170:321,1,140,0|10,3:2|0:2,0:0:0:0:
111,281,82286,1,10,0:2:0:0:
171,221,82461,6,0,B|208:190|208:190|208:66,1,140,6|0,3:2|3:2,0:0:0:0:
173,21,82984,2,0,P|138:13|90:34,1,70,8|0,0:2|0:0,0:0:0:0:
22,36,83333,2,0,L|22:125,1,70,2|0,3:2|0:0,0:0:0:0:
66,183,83681,1,8,0:2:0:0:
66,183,83856,1,2,0:2:0:0:
23,255,84030,6,0,B|23:353|23:353|34:341|58:331,1,140,2|10,3:2|0:2,0:0:0:0:
125,279,84554,1,2,0:2:0:0:
189,332,84728,2,0,P|229:340|271:323,1,70,0|0,3:2|0:2,0:0:0:0:
334,301,85077,2,0,P|342:341|325:383,1,70,8|2,0:2|0:2,0:0:0:0:
266,246,85426,6,0,L|266:81,1,140,2|10,3:2|0:2,0:0:0:0:
411,22,86123,2,0,B|381:86|381:86|416:156,1,140,2|10,3:2|0:2,0:0:0:0:
480,197,86647,1,2,0:2:0:0:
442,271,86821,6,0,L|361:271,1,70,0|0,3:2|0:0,0:0:0:0:
301,224,87170,2,0,L|220:224,1,70,8|0,0:2|0:2,0:0:0:0:
152,253,87519,2,0,P|142:211|159:176,1,70,8|0,0:2|0:2,0:0:0:0:
220,140,87868,1,10,0:2:0:0:
153,44,88042,6,0,P|87:27|29:64,1,140,6|0,3:2|3:0,0:0:0:0:
0,146,88565,1,10,0:2:0:0:
0,146,88740,1,2,0:2:0:0:
45,216,88914,2,0,L|45:295,1,70,0|0,3:2|0:0,0:0:0:0:
10,362,89263,2,0,P|47:371|95:351,1,70,8|0,0:2|0:0,0:0:0:0:
198,363,89612,6,0,B|159:307|159:307|202:237,1,140,0|8,3:2|0:2,0:0:0:0:
332,167,90309,2,0,L|405:167,1,70,2|0,3:2|0:0,0:0:0:0:
390,250,90658,2,0,L|475:248,1,70,10|0,0:2|0:0,0:0:0:0:
511,181,91007,6,0,L|511:21,1,140,6|10,3:2|0:2,0:0:0:0:
438,2,91530,1,2,0:2:0:0:
368,49,91705,2,0,L|281:49,1,70,0|0,3:2|0:0,0:0:0:0:
221,13,92054,5,10,0:2:0:0:
190,128,92228,1,10,0:2:0:0:
460,359,93798,6,0,P|482:301|459:245,1,125.999996154785,6|10,3:2|0:2,0:0:0:0:
390,200,94321,2,0,P|327:206|264:215,1,125.999996154785,6|2,3:2|3:2,0:0:0:0:
209,275,94844,1,8,0:2:0:0:
209,275,95019,6,0,P|175:224|191:164,1,125.999996154785,6|2,3:2|3:2,0:0:0:0:
253,110,95542,1,8,0:2:0:0:
253,110,95716,2,0,P|315:101|378:95,1,125.999996154785,6|6,3:2|3:2,0:0:0:0:
432,33,96240,1,14,0:2:0:0:
503,180,96588,6,0,P|491:241|483:304,1,125.999996154785,6|10,3:2|0:2,0:0:0:0:
423,361,97112,2,0,P|378:320|319:335,1,125.999996154785,6|2,3:2|3:2,0:0:0:0:
252,380,97635,1,8,0:2:0:0:
252,380,97809,6,0,P|190:368|127:360,1,125.999996154785,6|2,3:2|3:2,0:0:0:0:
62,311,98333,1,8,0:2:0:0:
62,311,98507,2,0,P|101:326|156:256,1,125.999996154785,6|6,3:2|3:2,0:0:0:0:
184,197,99030,1,14,0:2:0:0:
81,69,99379,6,0,P|70:131|61:193,1,125.999996154785,6|10,3:2|0:2,0:0:0:0:
7,255,99902,2,0,P|17:317|26:379,1,125.999996154785,6|2,3:2|3:2,0:0:0:0:
112,384,100426,1,8,0:2:0:0:
112,384,100600,6,0,P|148:336|207:347,1,125.999996154785,6|2,3:2|3:2,0:0:0:0:
286,383,101123,1,8,0:2:0:0:
286,383,101298,2,0,P|294:320|305:258,1,125.999996154785,6|6,3:2|3:2,0:0:0:0:
339,183,101821,1,14,0:2:0:0:
202,97,102170,6,0,P|192:67|198:36,1,62.9999980773926,6|2,3:2|0:2,0:0:0:0:
283,68,102519,1,10,0:2:0:0:
283,68,102693,2,0,P|319:88|399:51,1,125.999996154785,6|2,3:2|3:2,0:0:0:0:
470,26,103216,1,10,0:2:0:0:
470,26,103391,2,0,P|475:56|479:88,1,62.9999980773926,6|0,3:2|0:0,0:0:0:0:
442,161,103740,5,2,3:2:0:0:
484,230,103914,2,0,P|478:260|474:292,1,62.9999980773926,10|2,0:2|3:2,0:0:0:0:
417,351,104263,1,2,0:2:0:0:
417,351,104437,1,2,3:2:0:0:
357,294,104612,2,0,P|326:287|296:295,1,62.9999980773926,10|2,0:2|0:2,0:0:0:0:
188,349,104961,6,0,P|155:366|68:343,1,125.999996154785,6|10,3:2|0:2,0:0:0:0:
56,270,105484,1,2,0:2:0:0:
56,270,105658,2,0,L|56:138,1,125.999996154785,0|8,3:2|0:2,0:0:0:0:
120,92,106181,1,2,0:2:0:0:
120,92,106356,2,0,P|147:110|241:78,1,125.999996154785,2|10,3:2|0:2,0:0:0:0:
307,54,106879,1,2,0:2:0:0:
307,54,107054,2,0,P|313:84|310:115,1,62.9999980773926,0|0,3:2|0:0,0:0:0:0:
287,194,107402,1,10,0:2:0:0:
398,314,107751,6,0,P|353:303|282:370,1,125.999996154785,2|8,3:2|0:2,0:0:0:0:
211,368,108274,1,2,0:2:0:0:
211,368,108449,2,0,L|210:234,1,125.999996154785,2|8,3:2|0:2,0:0:0:0:
157,186,108972,1,2,0:2:0:0:
157,186,109147,2,0,P|193:206|281:176,1,125.999996154785,2|10,3:2|0:2,0:0:0:0:
342,143,109670,1,2,0:2:0:0:
342,143,109844,1,0,3:2:0:0:
472,242,110193,2,0,L|472:311,1,62.9999980773926,8|2,0:2|0:2,0:0:0:0:
394,333,110542,6,0,L|394:207,1,125.999996154785,2|10,3:2|0:2,0:0:0:0:
457,154,111065,1,2,0:2:0:0:
457,154,111240,2,0,B|449:121|427:99|427:99|456:72|454:43,1,125.999996154785,0|8,3:2|0:2,0:0:0:0:
378,30,111763,1,2,0:2:0:0:
378,30,111937,2,0,P|315:35|252:44,1,125.999996154785,2|10,3:2|0:2,0:0:0:0:
174,16,112461,1,2,0:2:0:0:
174,16,112635,1,0,3:2:0:0:
93,158,112984,2,0,L|110:236,1,62.9999980773926,10|2,0:2|0:2,0:0:0:0:
177,261,113333,6,0,P|115:255|69:296,1,125.999996154785,0|8,3:2|0:2,0:0:0:0:
217,367,114030,2,0,L|357:368,1,125.999996154785,0|8,3:2|0:2,0:0:0:0:
507,368,114728,5,8,0:2:0:0:
442,316,114902,1,12,0:2:0:0:
505,164,115251,1,0,3:2:0:0:
433,203,115426,2,0,P|395:211|361:203,1,62.9999980773926,12|0,0:2|3:2,0:0:0:0:
341,187,115687,1,0,3:0:0:0:
341,187,115774,2,0,L|300:187,3,31.4999990386963,8|0|2|0,0:2|3:2|3:2|3:2,0:0:0:0:
275,211,116123,6,0,L|127:211,1,125.999996154785,6|10,3:2|0:2,0:0:0:0:
118,136,116647,1,2,0:2:0:0:
118,136,116821,2,0,P|149:126|187:139,1,62.9999980773926,0|0,3:2|0:0,0:0:0:0:
255,106,117170,2,0,P|265:75|252:37,1,62.9999980773926,8|2,0:2|0:2,0:0:0:0:
183,11,117519,6,0,P|121:17|58:25,1,125.999996154785,2|10,3:2|0:2,0:0:0:0:
6,90,118042,1,2,0:2:0:0:
6,90,118216,2,0,P|10:121|13:152,1,62.9999980773926,0|0,3:2|0:0,0:0:0:0:
13,234,118565,1,10,0:2:0:0:
164,171,118914,6,0,P|155:233|149:296,1,125.999996154785,2|8,3:2|0:2,0:0:0:0:
223,341,119437,1,2,0:2:0:0:
223,341,119612,2,0,P|268:303|343:327,1,125.999996154785,2|8,3:2|0:2,0:0:0:0:
384,383,120135,1,2,0:2:0:0:
384,383,120309,6,0,P|415:338|398:263,1,125.999996154785,2|10,3:2|0:2,0:0:0:0:
344,220,120833,1,2,0:2:0:0:
344,220,121007,1,0,3:2:0:0:
461,105,121356,2,0,P|425:114|383:97,1,62.9999980773926,8|2,0:2|0:2,0:0:0:0:
341,50,121705,6,0,P|300:31|219:67,1,125.999996154785,2|10,3:2|0:2,0:0:0:0:
146,40,122228,1,2,0:2:0:0:
146,40,122402,2,0,L|146:102,1,62.9999980773926,0|0,3:2|0:0,0:0:0:0:
201,163,122751,2,0,L|201:225,1,62.9999980773926,10|0,0:2|0:0,0:0:0:0:
149,290,123100,6,0,P|205:266|262:289,1,125.999996154785,2|10,3:2|0:2,0:0:0:0:
337,335,123623,1,2,0:2:0:0:
337,335,123798,1,0,3:2:0:0:
179,378,124147,2,0,L|116:379,1,62.9999980773926,10|2,0:2|0:2,0:0:0:0:
34,373,124495,6,0,B|58:316|58:316|34:246,1,125.999996154785,0|8,3:2|0:2,0:0:0:0:
153,138,125193,2,0,B|129:195|129:195|153:265,1,125.999996154785,0|8,3:2|0:2,0:0:0:0:
290,340,125891,6,0,L|366:324,1,62.9999980773926,12|0,0:2|0:0,0:0:0:0:
416,276,126240,1,8,0:2:0:0:
362,214,126414,2,0,P|343:181|352:135,1,62.9999980773926,8|0,0:2|3:2,0:0:0:0:
385,86,126763,1,8,0:2:0:0:
462,115,126937,2,0,P|442:147|398:163,1,62.9999980773926,0|8,3:2|0:2,0:0:0:0:
302,87,127286,5,6,3:2:0:0:
302,87,127461,1,6,3:2:0:0:
197,212,127809,2,0,L|218:353,1,125.999996154785,10|2,0:2|3:2,0:0:0:0:
291,368,128333,1,8,0:2:0:0:
291,368,128507,6,0,P|317:338|415:350,1,125.999996154785,6|2,3:2|3:2,0:0:0:0:
478,355,129030,2,0,L|492:284,1,62.9999980773926,10|0,0:2|0:0,0:0:0:0:
502,211,129379,1,0,3:2:0:0:
364,121,129728,2,0,P|372:151|378:182,1,62.9999980773926,10|2,0:2|0:2,0:0:0:0:
342,256,130077,6,0,P|304:230|228:240,1,125.999996154785,6|8,3:2|0:2,0:0:0:0:
146,248,130600,2,0,P|188:233|169:153,1,125.999996154785,2|0,3:2|3:2,0:0:0:0:
144,89,131123,2,0,L|69:84,1,62.9999980773926,8|2,0:2|0:2,0:0:0:0:
17,32,131472,6,0,L|38:156,1,125.999996154785,6|8,3:2|0:2,0:0:0:0:
9,232,131995,2,0,P|39:268|117:245,1,125.999996154785,2|0,3:2|3:2,0:0:0:0:
168,196,132519,1,8,0:2:0:0:
264,335,132868,5,6,3:2:0:0:
264,335,133042,1,6,3:2:0:0:
397,240,133391,2,0,P|336:250|290:211,1,125.999996154785,10|2,0:2|3:2,0:0:0:0:
252,144,133914,1,8,0:2:0:0:
252,144,134088,6,0,P|204:127|135:164,1,125.999996154785,6|2,3:2|3:2,0:0:0:0:
97,229,134612,2,0,L|79:104,1,125.999996154785,10|0,0:2|3:2,0:0:0:0:
50,32,135135,1,8,0:2:0:0:
50,32,135309,2,0,P|90:27|129:39,1,62.9999980773926,8|2,0:2|3:2,0:0:0:0:
198,115,135658,6,0,P|251:138|315:105,1,125.999996154785,14|10,0:2|0:2,0:0:0:0:
363,49,136181,1,2,3:2:0:0:
427,108,136356,1,8,0:2:0:0:
427,108,136530,1,2,3:2:0:0:
489,54,136705,1,10,0:2:0:0:
512,224,137054,6,0,L|435:236,1,62.9999980773926,8|0,0:2|0:0,0:0:0:0:
380,191,137402,1,10,0:2:0:0:
326,252,137577,2,0,P|278:276|205:243,1,125.999996154785,0|0,3:2|3:2,0:0:0:0:
154,195,138100,1,10,0:2:0:0:
263,73,138449,6,0,P|231:68|200:65,1,62.9999980773926,4|0,3:2|0:0,0:0:0:0:
124,89,138798,1,8,0:2:0:0:
124,89,138972,1,8,0:2:0:0:
67,30,139147,1,8,0:2:0:0:
67,30,139321,1,8,0:2:0:0:
9,87,139495,2,0,P|16:117|18:148,1,62.9999980773926,0|0,3:2|3:2,0:0:0:0:
31,280,139844,5,12,0:2:0:0:
425,353,141065,6,0,P|430:283|439:213,1,140,6|0,3:2|3:2,0:0:0:0:
477,138,141588,2,0,P|442:127|409:133,1,70,8|0,0:2|0:0,0:0:0:0:
357,198,141937,2,0,P|322:209|289:202,1,70,2|0,3:2|0:0,0:0:0:0:
227,155,142286,1,8,0:2:0:0:
227,155,142461,1,2,0:2:0:0:
290,100,142635,6,0,P|306:62|226:62,1,140,2|8,3:2|0:2,0:0:0:0:
160,87,143158,1,0,0:0:0:0:
94,34,143333,2,0,P|60:25|27:36,1,70,2|0,3:2|0:0,0:0:0:0:
59,113,143681,2,0,P|67:146|56:179,1,70,8|2,0:2|0:2,0:0:0:0:
0,294,144030,6,0,P|62:265|125:290,1,140,2|10,3:2|0:2,0:0:0:0:
283,183,144728,2,0,P|220:211|157:186,1,140,2|10,3:2|0:2,0:0:0:0:
145,91,145251,6,0,P|207:62|270:87,1,140,2|2,0:2|0:2,0:0:0:0:
348,118,145774,2,0,P|384:126|425:114,1,70,10|0,0:2|0:2,0:0:0:0:
493,87,146123,2,0,L|493:166,1,70,0|0,3:2|0:2,0:0:0:0:
435,218,146472,1,8,0:2:0:0:
435,218,146647,1,2,0:2:0:0:
503,326,146821,6,0,P|440:299|377:324,1,140,2|10,3:2|0:2,0:0:0:0:
218,381,147519,2,0,P|244:318|219:255,1,140,2|10,3:2|0:2,0:0:0:0:
161,193,148042,1,2,0:2:0:0:
105,255,148216,6,0,L|34:255,1,70,0|0,3:2|0:0,0:0:0:0:
0,178,148565,2,0,L|0:95,1,70,10|0,0:2|0:0,0:0:0:0:
53,42,148914,2,0,P|86:33|120:40,1,70,2|0,3:2|0:0,0:0:0:0:
185,94,149263,2,0,P|218:102|252:95,1,70,10|0,0:2|0:0,0:0:0:0:
371,29,149612,6,0,P|343:66|374:155,1,140,2|8,3:2|0:2,0:0:0:0:
415,218,150135,1,0,0:0:0:0:
369,288,150309,2,0,L|297:288,1,70,0|0,3:2|0:0,0:0:0:0:
214,285,150658,1,10,0:2:0:0:
214,285,150833,1,2,0:2:0:0:
166,175,151007,6,0,P|202:162|234:167,2,70,4|8|0,3:2|0:2|3:2,0:0:0:0:
55,216,151530,2,0,L|74:69,1,140,0|10,3:2|0:2,0:0:0:0:
140,26,152054,1,10,0:2:0:0:
209,73,152228,6,0,B|265:73|265:73|290:91|290:91|354:91,1,140,6|0,3:2|3:2,0:0:0:0:
420,58,152751,2,0,P|428:96|412:140,1,70,8|0,0:2|0:0,0:0:0:0:
453,203,153100,2,0,P|414:211|370:195,1,70,2|0,3:2|0:0,0:0:0:0:
311,176,153449,1,8,0:2:0:0:
311,176,153623,1,2,0:2:0:0:
248,232,153798,6,0,L|103:232,1,140,2|10,3:2|0:2,0:0:0:0:
45,175,154321,1,2,0:2:0:0:
3,247,154495,2,0,L|3:323,1,70,0|0,3:2|0:2,0:0:0:0:
59,379,154844,2,0,L|129:379,1,70,8|2,0:2|0:2,0:0:0:0:
229,321,155193,6,0,P|292:348|356:323,1,140,2|10,3:2|0:2,0:0:0:0:
427,170,155891,2,0,P|364:143|300:168,1,140,2|10,3:2|0:2,0:0:0:0:
229,214,156414,1,2,0:2:0:0:
155,174,156588,6,0,L|74:174,1,70,0|0,3:2|0:0,0:0:0:0:
81,89,156937,2,0,L|151:89,1,70,8|0,0:2|0:2,0:0:0:0:
210,28,157286,2,0,L|280:28,1,70,8|0,0:2|0:2,0:0:0:0:
347,78,157635,1,10,0:2:0:0:
477,30,157809,6,0,P|434:82|452:147,1,140,6|0,3:2|0:0,0:0:0:0:
501,223,158333,1,10,0:2:0:0:
501,223,158507,1,2,0:2:0:0:
433,272,158681,2,0,L|348:271,1,70,0|0,3:2|0:0,0:0:0:0:
300,215,159030,2,0,L|215:214,1,70,8|0,0:2|0:0,0:0:0:0:
113,273,159379,6,0,P|141:211|115:148,1,140,0|8,3:2|0:2,0:0:0:0:
5,21,160077,2,0,L|92:21,1,70,2|0,3:2|0:0,0:0:0:0:
147,63,160426,2,0,L|234:63,1,70,10|0,0:2|0:0,0:0:0:0:
282,11,160774,6,0,P|254:73|280:136,1,140,6|10,3:2|0:2,0:0:0:0:
337,199,161298,1,2,0:2:0:0:
287,266,161472,2,0,P|246:278|207:262,1,70,0|0,3:2|0:3,0:3:0:0:
153,220,161821,5,10,0:2:0:0:
119,348,161995,1,10,0:2:0:0:
184,293,173158,6,0,B|232:288|232:288|257:297|257:297|307:291,1,125.999996154785,4|0,3:2|0:0,0:0:0:0:
378,250,173681,2,0,P|388:220|373:181,1,62.9999980773926,8|0,0:2|3:2,0:0:0:0:
357,111,174030,2,0,P|347:81|362:42,1,62.9999980773926,0|14,3:2|0:2,0:0:0:0:
391,30,174292,1,8,0:2:0:0:
391,30,174379,2,0,L|422:30,3,31.4999990386963,10|8|10|8,0:2|0:2|0:2|0:2,0:0:0:0:
458,10,174728,6,0,L|458:150,1,125.999996154785,6|10,3:2|0:2,0:0:0:0:
507,207,175251,1,2,0:2:0:0:
507,207,175426,2,0,L|507:285,1,62.9999980773926,0|0,3:2|0:0,0:0:0:0:
445,322,175774,1,10,0:2:0:0:
445,322,175949,1,2,0:2:0:0:
380,272,176123,6,0,P|322:249|265:271,1,125.999996154785,0|8,3:2|0:2,0:0:0:0:
131,370,176821,2,0,L|131:295,1,62.9999980773926,0|0,3:2|0:0,0:0:0:0:
75,246,177170,2,0,L|75:171,1,62.9999980773926,10|0,0:2|0:2,0:0:0:0:
127,120,177519,6,0,P|186:99|245:117,1,125.999996154785,2|10,3:2|0:2,0:0:0:0:
313,163,178042,1,2,0:2:0:0:
313,163,178216,2,0,L|389:163,1,62.9999980773926,0|0,3:2|0:0,0:0:0:0:
451,131,178565,2,0,P|459:161|451:191,1,62.9999980773926,8|0,0:2|0:0,0:0:0:0:
389,245,178914,6,0,L|389:391,2,125.999996154785,0|8|0,3:2|0:2|3:2,0:0:0:0:
310,251,179786,1,2,0:2:0:0:
310,251,179961,2,0,L|231:252,1,62.9999980773926,10|2,0:2|0:2,0:0:0:0:
178,296,180309,6,0,P|211:245|190:187,1,125.999996154785,2|10,3:2|0:2,0:0:0:0:
194,109,180833,1,2,0:2:0:0:
194,109,181007,2,0,L|127:109,1,62.9999980773926,0|0,3:2|0:0,0:0:0:0:
76,55,181356,1,10,0:2:0:0:
76,55,181530,1,2,0:2:0:0:
15,110,181705,6,0,L|16:243,1,125.999996154785,0|8,3:2|0:2,0:0:0:0:
127,355,182402,2,0,L|198:355,1,62.9999980773926,0|0,3:2|0:0,0:0:0:0:
263,318,182751,2,0,L|334:318,1,62.9999980773926,8|0,0:2|0:2,0:0:0:0:
393,365,183100,6,0,P|361:312|387:257,1,125.999996154785,2|8,3:2|0:2,0:0:0:0:
494,133,183798,2,0,P|441:164|386:138,1,125.999996154785,2|8,3:2|0:2,0:0:0:0:
262,32,184495,6,0,P|293:84|267:139,1,125.999996154785,2|8,3:2|0:2,0:0:0:0:
171,272,185193,2,0,L|257:272,1,62.9999980773926,2|0,3:2|0:0,0:0:0:0:
302,224,185542,1,10,0:2:0:0:
302,224,185716,1,2,0:2:0:0:
383,244,185891,6,0,L|383:387,1,140,4|8,3:2|0:2,0:0:0:0:
214,379,186588,2,0,L|135:379,1,70,0|0,3:2|0:0,0:0:0:0:
79,333,186937,1,10,0:2:0:0:
79,333,187112,1,2,0:2:0:0:
142,278,187286,6,0,P|161:222|125:138,1,140,0|8,3:2|0:2,0:0:0:0:
2,44,187984,2,0,L|79:44,1,70,2|0,3:2|0:0,0:0:0:0:
149,6,188333,1,10,0:2:0:0:
149,6,188507,1,2,0:2:0:0:
214,56,188681,6,0,P|278:81|342:55,2,140,0|8|0,3:2|0:2|3:2,0:0:0:0:
74,150,189728,1,8,0:2:0:0:
189,271,190077,6,0,L|261:271,1,70,2|2,3:2|0:2,0:0:0:0:
321,214,190426,2,0,P|290:274|322:333,1,140,10|0,0:2|3:2,0:0:0:0:
400,377,190949,1,2,0:2:0:0:
452,311,191123,2,0,L|452:256,3,35,10|0|2|0,0:2|3:2|3:2|3:2,0:0:0:0:
434,237,191472,6,0,L|434:88,1,140,4|8,3:2|0:2,0:0:0:0:
295,0,192170,2,0,L|295:75,1,70,0|0,3:2|0:0,0:0:0:0:
236,130,192519,1,10,0:2:0:0:
236,130,192693,1,2,0:2:0:0:
169,75,192868,6,0,P|104:54|40:77,1,140,0|8,3:2|0:2,0:0:0:0:
4,242,193565,2,0,L|86:242,1,70,0|0,3:2|0:0,0:0:0:0:
147,198,193914,1,10,0:2:0:0:
147,198,194088,1,2,0:2:0:0:
219,241,194263,6,0,P|239:272|228:376,2,140,0|8|0,3:2|0:2|3:2,0:0:0:0:
314,102,195309,1,8,0:2:0:0:
425,227,195658,6,0,L|425:312,1,70,4|0,3:2|0:0,0:0:0:0:
371,362,196007,1,8,0:2:0:0:
371,362,196181,1,8,0:2:0:0:
308,305,196356,1,8,0:2:0:0:
245,360,196530,2,0,L|202:360,3,35,10|8|10|8,0:2|0:2|0:2|0:2,0:0:0:0:
169,348,196879,6,0,B|204:309|204:309|167:203,1,140,6|0,3:2|3:2,0:0:0:0:
113,169,197402,2,0,L|41:169,1,70,8|0,0:2|0:0,0:0:0:0:
43,84,197751,2,0,L|113:84,1,70,2|0,3:2|0:0,0:0:0:0:
184,37,198100,1,8,0:2:0:0:
184,37,198274,1,2,0:2:0:0:
253,84,198449,6,0,P|317:106|382:84,1,140,2|8,3:2|0:2,0:0:0:0:
443,25,198972,1,0,0:0:0:0:
507,79,199147,2,0,L|507:154,1,70,2|0,3:2|0:0,0:0:0:0:
436,194,199495,2,0,L|436:269,1,70,8|2,0:2|0:2,0:0:0:0:
507,377,199844,6,0,P|467:355|366:388,1,140,2|10,3:2|0:2,0:0:0:0:
220,315,200542,2,0,P|261:321|271:229,1,140,2|10,3:2|0:2,0:0:0:0:
219,191,201065,6,0,B|163:187|163:187|138:202|138:202|63:196,1,140,2|2,0:2|0:2,0:0:0:0:
35,128,201588,2,0,P|33:85|50:53,1,70,10|0,0:2|0:2,0:0:0:0:
127,48,201937,2,0,L|205:65,1,70,0|0,3:2|0:2,0:0:0:0:
274,105,202286,1,8,0:2:0:0:
274,105,202461,1,2,0:2:0:0:
395,48,202635,6,0,P|425:109|401:173,1,140,6|10,3:2|0:2,0:0:0:0:
439,338,203333,2,0,L|297:337,1,140,2|10,3:2|0:2,0:0:0:0:
228,290,203856,1,2,0:2:0:0:
159,338,204030,6,0,P|121:347|82:331,1,70,0|0,3:2|0:0,0:0:0:0:
41,270,204379,2,0,L|41:181,1,70,10|0,0:2|0:0,0:0:0:0:
117,163,204728,2,0,L|117:74,1,70,2|0,3:2|0:0,0:0:0:0:
146,14,205077,2,0,P|108:5|69:21,1,70,10|0,0:2|0:0,0:0:0:0:
202,82,205426,6,0,L|363:82,1,140,2|8,3:2|0:2,0:0:0:0:
405,137,205949,1,0,0:0:0:0:
346,197,206123,2,0,P|337:239|355:279,1,70,0|0,3:2|0:0,0:0:0:0:
395,338,206472,1,10,0:2:0:0:
395,338,206647,1,2,0:2:0:0:
286,384,206821,6,0,P|244:375|204:393,2,70,4|8|0,3:2|0:2|3:2,0:0:0:0:
345,264,207344,2,0,P|281:289|218:264,1,140,0|10,3:2|0:2,0:0:0:0:
155,207,207868,1,10,0:2:0:0:
209,143,208042,6,0,P|272:117|335:142,1,140,6|0,3:2|3:2,0:0:0:0:
398,198,208565,2,0,L|485:198,1,70,8|0,0:2|0:0,0:0:0:0:
510,124,208914,2,0,L|510:37,1,70,2|0,3:2|0:0,0:0:0:0:
445,0,209263,1,8,0:2:0:0:
445,0,209437,1,2,0:2:0:0:
371,41,209612,6,0,P|329:61|235:31,1,140,2|8,3:2|0:2,0:0:0:0:
165,2,210135,1,0,0:0:0:0:
115,69,210309,2,0,B|126:126|126:126|113:150|113:150|127:216,1,140,2|8,3:2|0:2,0:0:0:0:
184,262,210833,1,2,0:2:0:0:
75,345,211007,6,0,P|118:332|192:398,1,140,2|10,3:2|0:2,0:0:0:0:
338,306,211705,2,0,P|329:236|321:167,1,140,2|10,3:2|0:2,0:0:0:0:
264,104,212228,1,2,0:2:0:0:
204,163,212402,6,0,P|168:172|120:150,1,70,0|0,3:2|0:0,0:0:0:0:
59,130,212751,2,0,P|50:166|72:214,1,70,8|0,0:2|0:2,0:0:0:0:
26,274,213100,2,0,P|62:283|110:261,1,70,10|0,0:2|0:2,0:0:0:0:
172,246,213449,1,10,0:2:0:0:
280,333,213623,6,0,P|257:268|278:202,1,140,6|0,3:2|0:0,0:0:0:0:
327,133,214147,1,10,0:2:0:0:
327,133,214321,1,2,0:2:0:0:
395,181,214495,2,0,L|480:181,1,70,0|0,3:2|0:0,0:0:0:0:
461,265,214844,2,0,L|391:265,1,70,8|0,0:2|0:0,0:0:0:0:
326,319,215193,6,0,L|166:319,1,140,0|8,3:2|0:2,0:0:0:0:
29,381,215891,2,0,P|41:340|19:291,1,70,2|0,3:2|0:0,0:0:0:0:
0,239,216240,2,0,L|0:154,1,70,10|0,0:2|0:0,0:0:0:0:
63,113,216588,6,0,B|96:88|128:88|128:88|144:118|184:124,1,140,6|10,3:2|0:2,0:0:0:0:
263,96,217112,1,2,0:2:0:0:
258,12,217286,2,0,P|223:17|196:39,1,70,0|0,3:2|0:0,0:0:0:0:
249,182,217635,5,10,0:2:0:0:
359,130,217809,1,10,0:2:0:0:
231,348,219379,6,0,B|196:329|162:331|162:331|143:360|118:363,1,125.999996154785,6|10,3:2|0:2,0:0:0:0:
87,287,219902,2,0,P|94:224|105:162,1,125.999996154785,6|2,3:2|3:2,0:0:0:0:
162,102,220426,1,8,0:2:0:0:
162,102,220600,6,0,P|207:128|274:80,1,125.999996154785,6|2,3:2|3:2,0:0:0:0:
329,42,221123,1,8,0:2:0:0:
329,42,221298,2,0,L|314:177,1,125.999996154785,6|6,3:2|3:2,0:0:0:0:
295,247,221821,1,14,0:2:0:0:
153,329,222170,6,0,P|212:314|259:352,1,125.999996154785,6|10,3:2|0:2,0:0:0:0:
341,380,222693,2,0,P|403:372|466:365,1,125.999996154785,6|2,3:2|3:2,0:0:0:0:
511,298,223216,1,8,0:2:0:0:
511,298,223391,6,0,P|479:267|491:179,1,125.999996154785,6|2,3:2|3:2,0:3:0:0:
490,108,223914,1,8,0:2:0:0:
490,108,224088,2,0,L|350:95,1,125.999996154785,6|6,3:2|3:2,0:0:0:0:
284,115,224612,1,14,0:2:0:0:
168,231,224961,6,0,P|229:224|274:265,1,125.999996154785,6|10,3:2|0:2,0:0:0:0:
306,341,225484,2,0,P|243:351|182:363,1,125.999996154785,6|2,3:2|3:2,0:0:0:0:
106,346,226007,1,8,0:2:0:0:
106,346,226181,6,0,P|70:312|91:234,1,125.999996154785,6|2,3:2|3:2,0:0:0:0:
168,231,226705,1,8,0:2:0:0:
168,231,226879,2,0,P|204:197|183:119,1,125.999996154785,6|6,3:2|3:2,0:0:0:0:
125,79,227402,1,14,0:2:0:0:
1,186,227751,6,0,L|1:258,1,62.9999980773926,6|2,3:2|0:2,0:0:0:0:
17,334,228100,1,10,0:2:0:0:
17,334,228274,2,0,P|70:307|152:334,1,125.999996154785,6|2,3:2|3:2,0:0:0:0:
217,343,228798,1,10,0:2:0:0:
217,343,228972,2,0,P|255:352|286:341,1,62.9999980773926,6|0,3:2|0:0,0:0:0:0:
343,274,229333,6,0,L|343:206,2,52.5000020027161,2|2|2,0:2|0:2|0:2,0:0:0:0:
419,320,229862,2,0,L|419:392,2,62.9999980773926,2|2|2,0:2|0:2|0:2,0:0:0:0:
471,245,230391,5,2,3:2:0:0:
297,136,230921,2,0,B|403:100|388:189|501:129,1,210.000008010865,6|0,3:2|0:0,0:0:0:0:
