osu file format v14

[General]
AudioFilename: audio.mp3
AudioLeadIn: 0
PreviewTime: 71218
Countdown: 0
SampleSet: Soft
StackLeniency: 0.3
Mode: 0
LetterboxInBreaks: 0
WidescreenStoryboard: 1

[Editor]
DistanceSpacing: 1.5
BeatDivisor: 4
GridSize: 16
TimelineZoom: 3.299999

[Metadata]
Title:Tobenai Mahoutsukai
TitleUnicode:飛べない魔法使い
Artist:yanaginagi
ArtistUnicode:やなぎなぎ
Creator:Dored
Version:Supreme Candy
Source:しゅぷれ~むキャンディ ~王道には王道たる理由があるんです!~
Tags:Supreme Candy Galgame Eroge Visual Novel Opening Short Version Makura Reincarnation Necho DalouBot Hidden me 84461810 fuyuyu- Mamayu Kanau Silky
BeatmapID:1814075
BeatmapSetID:867830

[Difficulty]
HPDrainRate:6
CircleSize:4.5
OverallDifficulty:8.8
ApproachRate:9.2
SliderMultiplier:1.9
SliderTickRate:1

[Events]
//Background and Video events
0,0,"Top.jpg",0,0
//Break Periods
//Storyboard Layer 0 (Background)
//Storyboard Layer 1 (Fail)
//Storyboard Layer 2 (Pass)
//Storyboard Layer 3 (Foreground)
//Storyboard Sound Samples

[TimingPoints]
-1460,365.853658536585,4,2,1,30,1,0
918,-166.666666666667,4,2,1,30,0,0
2545,368.098159509202,4,2,1,30,1,0
2913,368.098159509202,4,2,1,30,1,0
2913,-166.666666666667,4,2,1,30,0,0
6950,365.853658536585,4,2,1,30,1,0
7315,365.853658536585,4,2,1,30,1,0
7315,-166.666666666667,4,2,1,30,0,0
12440,348.837209302326,4,2,1,45,1,0
13137,348.837209302326,4,2,1,45,1,0
13137,-125,4,2,1,45,0,0
24299,-100,4,2,1,65,0,0
24561,-100,4,2,1,5,0,0
24648,-100,4,2,1,65,0,0
25084,-100,4,2,1,5,0,0
25171,-100,4,2,1,65,0,0
25782,-100,4,2,1,5,0,0
25869,-100,4,2,1,65,0,0
26480,-100,4,2,1,5,0,0
26567,-100,4,2,1,65,0,0
27352,-100,4,2,1,5,0,0
27439,-100,4,2,1,65,0,0
27875,-100,4,2,1,5,0,0
27962,-100,4,2,1,65,0,0
28573,-100,4,2,1,5,0,0
28660,-100,4,2,1,65,0,0
29270,-100,4,2,1,5,0,0
29357,-100,4,2,1,65,0,0
30142,-100,4,2,1,5,0,0
30230,-100,4,2,1,65,0,0
30666,-100,4,2,1,5,0,0
30753,-100,4,2,1,65,0,0
31363,-100,4,2,1,5,0,0
31450,-100,4,2,1,65,0,0
32061,-100,4,2,1,5,0,0
32148,-100,4,2,1,65,0,0
33456,-100,4,2,1,5,0,0
33543,-100,4,2,1,65,0,0
34154,-100,4,2,1,5,0,0
34241,-100,4,2,1,65,0,0
35462,-125,4,2,1,45,0,0
46625,-111.111111111111,4,2,1,60,0,0
57177,-111.111111111111,4,2,1,5,0,0
57264,-111.111111111111,4,2,1,60,0,0
63282,-111.111111111111,4,2,1,5,0,0
63369,-111.111111111111,4,2,1,60,0,0
66160,-100,4,2,1,65,0,0
69212,-100,4,2,1,5,0,0
69299,-100,4,2,1,65,0,0
71218,-125,4,2,1,60,0,0
71567,-90.9090909090909,4,2,1,75,0,1
82293,-90.9090909090909,4,2,1,5,0,1
82381,-90.9090909090909,4,2,1,75,0,1
84561,-90.9090909090909,4,2,1,5,0,1
84648,-90.9090909090909,4,2,1,75,0,1
91538,-90.9090909090909,4,2,1,5,0,1
91625,-90.9090909090909,4,2,1,75,0,1
92497,-100,4,2,1,75,0,0
93543,-100,4,2,1,55,0,0
94067,-100,4,2,1,65,0,0
94328,-100,4,2,1,5,0,0
94416,-100,4,2,1,65,0,0
94852,-100,4,2,1,5,0,0
94939,-100,4,2,1,65,0,0
95549,-100,4,2,1,5,0,0
95637,-100,4,2,1,65,0,0
96247,-100,4,2,1,5,0,0
96334,-100,4,2,1,65,0,0
97119,-100,4,2,1,5,0,0
97206,-100,4,2,1,65,0,0
97642,-100,4,2,1,5,0,0
97730,-100,4,2,1,65,0,0
98340,-100,4,2,1,5,0,0
98427,-100,4,2,1,65,0,0
99038,-100,4,2,1,5,0,0
99125,-100,4,2,1,65,0,0
99648,350.877192982456,4,2,1,65,1,0
99911,-100,4,2,1,5,0,0
99998,-100,4,2,1,65,0,0
100437,-100,4,2,1,5,0,0
100525,-100,4,2,1,65,0,0
101139,-100,4,2,1,5,0,0
101226,-100,4,2,1,65,0,0
101840,-100,4,2,1,5,0,0
101928,-100,4,2,1,65,0,0
103244,-100,4,2,1,5,0,0
103332,-100,4,2,1,65,0,0
104020,357.142857142857,4,2,1,50,1,0
104020,-100,4,2,1,50,0,0
104555,-100,4,2,1,60,0,0
105091,-100,4,2,1,70,0,0

[Colours]
Combo1 : 217,172,209
Combo2 : 180,180,180
Combo3 : 138,207,244
Combo4 : 241,205,97

[HitObjects]
128,272,918,5,2,0:0:0:0:
134,192,1100,1,2,0:0:0:0:
201,238,1283,1,2,0:0:0:0:
68,146,1466,6,0,L|77:32,1,113.999996520996,2|0,0:0|0:0,0:0:0:0:
211,124,2015,2,0,L|201:237,1,113.999996520996,2|0,0:0|0:0,0:0:0:0:
128,272,2545,1,2,0:0:0:0:
61,226,2729,1,2,0:0:0:0:
121,351,2913,5,2,0:0:0:0:
201,238,3097,2,0,L|257:242,1,56.9999982604981,2|0,0:0|0:0,0:0:0:0:
234,361,3465,2,0,L|120:351,1,113.999996520996,2|0,0:0|0:0,0:0:0:0:
56,282,4017,2,0,L|60:225,1,56.9999982604981,2|2,0:0|0:0,0:0:0:0:
211,124,4385,6,0,L|324:133,1,113.999996520996,2|0,0:0|0:0,0:0:0:0:
371,253,4937,2,0,L|257:243,1,113.999996520996,2|0,0:0|0:0,0:0:0:0:
324,134,5489,1,2,0:0:0:0:
371,253,5673,2,0,L|366:309,1,56.9999982604981,2|0,0:0|0:0,0:0:0:0:
366,310,6950,5,2,0:0:0:0:
430,263,7132,1,2,0:0:0:0:
301,356,7315,6,0,L|187:367,1,113.999996520996,2|0,0:0|0:0,0:0:0:0:
244,242,7864,2,0,L|357:230,1,113.999996520996,2|0,0:0|0:0,0:0:0:0:
430,263,8413,1,2,0:0:0:0:
494,216,8596,1,2,0:0:0:0:
439,342,8779,5,2,0:0:0:0:
421,183,8962,2,0,L|415:126,1,56.9999982604981,2|0,0:0|0:0,0:0:0:0:
278,24,9328,2,0,L|289:137,1,113.999996520996,2|0,0:0|0:0,0:0:0:0:
226,184,9876,1,2,0:0:0:0:
153,152,10059,1,2,0:0:0:0:
167,288,10242,6,0,L|161:231,1,56.9999982604981,2|0,0:0|0:0,0:0:0:0:
88,199,10608,1,2,0:0:0:0:
167,288,10791,2,0,L|172:344,1,56.9999982604981,2|0,0:0|0:0,0:0:0:0:
246,377,11157,1,2,0:0:0:0:
167,288,11340,2,0,L|110:293,2,56.9999982604981,2|0|0,0:0|0:0|0:0,0:0:0:0:
78,367,12614,5,2,0:0:0:0:
167,288,12788,1,2,0:0:0:0:
55,251,12963,1,2,0:0:0:0:
167,288,13137,6,0,L|173:212,1,76,2|0,3:2|0:0,0:0:0:0:
258,136,13485,2,0,L|264:211,1,76,2|2,3:2|0:0,0:0:0:0:
349,288,13834,2,0,L|355:212,1,76,0|0,3:0|0:0,0:0:0:0:
440,136,14183,2,0,L|446:211,1,76,2|2,3:2|0:0,0:0:0:0:
258,136,14532,6,0,L|264:61,1,76,0|2,3:0|0:0,0:0:0:0:
173,212,14881,2,0,L|179:137,1,76,0|2,3:0|0:0,0:0:0:0:
88,288,15230,2,0,L|94:213,1,76,0|0,3:0|0:0,0:0:0:0:
7,73,15578,1,2,3:2:0:0:
94,212,15753,1,2,3:2:0:0:
7,73,15927,6,0,L|82:79,1,76,2|0,3:2|0:0,0:0:0:0:
179,136,16276,2,0,L|254:142,1,76,2|2,3:2|0:0,0:0:0:0:
351,199,16625,2,0,L|426:205,1,76,0|0,3:0|0:0,0:0:0:0:
294,295,16974,1,0,3:0:0:0:
465,309,17148,1,0,3:0:0:0:
373,377,17323,6,0,L|379:302,1,76,0|0,3:0|0:0,0:0:0:0:
208,287,17671,2,0,L|202:362,1,76,0|0,3:0|0:0,0:0:0:0:
373,377,18020,2,0,L|448:383,1,76,2|0,3:2|0:0,0:0:0:0:
208,287,18369,2,0,L|133:281,1,76,2|0,3:2|0:0,0:0:0:0:
351,199,18718,6,0,L|357:124,1,76,2|0,3:2|0:0,0:0:0:0:
214,36,19067,2,0,L|208:111,1,76,2|2,3:2|0:0,0:0:0:0:
364,49,19416,2,0,L|289:43,1,76,0|2,3:0|0:0,0:0:0:0:
201,186,19764,2,0,L|276:192,1,76,2|0,3:2|0:0,0:0:0:0:
426,206,20113,6,0,L|432:131,1,76,0|0,3:0|0:0,0:0:0:0:
344,274,20462,2,0,L|338:349,1,76,0|0,3:0|0:0,0:0:0:0:
277,192,20811,2,0,L|283:117,1,76,0|2,3:0|0:0,0:0:0:0:
195,260,21160,1,0,3:0:0:0:
128,178,21334,1,2,3:2:0:0:
195,260,21509,6,0,L|201:335,1,76,2|0,3:2|0:0,0:0:0:0:
128,178,21857,2,0,L|122:103,1,76,0|4,3:0|0:0,0:0:0:0:
277,192,22206,1,2,3:2:0:0:
195,260,22381,1,8,3:0:0:0:
359,124,22555,1,8,0:0:0:0:
441,56,22730,1,4,3:0:0:0:
277,192,22904,6,0,L|267:78,1,114,2|0,3:2|0:0,0:0:0:0:
322,21,23253,1,2,3:2:0:0:
341,19,23340,2,0,L|378:15,1,38,8|0,0:0|0:0,0:0:0:0:
277,192,23602,2,0,L|202:186,1,76,2|0,3:2|0:0,0:0:0:0:
46,246,23950,1,2,3:2:0:0:
190,328,24125,2,0,L|227:324,1,38,8|8,0:0|0:0,0:0:0:0:
44,213,24299,6,0,P|38:141|31:71,1,142.5,4|0,0:0|0:0,0:0:0:0:
25,1,24648,1,8,0:0:0:0:
289,50,24823,2,0,P|282:121|277:192,1,142.5,4|0,0:0|0:0,0:0:0:0:
270,262,25171,1,0,3:0:0:0:
154,132,25346,1,8,0:0:0:0:
400,252,25520,6,0,P|406:180|413:110,1,142.5,4|0,0:0|0:0,0:0:0:0:
418,40,25869,1,0,3:0:0:0:
276,191,26043,1,8,0:0:0:0:
476,351,26218,2,0,P|404:344|333:339,1,142.5,4|0,0:0|0:0,0:0:0:0:
263,332,26567,1,4,0:0:0:0:
470,259,26741,1,12,0:0:0:0:
366,106,26916,2,0,L|413:110,1,47.5,2|2,0:0|0:0,0:0:0:0:
154,132,27090,6,0,P|91:161|74:228,1,142.5,4|0,0:0|0:0,0:0:0:0:
79,298,27439,1,8,0:0:0:0:
236,130,27613,2,0,P|207:67|140:50,1,142.5,4|0,0:0|0:0,0:0:0:0:
70,55,27962,1,0,3:0:0:0:
154,214,28137,1,8,0:0:0:0:
318,46,28311,6,0,P|387:39|435:89,1,142.5,4|0,0:0|0:0,0:0:0:0:
464,151,28660,1,0,3:0:0:0:
268,244,28834,1,8,0:0:0:0:
483,339,29009,2,0,P|489:269|439:221,1,142.5,4|0,0:0|0:0,0:0:0:0:
366,198,29357,1,4,0:0:0:0:
238,358,29532,1,12,0:0:0:0:
78,230,29706,2,0,L|31:226,1,47.5,2|2,0:0|0:0,0:0:0:0:
278,137,29881,6,0,B|336:129|384:100|384:100|379:129,1,142.5,4|0,0:0|0:0,0:0:0:0:
366,198,30230,1,8,0:0:0:0:
152,100,30404,2,0,B|94:92|46:63|46:63|50:92,1,142.5,4|0,0:0|0:0,0:0:0:0:
64,161,30753,1,0,3:0:0:0:
240,39,30927,1,8,0:0:0:0:
353,267,31102,6,0,B|295:275|247:304|247:304|251:274,1,142.5,4|0,0:0|0:0,0:0:0:0:
265,206,31450,1,0,3:0:0:0:
441,328,31625,1,8,0:0:0:0:
379,129,31799,2,0,B|371:71|342:23|342:23|372:27,1,142.5,4|0,0:0|0:0,0:0:0:0:
440,41,32148,1,4,0:0:0:0:
265,206,32323,2,0,L|170:197,1,95,12|0,0:0|0:0,0:0:0:0:
379,129,32671,5,4,0:0:0:0:
136,195,32846,1,0,3:0:0:0:
353,267,33020,1,8,0:0:0:0:
233,51,33195,2,0,P|161:58|90:63,1,142.5,4|0,0:0|0:0,0:0:0:0:
21,70,33543,1,0,3:0:0:0:
249,129,33718,1,8,0:0:0:0:
148,337,33892,6,0,P|142:265|136:195,1,142.5,4|0,0:0|0:0,0:0:0:0:
97,134,34241,1,8,0:0:0:0:
341,168,34416,1,8,0:0:0:0:
148,337,34590,1,8,0:0:0:0:
444,306,34764,1,8,0:0:0:0:
208,189,34939,1,8,0:0:0:0:
474,147,35113,1,8,0:0:0:0:
353,267,35288,1,0,3:0:0:0:
328,68,35462,6,0,P|265:27|193:44,1,152,2|0,3:2|3:0,0:0:0:0:
134,122,35985,1,0,0:0:0:0:
208,189,36160,2,0,L|283:182,1,76,0|0,3:0|0:0,0:0:0:0:
148,268,36509,2,0,L|72:261,1,76,0|0,3:0|0:0,0:0:0:0:
284,182,36857,6,0,P|356:197|394:261,1,152,0|2,3:0|3:2,0:0:0:0:
387,360,37381,1,2,0:0:0:0:
296,322,37555,2,0,L|220:329,1,76,0|0,3:0|3:0,0:0:0:0:
463,367,37904,2,0,L|387:360,1,76,8|0,3:2|0:0,0:0:0:0:
407,109,38253,6,0,P|399:184|393:260,1,152,2|0,3:2|3:0,0:0:0:0:
296,322,38776,1,0,0:0:0:0:
316,71,38950,2,0,P|308:146|302:222,1,152,0|0,3:0|3:0,0:0:0:0:
205,284,39474,1,2,0:0:0:0:
96,78,39648,6,0,P|150:27|224:32,1,152,0|2,3:0|3:2,0:0:0:0:
116,176,40171,1,2,0:0:0:0:
205,284,40346,2,0,L|211:208,1,76,0|0,3:0|3:0,0:0:0:0:
20,143,40695,2,0,L|26:218,1,76,8|0,3:2|0:0,0:0:0:0:
192,110,41043,6,0,P|267:104|343:95,1,152,0|0,3:0|3:0,0:0:0:0:
423,38,41567,1,0,0:0:0:0:
343,96,41741,2,0,L|349:171,1,76,0|0,3:0|0:0,0:0:0:0:
438,215,42090,2,0,L|431:290,1,76,0|2,3:0|0:0,0:0:0:0:
254,362,42439,6,0,P|231:291|266:226,1,152,2|2,3:2|3:2,0:0:0:0:
349,171,42962,1,0,0:0:0:0:
259,126,43137,2,0,L|183:133,1,76,0|0,3:0|3:0,0:0:0:0:
430,110,43485,2,0,L|506:103,1,76,8|0,3:2|0:0,0:0:0:0:
356,247,43834,6,0,L|349:172,1,76,2|0,3:2|0:0,0:0:0:0:
252,51,44183,2,0,L|259:126,1,76,0|0,3:0|0:0,0:0:0:0:
184,263,44532,2,0,L|177:187,1,76,0|0,3:0|0:0,0:0:0:0:
79,65,44881,2,0,L|85:140,1,76,0|0,3:0|0:0,0:0:0:0:
12,279,45230,5,8,0:0:0:0:
266,232,45404,1,8,0:0:0:0:
266,232,45753,1,2,3:2:0:0:
85,140,45927,1,10,0:0:0:0:
297,130,46102,2,0,L|259:126,1,38,2|2,3:2|3:2,0:0:0:0:
116,38,46276,1,10,0:0:0:0:
328,28,46450,2,0,L|290:24,1,38,0|0,3:0|3:0,0:0:0:0:
85,140,46625,6,0,P|93:225|99:310,1,170.999994781494,6|8,3:2|0:0,0:0:0:0:
235,334,47148,2,0,L|320:326,1,85.4999973907472,2|0,0:0|3:0,0:0:0:0:
449,277,47497,1,0,0:0:0:0:
369,150,47671,2,0,L|361:235,1,85.4999973907472,8|0,0:0|0:0,0:0:0:0:
179,254,48020,6,0,P|172:168|164:83,1,170.999994781494,2|8,3:2|0:0,0:0:0:0:
274,202,48543,1,2,0:0:0:0:
69,135,48718,1,0,3:0:0:0:
179,254,48892,1,0,3:0:0:0:
165,83,49067,2,0,L|250:75,1,85.4999973907472,8|0,0:0|0:0,0:0:0:0:
424,214,49416,6,0,P|351:173|273:202,1,170.999994781494,2|8,3:2|0:0,0:0:0:0:
423,73,49939,1,2,0:0:0:0:
482,294,50113,2,0,P|523:221|494:143,1,170.999994781494,2|8,3:2|0:0,0:0:0:0:
344,271,50637,1,2,0:0:0:0:
202,131,50811,6,0,P|210:216|216:301,1,170.999994781494,2|8,3:2|0:0,0:0:0:0:
106,384,51334,1,2,0:0:0:0:
124,247,51509,1,0,3:0:0:0:
14,330,51683,1,0,3:0:0:0:
216,301,51857,2,0,L|301:309,1,85.4999973907472,8|0,0:0|0:0,0:0:0:0:
32,193,52206,6,0,P|19:111|73:48,1,170.999994781494,2|8,3:2|0:0,0:0:0:0:
202,131,52730,2,0,L|117:139,1,85.4999973907472,2|0,0:0|3:0,0:0:0:0:
229,34,53078,1,0,0:0:0:0:
210,216,53253,2,0,L|202:131,1,85.4999973907472,8|0,0:0|0:0,0:0:0:0:
386,20,53602,6,0,P|378:105|372:190,1,170.999994781494,2|8,3:2|0:0,0:0:0:0:
301,309,54125,2,0,L|386:317,1,85.4999973907472,2|0,0:0|3:0,0:0:0:0:
500,240,54474,1,0,3:0:0:0:
372,190,54648,2,0,L|287:182,1,85.4999973907472,8|0,0:0|0:0,0:0:0:0:
116,79,54997,5,2,3:2:0:0:
231,81,55171,1,0,3:0:0:0:
287,182,55346,1,8,0:0:0:0:
227,280,55520,1,2,0:0:0:0:
231,81,55695,5,0,3:0:0:0:
402,184,55869,1,0,3:0:0:0:
346,83,56043,1,10,0:0:0:0:
342,282,56218,1,0,0:0:0:0:
172,180,56392,5,14,0:0:0:0:
346,83,56567,1,2,3:2:0:0:
342,282,56741,1,10,0:0:0:0:
231,81,56916,2,0,L|102:75,1,128.249996086121,10|0,0:0|0:0,0:0:0:0:
68,74,57264,1,10,0:0:0:0:
287,182,57439,1,2,3:2:0:0:
68,74,57613,1,10,0:0:0:0:
289,25,57788,5,4,0:0:0:0:
57,178,57962,1,4,0:0:0:0:
57,178,58311,2,0,P|140:184|188:252,1,170.999994781494,8|0,0:0|3:0,0:0:0:0:
89,320,58834,1,8,0:0:0:0:
273,352,59009,6,0,P|279:266|287:181,1,170.999994781494,4|0,0:0|3:0,0:0:0:0:
386,112,59532,2,0,P|428:109|471:104,1,85.4999973907472,10|2,0:0|0:0,0:0:0:0:
276,60,59881,2,0,P|233:57|190:52,1,85.4999973907472,2|2,0:0|0:0,0:0:0:0:
386,112,60230,1,8,0:0:0:0:
287,182,60404,1,0,0:0:0:0:
410,342,60578,6,0,P|424:260|372:197,1,170.999994781494,4|8,0:0|0:0,0:0:0:0:
202,167,61102,1,0,3:0:0:0:
301,11,61276,2,0,P|293:96|287:181,1,170.999994781494,2|8,0:0|0:0,0:0:0:0:
117,153,61799,1,2,0:0:0:0:
218,337,61974,6,0,P|211:251|202:166,1,170.999994781494,4|8,0:0|0:0,0:0:0:0:
32,139,62497,1,0,3:0:0:0:
171,86,62671,1,2,3:2:0:0:
63,220,62846,1,2,3:2:0:0:
202,167,63020,2,0,L|329:155,1,128.249996086121,10|0,0:0|0:0,0:0:0:0:
362,152,63369,5,4,0:0:0:0:
140,5,63543,1,4,0:0:0:0:
140,5,63892,2,0,P|225:13|310:20,1,170.999994781494,8|0,0:0|3:0,0:0:0:0:
426,52,64416,1,8,0:0:0:0:
360,252,64590,6,0,P|286:213|269:132,1,170.999994781494,4|0,0:0|3:0,0:0:0:0:
426,52,65113,2,0,L|433:137,1,85.4999973907472,8|0,0:0|0:0,0:0:0:0:
310,20,65462,1,2,3:2:0:0:
436,170,65637,1,8,0:0:0:0:
269,132,65811,1,8,0:0:0:0:
504,74,65985,1,0,3:0:0:0:
360,252,66160,5,12,0:0:0:0:
310,20,66334,1,0,3:0:0:0:
228,244,66509,1,8,0:0:0:0:
178,12,66683,1,0,3:0:0:0:
96,236,66857,5,8,0:0:0:0:
353,151,67032,1,0,3:0:0:0:
103,337,67206,1,8,0:0:0:0:
360,252,67381,1,0,3:0:0:0:
89,135,67555,5,8,0:0:0:0:
353,151,67730,1,0,3:0:0:0:
103,337,67904,1,8,0:0:0:0:
367,353,68078,1,0,3:0:0:0:
103,337,68253,6,0,L|8:330,1,95,2|0,0:0|3:0,0:0:0:0:
228,244,68602,1,8,0:0:0:0:
6,192,68776,1,0,0:0:0:0:
178,34,68950,6,0,L|319:46,1,142.5,4|0,0:0|0:0,0:0:0:0:
389,57,69299,1,8,0:0:0:0:
159,190,69474,1,8,0:0:0:0:
399,144,69648,1,8,0:0:0:0:
228,244,69823,1,8,0:0:0:0:
409,231,69997,1,0,3:0:0:0:
297,298,70171,1,0,3:0:0:0:
469,91,70346,1,12,0:0:0:0:
490,65,70695,5,8,0:0:0:0:
367,353,70869,1,12,0:0:0:0:
443,360,71218,6,0,P|405:355|367:353,1,76,2|2,0:0|0:0,0:0:0:0:
185,365,71567,6,0,P|91:331|76:232,1,209.000006378174,4|0,0:0|0:0,0:0:0:0:
279,167,72090,1,8,0:0:0:0:
107,65,72264,1,0,0:0:0:0:
166,269,72439,2,0,P|169:216|175:164,1,104.500003189087,2|0,0:0|0:0,0:0:0:0:
244,30,72788,1,8,0:0:0:0:
44,140,72962,1,0,3:0:0:0:
269,265,73137,6,0,B|333:267|363:217|363:217|393:167|443:169,1,209.000006378174,2|8,0:0|0:0,0:0:0:0:
279,167,73660,1,0,0:0:0:0:
437,371,73834,2,0,P|440:318|446:266,1,104.500003189087,2|0,0:0|0:0,0:0:0:0:
361,87,74183,1,8,0:0:0:0:
269,265,74357,1,0,3:0:0:0:
44,140,74532,6,0,L|148:149,1,104.500003189087,2|0,0:0|0:0,0:0:0:0:
373,273,74881,2,0,L|268:265,1,104.500003189087,10|0,0:0|0:0,0:0:0:0:
157,45,75230,2,0,L|148:149,1,104.500003189087,2|0,0:0|0:0,0:0:0:0:
269,265,75578,1,10,0:0:0:0:
361,87,75753,6,0,L|466:78,1,104.500003189087,2|0,0:0|0:0,0:0:0:0:
157,45,76102,1,0,3:0:0:0:
370,191,76276,2,0,L|361:87,1,104.500003189087,10|0,0:0|0:0,0:0:0:0:
148,149,76625,1,0,3:0:0:0:
370,191,76799,1,2,3:0:0:0:
139,253,76974,1,8,3:2:0:0:
264,118,77148,1,2,3:0:0:0:
0,135,77323,6,0,L|9:239,1,104.500003189087,2|0,0:0|0:0,0:0:0:0:
148,357,77671,2,0,L|139:253,1,104.500003189087,10|0,0:0|0:0,0:0:0:0:
264,118,78020,2,0,L|273:222,1,104.500003189087,2|0,0:0|0:0,0:0:0:0:
412,340,78369,1,10,0:0:0:0:
220,304,78543,6,0,B|308:307|379:271|379:271|346:288|342:323,1,209.000006378174,2|0,0:0|0:0,0:0:0:0:
329,130,79067,2,0,B|352:117|379:127|379:127|374:154|352:171,1,104.500003189087,10|0,0:0|0:0,0:0:0:0:
144,159,79416,2,0,B|122:145|117:118|117:118|142:108|169:121,1,104.500003189087,2|0,0:0|0:0,0:0:0:0:
265,303,79764,2,0,B|263:330|243:349|243:349|222:332|220:304,1,104.500003189087,10|0,0:0|0:0,0:0:0:0:
361,46,80113,6,0,P|448:88|432:184,2,209.000006378174,2|8|0,0:0|0:0|0:0,0:0:0:0:
244,197,80985,1,0,3:0:0:0:
351,349,81160,2,0,P|348:296|342:244,1,104.500003189087,10|0,0:0|0:0,0:0:0:0:
227,64,81509,5,12,0:0:0:0:
431,184,81683,1,8,0:0:0:0:
132,292,81857,1,2,3:0:0:0:
319,21,82032,2,0,P|326:99|332:177,1,156.750004783631,4|0,3:0|0:0,0:0:0:0:
342,245,82381,1,8,0:0:0:0:
114,151,82555,1,8,0:0:0:0:
313,338,82730,6,0,P|409:312|433:215,1,209.000006378174,4|0,0:0|0:0,0:0:0:0:
228,198,83253,1,8,0:0:0:0:
403,92,83427,1,0,0:0:0:0:
161,37,83602,2,0,P|108:34|56:28,1,104.500003189087,2|0,0:0|0:0,0:0:0:0:
316,145,83950,1,8,0:0:0:0:
140,251,84125,1,0,3:0:0:0:
387,317,84299,6,0,P|393:238|401:161,1,156.750004783631,2|0,0:0|0:0,0:0:0:0:
403,92,84648,1,8,0:0:0:0:
151,144,84823,1,0,3:0:0:0:
283,326,84997,2,0,P|334:320|387:317,1,104.500003189087,2|0,0:0|0:0,0:0:0:0:
277,118,85346,1,8,0:0:0:0:
488,188,85520,1,0,3:0:0:0:
283,326,85695,6,0,L|273:221,1,104.500003189087,2|0,0:0|0:0,0:0:0:0:
142,40,86043,2,0,L|151:144,1,104.500003189087,10|0,0:0|0:0,0:0:0:0:
52,346,86392,2,0,L|157:337,1,104.500003189087,2|0,0:0|0:0,0:0:0:0:
277,118,86741,1,10,0:0:0:0:
99,227,86916,1,2,0:0:0:0:
283,326,87090,6,0,L|388:318,1,104.500003189087,2|0,3:2|3:0,0:0:0:0:
505,122,87439,1,8,0:0:0:0:
387,318,87613,1,0,3:0:0:0:
277,118,87788,2,0,L|268:14,1,104.500003189087,8|0,0:0|3:0,0:0:0:0:
390,187,88137,1,8,0:0:0:0:
151,144,88311,6,0,P|59:184|51:283,1,209.000006378174,4|0,0:0|0:0,0:0:0:0:
286,222,88834,2,0,L|276:117,1,104.500003189087,10|0,0:0|0:0,0:0:0:0:
101,57,89183,1,0,3:0:0:0:
136,239,89357,1,0,3:0:0:0:
276,117,89532,2,0,L|266:12,1,104.500003189087,8|0,0:0|0:0,0:0:0:0:
311,299,89881,5,0,3:0:0:0:
451,177,90055,1,0,3:0:0:0:
276,117,90230,2,0,L|171:126,1,104.500003189087,8|0,0:0|0:0,0:0:0:0:
442,281,90578,2,0,P|445:228|451:176,1,104.500003189087,2|0,0:0|0:0,0:0:0:0:
172,126,90927,2,0,P|177:177|180:230,1,104.500003189087,10|0,0:0|0:0,0:0:0:0:
380,352,91276,6,0,P|348:282|377:212,1,156.750004783631,4|0,0:0|0:0,0:0:0:0:
451,177,91625,1,10,0:0:0:0:
180,230,91799,1,2,0:0:0:0:
321,23,91974,2,0,L|426:32,1,104.500003189087,0|0,3:0|0:0,0:0:0:0:
172,126,92323,5,10,0:0:0:0:
380,352,92497,1,10,0:0:0:0:
380,352,93543,6,0,L|403:349,2,23.75,0|0|0,3:0|3:0|3:0,0:0:0:0:
303,359,93718,1,8,0:0:0:0:
303,359,94067,6,0,P|231:365|161:372,1,142.5,4|0,0:0|0:0,0:0:0:0:
91,378,94416,1,8,0:0:0:0:
172,126,94590,2,0,P|243:133|314:138,1,142.5,4|0,0:0|0:0,0:0:0:0:
384,145,94939,1,0,3:0:0:0:
237,261,95113,1,8,0:0:0:0:
23,114,95288,6,0,P|30:185|35:256,1,142.5,4|0,0:0|0:0,0:0:0:0:
42,326,95637,1,0,3:0:0:0:
172,126,95811,1,8,0:0:0:0:
371,286,95985,2,0,P|376:213|384:143,1,142.5,4|0,0:0|0:0,0:0:0:0:
389,72,96334,1,4,0:0:0:0:
237,261,96509,1,12,0:0:0:0:
465,198,96683,2,0,L|512:202,1,47.5,2|2,0:0|0:0,0:0:0:0:
257,339,96857,6,0,P|189:323|158:261,1,142.5,4|0,0:0|0:0,0:0:0:0:
148,192,97206,1,8,0:0:0:0:
383,144,97381,2,0,P|367:211|305:242,1,142.5,4|0,0:0|0:0,0:0:0:0:
237,261,97730,1,0,3:0:0:0:
272,29,97904,1,8,0:0:0:0:
74,161,98078,6,0,P|126:115|195:126,1,142.5,4|0,0:0|0:0,0:0:0:0:
227,191,98427,1,0,3:0:0:0:
14,298,98602,1,8,0:0:0:0:
257,339,98776,2,0,P|189:323|158:261,1,142.5,4|0,0:0|0:0,0:0:0:0:
148,192,99125,1,4,0:0:0:0:
272,29,99299,1,12,0:0:0:0:
66,57,99474,2,0,L|18:52,1,47.5,2|2,0:0|0:0,0:0:0:0:
272,124,99648,6,0,B|330:126|382:105|382:105|372:133,1,142.5,4|0,0:0|0:0,0:0:0:0:
347,198,99998,1,8,0:0:0:0:
86,277,100174,2,0,B|78:219|50:171|50:171|79:176,1,142.5,4|0,0:0|0:0,0:0:0:0:
148,192,100525,1,0,3:0:0:0:
272,29,100700,1,8,0:0:0:0:
323,263,100876,6,0,B|265:261|213:282|213:282|223:254,1,142.5,4|0,0:0|0:0,0:0:0:0:
248,189,101226,1,0,3:0:0:0:
398,337,101402,1,8,0:0:0:0:
471,97,101577,2,0,B|446:150|443:205|443:205|421:185,1,142.5,4|0,0:0|0:0,0:0:0:0:
371,133,101928,1,4,0:0:0:0:
259,347,102104,2,0,L|164:355,1,95,12|0,0:0|0:0,0:0:0:0:
79,176,102455,5,4,0:0:0:0:
323,263,102630,1,0,3:0:0:0:
31,306,102805,1,8,0:0:0:0:
183,49,102981,2,0,P|255:56|326:61,1,142.5,4|0,0:0|0:0,0:0:0:0:
395,68,103332,1,0,3:0:0:0:
201,219,103507,1,8,0:0:0:0:
445,307,103683,1,4,0:0:0:0:
445,307,104020,5,2,0:0:0:0:
323,263,104198,1,2,0:0:0:0:
201,219,104377,1,2,0:0:0:0:
423,180,104555,5,2,0:0:0:0:
223,346,104734,1,2,0:0:0:0:
179,92,104912,1,2,0:0:0:0:
323,263,105091,6,0,L|338:281,1,23.75,10|0,0:0|0:0,0:0:0:0:
179,92,105627,6,0,B|162:74|137:60|137:60|157:139|168:205|168:205|174:264|144:286|113:289|85:276|79:245|104:223|131:240,1,380,12|0,0:0|0:0,0:0:0:0:
