osu file format v14

[General]
AudioFilename: audio.mp3
AudioLeadIn: 0
PreviewTime: 71218
Countdown: 0
SampleSet: Soft
StackLeniency: 0.5
Mode: 0
LetterboxInBreaks: 0
WidescreenStoryboard: 1

[Editor]
DistanceSpacing: 1.5
BeatDivisor: 4
GridSize: 16
TimelineZoom: 1.5

[Metadata]
Title:Tobenai Mahoutsukai
TitleUnicode:飛べない魔法使い
Artist:yanaginagi
ArtistUnicode:やなぎなぎ
Creator:Dored
Version:Silky's Insane
Source:しゅぷれ~むキャンディ ~王道には王道たる理由があるんです!~
Tags:Supreme Candy Galgame Eroge Visual Novel Opening Short Version Makura Reincarnation Necho DalouBot Hidden me 84461810 fuyuyu- Mamayu Kanau Silky
BeatmapID:1930054
BeatmapSetID:867830

[Difficulty]
HPDrainRate:7
CircleSize:4
OverallDifficulty:8
ApproachRate:9.2
SliderMultiplier:1.82
SliderTickRate:1

[Events]
//Background and Video events
0,0,"Insane3.jpg",0,0
//Break Periods
//Storyboard Layer 0 (Background)
//Storyboard Layer 1 (Fail)
//Storyboard Layer 2 (Pass)
//Storyboard Layer 3 (Foreground)
//Storyboard Sound Samples

[TimingPoints]
-1460,365.853658536585,4,2,1,30,1,0
2545,368.098159509202,4,2,1,30,1,0
2913,368.098159509202,4,2,1,30,1,0
6950,365.853658536585,4,2,1,30,1,0
7315,365.853658536585,4,2,1,30,1,0
12440,348.837209302326,4,2,1,45,1,0
12440,-133.333333333333,4,2,1,45,0,0
13137,348.837209302326,4,2,1,45,1,0
13137,-133.333333333333,4,2,1,45,0,0
24299,-100,4,2,1,65,0,0
33456,-100,4,2,1,5,0,0
33543,-100,4,2,1,65,0,0
35462,-133.333333333333,4,2,1,45,0,0
46625,-100,4,2,1,60,0,0
57788,-111.111111111111,4,2,1,60,0,0
66160,-100,4,2,1,65,0,0
71567,-100,4,2,1,75,0,1
82293,-100,4,2,1,5,0,1
82381,-100,4,2,1,75,0,1
82642,-100,4,2,1,75,0,0
82730,-100,4,2,1,75,0,1
92497,-100,4,2,1,75,0,0
93543,-100,4,2,1,55,0,0
94067,-100,4,2,1,65,0,0
99648,350.877192982456,4,2,1,65,1,0
103244,-100,4,2,1,5,0,0
103332,-100,4,2,1,65,0,0
104020,357.142857142857,4,2,1,50,1,0
104020,-133.333333333333,4,2,1,50,0,0
104555,-133.333333333333,4,2,1,60,0,0
105091,-133.333333333333,4,2,1,70,0,0
105627,-100,4,2,1,70,0,0
106341,-100,4,2,1,5,0,0

[Colours]
Combo1 : 217,172,209
Combo2 : 180,180,180
Combo3 : 138,207,244
Combo4 : 241,205,97

[HitObjects]
24,357,12614,5,2,0:0:0:0:
36,201,12788,2,0,P|51:235|61:284,1,68.250002603531,2|2,0:0|0:0,0:0:0:0:
24,357,13137,6,0,P|71:310|137:318,1,136.500005207062,2|2,3:2|3:2,0:0:0:0:
282,380,13660,2,0,P|295:344|301:302,1,68.250002603531,2|0,0:0|3:0,0:0:0:0:
298,210,14009,1,0,0:0:0:0:
195,194,14183,2,0,P|201:227|213:259,1,68.250002603531,2|2,3:2|0:0,0:0:0:0:
265,118,14532,5,0,3:0:0:0:
192,48,14706,2,0,P|154:38|118:32,1,68.250002603531,2|0,0:0|3:0,0:0:0:0:
4,144,15055,2,0,P|37:135|70:129,1,68.250002603531,2|0,0:0|3:0,0:0:0:0:
195,194,15404,1,0,0:0:0:0:
89,294,15578,2,0,P|94:258|104:219,1,68.250002603531,2|2,3:2|3:2,0:0:0:0:
182,345,15927,6,0,P|234:385|300:374,1,136.500005207062,2|2,3:2|3:2,0:0:0:0:
386,323,16450,2,0,P|421:330|476:345,1,68.250002603531,2|0,0:0|3:0,0:0:0:0:
375,167,16799,1,0,0:0:0:0:
512,225,16974,2,0,P|478:231|445:240,1,68.250002603531,0|0,3:0|3:0,0:0:0:0:
273,181,17323,6,0,P|280:111|296:41,1,136.500005207062,0|0,3:0|3:0,0:0:0:0:
273,181,18020,2,0,P|239:187|206:196,1,68.250002603531,2|0,3:2|0:0,0:0:0:0:
98,76,18369,2,0,P|107:107|116:148,1,68.250002603531,2|0,3:2|0:0,0:0:0:0:
22,251,18718,6,0,P|90:236|143:287,1,136.500005207062,2|2,3:2|3:2,0:0:0:0:
218,384,19241,2,0,P|222:349|231:305,1,68.250002603531,2|0,0:0|3:0,0:0:0:0:
328,245,19590,1,2,0:0:0:0:
392,347,19764,2,0,P|354:358|310:363,1,68.250002603531,2|0,3:2|0:0,0:0:0:0:
432,197,20113,6,0,P|465:202|498:212,1,68.250002603531,0|0,3:0|0:0,0:0:0:0:
328,245,20462,2,0,P|317:174|354:116,1,136.500005207062,0|0,3:0|3:0,0:0:0:0:
442,22,20985,2,0,P|453:55|459:88,1,68.250002603531,2|0,0:0|3:0,0:0:0:0:
432,197,21334,1,2,3:2:0:0:
328,245,21509,6,0,P|260:232|172:221,1,136.500005207062,2|0,3:2|3:0,0:0:0:0:
74,153,22032,1,4,0:0:0:0:
112,290,22206,1,2,3:2:0:0:
157,94,22381,1,8,3:0:0:0:
0,202,22555,2,0,P|33:194|66:188,1,68.250002603531,8|4,0:0|3:0,0:0:0:0:
247,135,22904,6,0,P|255:102|261:58,1,68.250002603531,2|0,3:2|0:0,0:0:0:0:
174,233,23253,1,2,3:2:0:0:
174,233,23340,1,8,0:0:0:0:
174,233,23427,1,0,0:0:0:0:
337,175,23602,1,2,3:2:0:0:
157,94,23776,1,0,0:0:0:0:
285,267,23950,1,2,3:2:0:0:
78,360,24125,5,8,0:0:0:0:
78,360,24212,1,8,0:0:0:0:
78,360,24299,2,0,B|44:313|44:313|68:188,1,182,4|8,0:0|0:0,0:0:0:0:
285,267,24823,2,0,P|231:276|179:288,1,91,4|0,0:0|0:0,0:0:0:0:
246,135,25171,1,0,3:0:0:0:
407,208,25346,1,8,0:0:0:0:
372,31,25520,6,0,P|360:74|346:135,1,91,4|0,0:0|0:0,0:0:0:0:
512,237,25869,2,0,P|501:192|489:148,1,91,0|8,3:0|0:0,0:0:0:0:
264,43,26218,2,0,P|187:30|126:106,1,182,4|4,0:0|0:0,0:0:0:0:
2,235,26741,2,0,P|43:223|97:215,1,91,12|2,0:0|0:0,0:0:0:0:
218,128,27090,6,0,P|202:227|191:325,1,182,4|8,0:0|0:0,0:0:0:0:
395,382,27613,2,0,P|386:335|377:288,1,91,4|0,0:0|0:0,0:0:0:0:
345,174,27962,1,0,3:0:0:0:
280,353,28137,1,8,0:0:0:0:
466,311,28311,6,0,P|422:300|378:292,1,91,4|0,0:0|0:0,0:0:0:0:
167,179,28660,2,0,P|212:171|256:159,1,91,0|8,3:0|0:0,0:0:0:0:
442,53,29009,2,0,P|497:125|469:210,1,182,4|4,0:0|0:0,0:0:0:0:
360,365,29532,2,0,P|352:321|342:273,1,91,12|2,0:0|0:0,0:0:0:0:
330,245,29793,5,2,0:0:0:0:
330,245,29881,2,0,P|242:220|171:291,1,182,4|8,0:0|0:0,0:0:0:0:
17,358,30404,2,0,P|56:365|111:381,1,91,4|0,0:0|0:0,0:0:0:0:
264,320,30753,1,0,3:0:0:0:
98,186,30927,1,8,0:0:0:0:
250,100,31102,6,0,P|260:142|268:189,1,91,4|0,0:0|0:0,0:0:0:0:
158,361,31450,2,0,P|166:316|177:272,1,91,0|8,3:0|0:0,0:0:0:0:
417,348,31799,2,0,P|347:294|264:320,1,182,4|4,0:0|0:0,0:0:0:0:
98,186,32323,2,0,P|147:176|206:163,1,91,12|0,0:0|0:0,0:0:0:0:
408,114,32671,5,4,0:0:0:0:
226,35,32846,1,0,3:0:0:0:
304,214,33020,1,8,0:0:0:0:
480,166,33195,2,0,B|504:120|504:120|479:38,1,136.5,4|0,0:0|0:0,0:0:0:0:
468,11,33543,1,0,3:0:0:0:
297,112,33718,1,8,0:0:0:0:
439,253,33892,1,4,0:0:0:0:
439,253,34241,5,8,0:0:0:0:
304,214,34416,1,8,0:0:0:0:
408,114,34590,1,8,0:0:0:0:
304,339,34764,1,8,0:0:0:0:
467,237,34939,1,8,0:0:0:0:
242,133,35113,1,8,0:0:0:0:
369,272,35288,1,0,3:0:0:0:
210,375,35462,6,0,P|143:359|58:349,1,136.500005207062,2|0,3:2|3:0,0:0:0:0:
7,269,35985,1,0,0:0:0:0:
91,184,36160,2,0,P|102:220|111:271,1,68.250002603531,0|0,3:0|0:0,0:0:0:0:
184,136,36509,1,0,3:0:0:0:
93,75,36683,1,0,0:0:0:0:
194,24,36857,6,0,P|260:39|331:48,1,136.500005207062,0|2,3:0|3:2,0:0:0:0:
455,139,37381,2,0,P|446:103|431:64,1,68.250002603531,2|0,0:0|3:0,0:0:0:0:
341,157,37730,1,0,3:0:0:0:
412,241,37904,2,0,P|446:250|486:257,1,68.250002603531,8|0,3:2|0:0,0:0:0:0:
351,339,38253,6,0,P|286:325|227:369,1,136.500005207062,2|0,3:2|3:0,0:0:0:0:
55,303,38776,1,0,0:0:0:0:
131,384,38950,2,0,P|147:317|158:250,1,136.500005207062,0|0,3:0|3:0,0:0:0:0:
129,86,39474,1,2,0:0:0:0:
61,182,39648,6,0,P|130:168|198:157,1,136.500005207062,0|2,3:0|3:2,0:0:0:0:
381,104,40171,2,0,P|346:96|313:88,1,68.250002603531,2|0,0:0|3:0,0:0:0:0:
215,39,40520,1,0,3:0:0:0:
284,183,40695,2,0,P|279:216|271:250,1,68.250002603531,8|0,3:2|0:0,0:0:0:0:
209,379,41043,6,0,P|259:337|347:367,1,136.500005207062,0|0,3:0|3:0,0:0:0:0:
435,384,41567,1,0,0:0:0:0:
496,288,41741,2,0,P|487:256|478:210,1,68.250002603531,0|0,3:0|0:0,0:0:0:0:
402,150,42090,1,0,3:0:0:0:
379,249,42264,1,2,0:0:0:0:
479,92,42439,6,0,P|423:53|358:66,1,136.500005207062,2|2,3:2|3:2,0:0:0:0:
243,0,42962,2,0,P|253:31|263:70,1,68.250002603531,0|0,0:0|3:0,0:0:0:0:
220,169,43311,1,0,3:0:0:0:
113,141,43485,2,0,P|121:107|131:75,1,68.250002603531,8|0,3:2|0:0,0:0:0:0:
148,249,43834,5,2,3:2:0:0:
148,249,44183,1,0,3:0:0:0:
68,382,44357,1,0,0:0:0:0:
239,296,44532,1,0,3:0:0:0:
77,184,44706,1,0,0:0:0:0:
137,316,44881,2,0,P|142:282|148:249,1,68.250002603531,0|0,3:0|0:0,0:0:0:0:
302,147,45230,5,8,0:0:0:0:
364,366,45404,1,8,0:0:0:0:
364,366,45753,5,2,3:2:0:0:
239,296,45927,1,10,0:0:0:0:
423,183,46102,1,2,3:2:0:0:
423,183,46189,1,2,3:2:0:0:
423,183,46276,1,10,0:0:0:0:
453,381,46450,5,0,3:0:0:0:
453,381,46538,1,0,3:0:0:0:
453,381,46625,2,0,P|404:371|358:365,1,91,6|0,3:2|0:0,0:0:0:0:
281,187,46974,1,8,0:0:0:0:
429,275,47148,1,2,0:0:0:0:
330,104,47323,2,0,P|259:91|187:170,1,182,0|8,3:0|0:0,0:0:0:0:
232,343,47846,1,0,0:0:0:0:
72,293,48020,6,0,P|112:281|180:265,1,91,2|0,3:2|0:0,0:0:0:0:
281,187,48369,1,8,0:0:0:0:
337,340,48543,1,2,0:0:0:0:
188,164,48718,2,0,P|197:115|213:50,1,91,0|0,3:0|3:0,0:0:0:0:
47,16,49067,2,0,P|57:60|65:105,1,91,8|0,0:0|0:0,0:0:0:0:
11,268,49416,6,0,B|63:237|63:237|201:266,1,182,2|8,3:2|0:0,0:0:0:0:
316,165,49939,1,2,0:0:0:0:
185,55,50113,2,0,P|197:102|210:163,1,91,2|0,3:2|0:0,0:0:0:0:
341,26,50462,1,8,0:0:0:0:
415,216,50637,1,2,0:0:0:0:
297,140,50811,6,0,P|341:131|388:121,1,91,2|0,3:2|0:0,0:0:0:0:
512,228,51160,1,8,0:0:0:0:
421,354,51334,2,0,P|376:344|331:335,1,91,2|0,0:0|3:0,0:0:0:0:
139,236,51683,1,0,3:0:0:0:
238,384,51857,1,8,0:0:0:0:
282,180,52032,1,0,0:0:0:0:
96,366,52206,6,0,P|49:359|-13:346,1,91,2|0,3:2|0:0,0:0:0:0:
117,204,52555,1,8,0:0:0:0:
241,303,52730,2,0,P|281:292|351:280,1,91,2|0,0:0|3:0,0:0:0:0:
511,220,53078,1,0,0:0:0:0:
413,102,53253,2,0,P|402:144|394:201,1,91,8|0,0:0|0:0,0:0:0:0:
476,360,53602,6,0,P|405:308|322:337,1,182,2|8,3:2|0:0,0:0:0:0:
126,237,54125,1,2,0:0:0:0:
285,159,54299,1,0,3:0:0:0:
229,374,54474,1,0,3:0:0:0:
99,230,54648,1,8,0:0:0:0:
304,273,54823,1,0,0:0:0:0:
207,75,54997,6,0,P|197:119|190:173,1,91,2|0,3:2|3:0,0:0:0:0:
115,319,55346,2,0,P|108:274|98:229,1,91,8|2,0:0|0:0,0:0:0:0:
8,115,55695,2,0,P|51:125|103:134,1,91,0|0,3:0|3:0,0:0:0:0:
294,241,56043,2,0,P|249:248|204:259,1,91,10|0,0:0|0:0,0:0:0:0:
57,337,56392,5,14,0:0:0:0:
180,174,56567,1,2,3:2:0:0:
263,360,56741,1,10,0:0:0:0:
98,229,56916,1,10,0:0:0:0:
168,369,57090,5,0,3:0:0:0:
294,241,57264,1,10,0:0:0:0:
97,133,57439,1,2,3:2:0:0:
190,272,57613,1,10,0:0:0:0:
363,173,57788,5,4,0:0:0:0:
363,173,57962,1,4,0:0:0:0:
161,45,58311,1,8,0:0:0:0:
241,198,58660,2,0,P|248:157|254:117,1,81.8999975006104,0|8,3:0|0:0,0:0:0:0:
1,194,59009,6,0,P|46:148|146:165,1,163.799995001221,4|0,0:0|3:0,0:0:0:0:
249,304,59532,1,10,0:0:0:0:
84,237,59706,1,2,0:0:0:0:
172,375,59881,1,2,0:0:0:0:
241,198,60055,1,2,0:0:0:0:
58,273,60230,2,0,P|98:283|150:292,1,81.8999975006104,8|0,0:0|0:0,0:0:0:0:
302,384,60578,6,0,P|379:357|460:352,1,163.799995001221,4|8,0:0|0:0,0:0:0:0:
367,143,61102,1,0,3:0:0:0:
496,260,61276,2,0,P|457:251|394:242,1,81.8999975006104,2|0,0:0|0:0,0:0:0:0:
459,61,61625,2,0,P|473:102|482:154,1,81.8999975006104,8|2,0:0|0:0,0:0:0:0:
306,265,61974,6,0,P|217:269|171:211,1,163.799995001221,4|8,0:0|0:0,0:0:0:0:
214,49,62497,1,0,3:0:0:0:
262,189,62671,1,2,3:2:0:0:
114,110,62846,1,2,3:2:0:0:
316,8,63020,1,10,0:0:0:0:
127,245,63369,5,4,0:0:0:0:
127,245,63543,1,4,0:0:0:0:
365,325,63892,1,8,0:0:0:0:
272,186,64241,2,0,P|263:226|256:276,1,81.8999975006104,0|8,3:0|0:0,0:0:0:0:
53,345,64590,6,0,P|141:336|196:393,1,163.799995001221,4|0,0:0|3:0,0:0:0:0:
444,305,65113,2,0,P|402:317|359:325,1,81.8999975006104,8|0,0:0|0:0,0:0:0:0:
165,162,65462,1,2,3:2:0:0:
383,217,65637,1,8,0:0:0:0:
256,315,65811,1,8,0:0:0:0:
316,120,65985,5,0,3:0:0:0:
316,120,66073,1,0,0:0:0:0:
316,120,66160,2,0,P|363:111|408:99,1,91,12|0,0:0|3:0,0:0:0:0:
500,262,66509,2,0,P|456:250|411:242,1,91,8|0,0:0|3:0,0:0:0:0:
256,315,66857,1,8,0:0:0:0:
165,162,67032,1,0,3:0:0:0:
101,369,67206,1,8,0:0:0:0:
278,218,67381,1,0,3:0:0:0:
70,81,67555,5,8,0:0:0:0:
169,275,67730,1,0,3:0:0:0:
169,275,67817,1,0,3:0:0:0:
169,275,67904,1,8,0:0:0:0:
212,33,68078,1,0,3:0:0:0:
0,183,68253,2,0,P|46:192|95:206,1,91,2|0,0:0|3:0,0:0:0:0:
329,326,68602,2,0,P|282:335|234:349,1,91,8|0,0:0|0:0,0:0:0:0:
214,369,68863,1,0,0:0:0:0:
214,369,68950,1,4,0:0:0:0:
214,369,69299,5,8,0:0:0:0:
255,161,69474,1,8,0:0:0:0:
329,326,69648,1,8,0:0:0:0:
154,218,69823,1,8,0:0:0:0:
373,136,69997,1,0,3:0:0:0:
146,68,70171,1,0,3:0:0:0:
255,262,70346,1,12,0:0:0:0:
255,262,70695,5,8,0:0:0:0:
312,14,70869,1,12,0:0:0:0:
30,334,71567,6,0,P|128:319|186:386,1,182,4|0,0:0|0:0,0:0:0:0:
322,215,72090,1,8,0:0:0:0:
411,382,72264,1,0,0:0:0:0:
234,281,72439,2,0,P|220:236|208:173,1,91,2|0,0:0|0:0,0:0:0:0:
366,89,72788,1,8,0:0:0:0:
451,282,72962,1,0,3:0:0:0:
322,215,73137,6,0,P|409:188|501:173,1,182,2|8,0:0|0:0,0:0:0:0:
263,88,73660,1,0,0:0:0:0:
389,1,73834,2,0,P|375:44|365:88,1,91,2|0,0:0|0:0,0:0:0:0:
451,282,74183,1,8,0:0:0:0:
322,215,74357,1,0,3:0:0:0:
256,384,74532,6,0,P|206:373|150:365,1,91,2|0,0:0|0:0,0:0:0:0:
13,261,74881,2,0,P|57:253|102:243,1,91,10|0,0:0|0:0,0:0:0:0:
246,160,75230,1,2,0:0:0:0:
134,78,75404,1,0,0:0:0:0:
231,285,75578,1,10,0:0:0:0:
375,134,75753,6,0,P|367:90|355:39,1,91,2|0,0:0|0:0,0:0:0:0:
491,168,76102,1,0,3:0:0:0:
352,274,76276,2,0,P|440:256|502:329,1,182,10|0,0:0|3:0,0:0:0:0:
300,376,76799,1,2,3:0:0:0:
246,146,76974,1,8,3:2:0:0:
352,274,77148,1,2,3:0:0:0:
145,376,77323,6,0,P|98:366|27:358,1,91,2|0,0:0|0:0,0:0:0:0:
234,224,77671,2,0,P|245:269|254:319,1,91,10|0,0:0|0:0,0:0:0:0:
21,186,78020,1,2,0:0:0:0:
205,113,78195,1,0,0:0:0:0:
127,264,78369,1,10,0:0:0:0:
93,48,78543,1,2,0:0:0:0:
234,224,78718,1,0,0:0:0:0:
234,224,79067,6,0,P|278:213|326:204,1,91,10|0,0:0|0:0,0:0:0:0:
502,148,79416,2,0,P|457:136|413:128,1,91,2|0,0:0|0:0,0:0:0:0:
320,0,79764,2,0,P|310:44|305:102,1,91,10|0,0:0|0:0,0:0:0:0:
476,317,80113,6,0,B|422:282|422:282|291:312,1,182,2|8,0:0|0:0,0:0:0:0:
139,384,80637,1,0,0:0:0:0:
184,211,80811,2,0,P|195:253|206:314,1,91,0|0,0:0|3:0,0:0:0:0:
48,193,81160,1,10,0:0:0:0:
174,97,81334,1,0,0:0:0:0:
91,300,81509,5,12,0:0:0:0:
273,226,81683,2,0,P|230:218|178:210,1,91,8|2,0:0|3:0,0:0:0:0:
19,90,82032,2,0,B|58:121|58:121|143:104,1,136.5,4|8,3:0|0:0,0:0:0:0:
174,97,82381,1,8,0:0:0:0:
293,252,82555,1,8,0:0:0:0:
471,148,82730,6,0,P|490:76|397:-3,1,182,4|0,0:0|0:0,0:0:0:0:
320,120,83253,1,8,0:0:0:0:
487,247,83427,1,0,0:0:0:0:
365,297,83602,2,0,P|376:246|387:200,1,91,2|0,0:0|0:0,0:0:0:0:
249,374,83950,1,8,0:0:0:0:
152,192,84125,1,0,3:0:0:0:
31,328,84299,6,0,P|109:305|219:288,1,182,2|8,0:0|0:0,0:0:0:0:
162,85,84823,1,0,3:0:0:0:
63,176,84997,2,0,P|107:185|152:192,1,91,2|0,0:0|0:0,0:0:0:0:
305,229,85346,1,8,0:0:0:0:
412,114,85520,1,0,3:0:0:0:
289,10,85695,6,0,P|277:56|268:107,1,91,2|0,0:0|0:0,0:0:0:0:
172,280,86043,2,0,P|163:235|152:191,1,91,10|0,0:0|0:0,0:0:0:0:
116,73,86392,1,2,0:0:0:0:
256,191,86567,1,0,0:0:0:0:
58,274,86741,1,10,0:0:0:0:
252,367,86916,6,0,P|294:356|357:346,1,91,2|2,0:0|3:2,0:0:0:0:
443,257,87264,1,0,3:0:0:0:
256,191,87439,1,8,0:0:0:0:
474,129,87613,1,0,3:0:0:0:
289,53,87788,1,8,0:0:0:0:
368,202,87962,1,0,3:0:0:0:
420,0,88137,1,8,0:0:0:0:
256,191,88311,6,0,P|178:205|107:126,1,182,4|0,0:0|0:0,0:0:0:0:
145,0,88834,1,10,0:0:0:0:
215,104,89009,1,0,0:0:0:0:
7,162,89183,2,0,P|13:116|25:63,1,91,0|0,3:0|3:0,0:0:0:0:
88,270,89532,2,0,P|40:281|-7:290,1,91,8|0,0:0|0:0,0:0:0:0:
173,384,89881,6,0,P|233:333|333:372,1,182,0|8,3:0|0:0,0:0:0:0:
484,238,90404,1,0,0:0:0:0:
374,145,90578,2,0,P|364:189|358:240,1,91,2|0,0:0|0:0,0:0:0:0:
512,352,90927,2,0,P|461:339|385:327,1,91,10|0,0:0|0:0,0:0:0:0:
257,197,91276,5,4,0:0:0:0:
170,384,91450,1,0,0:0:0:0:
356,281,91625,1,10,0:0:0:0:
133,220,91799,1,2,0:0:0:0:
374,145,91974,5,0,3:0:0:0:
156,87,92148,1,0,0:0:0:0:
240,315,92323,1,10,0:0:0:0:
289,45,92497,1,10,0:0:0:0:
289,45,93543,6,0,L|276:14,2,22.75,0|0|0,3:0|3:0|3:0,0:0:0:0:
303,78,93718,2,0,P|290:123|283:172,1,91,8|0,0:0|0:0,0:0:0:0:
423,331,94067,6,0,P|357:272|273:294,1,182,4|8,0:0|0:0,0:0:0:0:
141,383,94590,2,0,P|94:372|50:366,1,91,4|0,0:0|0:0,0:0:0:0:
170,249,94939,1,0,3:0:0:0:
33,183,95113,1,8,0:0:0:0:
135,61,95288,6,0,P|146:109|155:162,1,91,4|0,0:0|0:0,0:0:0:0:
273,294,95637,2,0,P|281:249|291:204,1,91,0|8,3:0|0:0,0:0:0:0:
400,102,95985,2,0,P|336:40|245:59,1,182,4|4,0:0|0:0,0:0:0:0:
398,216,96509,2,0,P|442:206|512:196,1,91,12|2,0:0|0:0,0:0:0:0:
368,349,96857,6,0,P|278:334|188:322,1,182,4|8,0:0|0:0,0:0:0:0:
12,292,97381,2,0,P|22:338|35:397,1,91,4|0,0:0|0:0,0:0:0:0:
203,197,97730,1,0,3:0:0:0:
54,120,97904,1,8,0:0:0:0:
117,315,98078,6,0,P|161:306|206:298,1,91,4|0,0:0|0:0,0:0:0:0:
374,176,98427,2,0,P|329:167|284:158,1,91,0|8,3:0|0:0,0:0:0:0:
463,282,98776,2,0,B|496:233|496:233|471:102,1,182,4|4,0:0|0:0,0:0:0:0:
309,259,99299,2,0,P|317:303|324:348,1,91,12|2,0:0|0:0,0:0:0:0:
332,382,99561,5,2,0:0:0:0:
332,382,99648,2,0,P|254:340|177:380,1,182,4|8,0:0|0:0,0:0:0:0:
12,292,100174,2,0,P|55:283|106:273,1,91,4|0,0:0|0:0,0:0:0:0:
219,196,100525,1,0,3:0:0:0:
45,141,100700,1,8,0:0:0:0:
174,28,100876,6,0,P|162:73|150:133,1,91,4|0,0:0|0:0,0:0:0:0:
329,221,101226,2,0,P|319:176|308:132,1,91,0|8,3:0|0:0,0:0:0:0:
177,380,101577,2,0,P|249:330|350:375,1,182,4|4,0:0|0:0,0:0:0:0:
512,252,102104,2,0,P|465:245|408:236,1,91,12|0,0:0|0:0,0:0:0:0:
228,202,102455,5,4,0:0:0:0:
433,133,102630,1,0,3:0:0:0:
244,40,102805,1,8,0:0:0:0:
313,265,102981,2,0,B|337:224|337:224|315:124,1,136.5,4|0,0:0|0:0,0:0:0:0:
310,109,103332,1,0,3:0:0:0:
149,211,103507,1,8,0:0:0:0:
70,23,103683,1,4,0:0:0:0:
70,23,104020,5,2,0:0:0:0:
129,162,104198,2,0,P|133:130|142:90,1,68.250002603531,2|2,0:0|0:0,0:0:0:0:
239,160,104555,1,2,0:0:0:0:
124,297,104734,1,2,0:0:0:0:
232,263,104912,1,2,0:0:0:0:
302,368,105091,1,10,0:0:0:0:
302,368,105627,6,0,B|382:345|452:387|452:387|511:356|520:291|466:243|414:255|383:289,1,364,12|0,0:0|0:0,0:0:0:0:
