osu file format v14

[General]
AudioFilename: audio.mp3
AudioLeadIn: 0
PreviewTime: 71218
Countdown: 0
SampleSet: Soft
StackLeniency: 0.3
Mode: 0
LetterboxInBreaks: 0
WidescreenStoryboard: 1

[Editor]
Bookmarks: 105699,106225
DistanceSpacing: 0.3
BeatDivisor: 2
GridSize: 4
TimelineZoom: 1.2

[Metadata]
Title:Tobenai Mahoutsukai
TitleUnicode:飛べない魔法使い
Artist:yanaginagi
ArtistUnicode:やなぎなぎ
Creator:Dored
Version:Rein's Another
Source:しゅぷれ~むキャンディ ~王道には王道たる理由があるんです!~
Tags:Supreme Candy Galgame Eroge Visual Novel Opening Short Version Makura Reincarnation Necho DalouBot Hidden me 84461810 fuyuyu- Mamayu Kanau Silky
BeatmapID:1814076
BeatmapSetID:867830

[Difficulty]
HPDrainRate:6
CircleSize:5
OverallDifficulty:7.5
ApproachRate:9
SliderMultiplier:1.6
SliderTickRate:1

[Events]
//Background and Video events
0,0,"Insane1.jpg",0,0
//Break Periods
//Storyboard Layer 0 (Background)
//Storyboard Layer 1 (Fail)
//Storyboard Layer 2 (Pass)
//Storyboard Layer 3 (Foreground)
//Storyboard Sound Samples

[TimingPoints]
-1460,365.853658536585,4,2,1,30,1,0
918,-200,4,2,1,30,0,0
2545,368.098159509202,4,2,1,30,1,0
2913,368.098159509202,4,2,1,30,1,0
2913,-200,4,2,1,30,0,0
6950,365.853658536585,4,2,1,30,1,0
7315,365.853658536585,4,2,1,30,1,0
7315,-200,4,2,1,30,0,0
12440,348.837209302326,4,2,1,30,1,0
12614,-133.333333333333,4,2,1,50,0,0
13137,348.837209302326,4,2,1,45,1,0
24299,-100,4,2,1,65,0,0
24561,-100,4,2,1,5,0,0
24648,-100,4,2,1,65,0,0
25084,-100,4,2,1,5,0,0
25171,-100,4,2,1,65,0,0
25782,-100,4,2,1,5,0,0
25869,-100,4,2,1,65,0,0
26480,-100,4,2,1,5,0,0
26567,-100,4,2,1,65,0,0
27352,-100,4,2,1,5,0,0
27439,-100,4,2,1,65,0,0
27875,-100,4,2,1,5,0,0
27962,-100,4,2,1,65,0,0
28573,-100,4,2,1,5,0,0
28660,-100,4,2,1,65,0,0
29270,-100,4,2,1,5,0,0
29357,-100,4,2,1,65,0,0
30142,-100,4,2,1,5,0,0
30230,-100,4,2,1,65,0,0
30666,-100,4,2,1,5,0,0
30753,-100,4,2,1,65,0,0
31363,-100,4,2,1,5,0,0
31450,-100,4,2,1,65,0,0
32061,-100,4,2,1,5,0,0
32148,-100,4,2,1,65,0,0
33456,-100,4,2,1,5,0,0
33543,-100,4,2,1,65,0,0
34154,-100,4,2,1,5,0,0
34241,-100,4,2,1,65,0,0
35462,-100,4,2,1,45,0,0
46625,-100,4,2,1,60,0,0
57177,-100,4,2,1,5,0,0
57264,-100,4,2,1,60,0,0
63282,-100,4,2,1,5,0,0
63369,-100,4,2,1,60,0,0
66160,-100,4,2,1,65,0,0
69212,-100,4,2,1,5,0,0
69299,-100,4,2,1,65,0,0
71218,-100,4,2,1,60,0,0
71567,-100,4,2,1,75,0,0
82293,-100,4,2,1,5,0,0
82381,-100,4,2,1,75,0,0
84561,-100,4,2,1,5,0,0
84648,-100,4,2,1,75,0,0
91538,-100,4,2,1,5,0,0
91625,-100,4,2,1,75,0,0
92497,-100,4,2,1,75,0,0
93543,-100,4,2,1,55,0,0
94067,-100,4,2,1,65,0,0
94328,-100,4,2,1,5,0,0
94416,-100,4,2,1,65,0,0
94852,-100,4,2,1,5,0,0
94939,-100,4,2,1,65,0,0
95549,-100,4,2,1,5,0,0
95637,-100,4,2,1,65,0,0
96247,-100,4,2,1,5,0,0
96334,-100,4,2,1,65,0,0
97119,-100,4,2,1,5,0,0
97206,-100,4,2,1,65,0,0
97642,-100,4,2,1,5,0,0
97730,-100,4,2,1,65,0,0
98340,-100,4,2,1,5,0,0
98427,-100,4,2,1,65,0,0
99038,-100,4,2,1,5,0,0
99125,-100,4,2,1,65,0,0
99648,350.877192982456,4,2,1,65,1,0
99911,-100,4,2,1,5,0,0
99998,-100,4,2,1,65,0,0
100437,-100,4,2,1,5,0,0
100525,-100,4,2,1,65,0,0
101139,-100,4,2,1,5,0,0
101226,-100,4,2,1,65,0,0
101840,-100,4,2,1,5,0,0
101928,-100,4,2,1,65,0,0
103244,-100,4,2,1,5,0,0
103332,-100,4,2,1,65,0,0
104020,357.142857142857,4,2,1,50,1,0
104020,-100,4,2,1,50,0,0
104555,-100,4,2,1,60,0,0
105091,-100,4,2,1,70,0,0

[Colours]
Combo1 : 217,172,209
Combo2 : 180,180,180
Combo3 : 138,207,244
Combo4 : 241,205,97

[HitObjects]
399,126,918,6,0,L|402:82,2,40,2|2|2,0:0|0:0|0:0,0:0:0:0:
438,29,1466,2,0,P|391:18|353:42,1,80,2|0,0:0|0:0,0:0:0:0:
292,51,2015,2,0,B|308:73|308:73|302:131,1,80,2|0,0:0|0:0,0:0:0:0:
217,206,2545,1,2,0:0:0:0:
106,168,2729,1,2,0:0:0:0:
122,100,2913,5,2,0:0:0:0:
186,78,3097,2,0,P|190:110|185:125,1,40,2|0,0:0|0:0,0:0:0:0:
106,168,3465,2,0,P|94:211|114:248,1,80,2|0,0:0|0:0,0:0:0:0:
217,206,4017,1,2,0:0:0:0:
257,107,4201,1,2,0:0:0:0:
188,117,4385,2,0,P|232:127|262:94,1,80,2|0,0:0|0:0,0:0:0:0:
121,146,4937,2,0,P|77:136|47:169,1,80,2|0,0:0|0:0,0:0:0:0:
27,221,5489,5,2,0:0:0:0:
170,196,5673,1,2,0:0:0:0:
36,237,5857,2,0,P|69:261|118:242,1,80
170,196,6409,2,0,P|203:172|252:191,1,80
301,216,6950,5,2,0:0:0:0:
245,104,7132,1,2,0:0:0:0:
287,43,7315,2,0,B|345:26|345:26|364:54,1,80,2|0,0:0|0:0,0:0:0:0:
429,102,7863,2,0,B|439:118|439:118|497:101,1,80,2|0,0:0|0:0,0:0:0:0:
507,33,8412,1,2,0:0:0:0:
356,4,8595,1,2,0:0:0:0:
335,119,8778,5,2,0:0:0:0:
290,25,8961,2,0,B|270:17|270:17|241:20,1,40,2|0,0:0|0:0,0:0:0:0:
182,94,9327,2,0,B|162:102|162:102|133:99,1,40,2|0,0:0|0:0,0:0:0:0:
44,43,9693,1,0,0:0:0:0:
105,7,9875,1,2,0:0:0:0:
69,108,10058,1,2,0:0:0:0:
72,124,10241,6,0,P|108:135|146:110,1,80,2|2,0:0|0:0,0:0:0:0:
205,18,10790,2,0,P|241:7|286:30,1,80,2|0,0:0|0:0,0:0:0:0:
387,66,11339,2,0,P|308:40|252:98,1,160,2|0,0:0|0:0,0:0:0:0:
225,267,12436,5,0,0:0:0:0:
321,166,12614,2,0,P|333:126|319:98,2,60.0000022888184,2|2|2,0:0|0:0|0:0,0:0:0:0:
197,246,13137,6,0,P|257:213|299:213,1,80,2|0,3:2|0:0,0:0:0:0:
321,166,13398,1,0,0:0:0:0:
329,175,13485,2,0,P|394:194|424:223,1,80,2|2,3:2|0:0,0:0:0:0:
474,208,13747,1,0,0:0:0:0:
473,220,13834,2,0,P|506:280|506:322,1,80,0|0,3:0|0:0,0:0:0:0:
446,140,14183,5,2,3:2:0:0:
496,60,14357,1,2,0:0:0:0:
484,55,14445,1,0,0:0:0:0:
472,50,14532,6,0,P|426:51|403:86,1,80,0|2,3:0|0:0,0:0:0:0:
346,110,14793,1,0,0:0:0:0:
346,119,14881,2,0,P|300:120|277:155,1,80,0|2,3:0|0:0,0:0:0:0:
220,179,15142,1,0,0:0:0:0:
220,188,15230,2,0,L|141:159,1,80,0|0,3:0|0:0,0:0:0:0:
289,48,15578,2,0,P|256:21|199:45,1,80,2|2,3:2|3:2,0:0:0:0:
144,160,15927,6,0,B|198:141|198:141|181:131|178:117,1,80,2|0,3:2|0:0,0:0:0:0:
158,2,16189,1,0,0:0:0:0:
149,10,16276,2,0,B|138:66|138:66|155:56|169:60,1,80,2|2,3:2|0:0,0:0:0:0:
278,101,16538,1,0,0:0:0:0:
276,89,16625,2,0,B|232:51|232:51|232:71|221:81,1,80,0|0,3:0|0:0,0:0:0:0:
188,221,16974,2,0,P|234:219|258:186,1,80,0|0,3:0|3:0,0:0:0:0:
200,300,17323,6,0,B|184:316|184:316|178:380,1,80,0|0,3:0|0:0,0:0:0:0:
92,299,17671,2,0,B|108:283|108:283|114:219,1,80,0|0,3:0|0:0,0:0:0:0:
43,139,18020,6,0,B|33:127|33:127|57:102|109:119,1,80,2|0,3:2|0:0,0:0:0:0:
165,144,18282,1,0,0:0:0:0:
156,151,18369,2,0,B|146:163|146:163|170:188|222:171,1,80,2|0,3:2|0:0,0:0:0:0:
370,105,18718,5,2,3:2:0:0:
278,26,18892,2,0,P|261:44|261:79,1,40,0|0,0:0|0:0,0:0:0:0:
297,114,19067,1,2,3:2:0:0:
243,62,19241,2,0,P|248:110|278:150,1,80,2|0,0:0|3:0,0:0:0:0:
406,167,19590,1,2,0:0:0:0:
458,5,19764,2,0,P|415:9|395:58,1,80,2|0,3:2|0:0,0:0:0:0:
362,226,20113,6,0,B|396:205|396:205|456:218,1,80,0|0,3:0|0:0,0:0:0:0:
506,229,20375,1,0,0:0:0:0:
512,223,20462,2,0,L|502:311,1,80,0|0,3:0|0:0,0:0:0:0:
389,290,20811,2,0,P|366:299|332:285,2,40,0|0|2,3:0|0:0|0:0,0:0:0:0:
445,343,21160,1,0,3:0:0:0:
295,220,21334,1,2,3:2:0:0:
283,290,21509,6,0,P|235:274|186:300,1,80,2|0,3:2|0:0,0:0:0:0:
93,365,21857,1,0,3:0:0:0:
147,316,22032,2,0,B|142:300|142:300|106:286,1,40,4|0,0:0|0:0,0:0:0:0:
53,306,22206,1,2,3:2:0:0:
196,367,22381,1,8,3:0:0:0:
150,231,22555,1,8,0:0:0:0:
120,291,22730,1,4,3:0:0:0:
138,164,22904,6,0,P|98:129|49:152,1,80,2|0,3:2|0:0,0:0:0:0:
2,190,23253,1,2,3:2:0:0:
18,185,23340,2,0,P|46:148|42:106,1,80,8|0,0:0|0:0,0:0:0:0:
39,100,23602,5,2,3:2:0:0:
143,55,23776,1,0,0:0:0:0:
8,0,23950,1,2,3:2:0:0:
187,107,24125,1,8,0:0:0:0:
191,119,24212,1,8,0:0:0:0:
194,130,24299,6,0,B|165:134|150:146|150:146|123:141|123:141|107:153|71:150,1,120,4|0,0:0|0:0,0:0:0:0:
64,157,24648,1,8,0:0:0:0:
104,233,24823,2,0,B|119:217|144:231|144:231|171:272|119:316,1,120,4|0,0:0|0:0,0:0:0:0:
121,308,25171,1,0,3:0:0:0:
31,224,25346,1,8,0:0:0:0:
69,357,25520,2,0,P|113:323|189:349,1,120,4|0,0:0|0:0,0:0:0:0:
186,346,25869,1,0,3:0:0:0:
256,374,26043,1,8,0:0:0:0:
326,346,26218,6,0,B|355:330|384:337|384:337|415:360|470:331,1,120,4|0,0:0|0:0,0:0:0:0:
457,336,26567,1,4,0:0:0:0:
371,261,26741,1,12,0:0:0:0:
439,166,26916,1,2,0:0:0:0:
441,343,27090,6,0,B|457:333|457:333|465:218,1,120,4|0,0:0|0:0,0:0:0:0:
480,226,27439,1,8,0:0:0:0:
371,261,27613,2,0,B|394:269|394:269|398:189|398:189|360:199,1,120,4|0,0:0|0:0,0:0:0:0:
371,197,27962,1,0,3:0:0:0:
304,295,28137,1,8,0:0:0:0:
182,289,28311,6,0,P|169:249|88:254,1,120,4|0,0:0|0:0,0:0:0:0:
85,252,28660,1,0,3:0:0:0:
178,363,28834,1,8,0:0:0:0:
247,252,29009,2,0,P|190:240|197:303,1,120,4|0,0:0|0:0,0:0:0:0:
195,298,29357,1,4,0:0:0:0:
302,206,29532,1,12,0:0:0:0:
272,61,29706,1,2,0:0:0:0:
213,100,29881,6,0,B|197:103|192:120|192:120|218:163|293:135,1,120,4|0,0:0|0:0,0:0:0:0:
285,134,30230,1,8,0:0:0:0:
170,42,30404,2,0,B|146:55|134:77|134:77|99:49|41:61,1,120,4|0,0:0|0:0,0:0:0:0:
51,59,30753,1,0,3:0:0:0:
15,122,30927,1,8,0:0:0:0:
54,180,31102,6,0,B|78:162|113:171|113:171|140:193|182:171,1,120,4|0,0:0|0:0,0:0:0:0:
183,165,31450,1,0,3:0:0:0:
92,236,31625,1,8,0:0:0:0:
219,233,31799,2,0,B|240:219|240:219|230:329,1,120,4|0,0:0|0:0,0:0:0:0:
222,327,32148,1,4,0:0:0:0:
309,228,32323,2,0,P|348:212|398:229,1,80,12|0,0:0|0:0,0:0:0:0:
503,301,32671,5,4,0:0:0:0:
446,184,32846,2,0,L|452:118,1,40,0|0,3:0|0:0,0:0:0:0:
506,229,33020,5,8,0:0:0:0:
433,323,33195,2,0,L|428:378,1,40,4|0,0:0|0:0,0:0:0:0:
429,362,33543,6,0,L|377:350,1,40,0|0,3:0|0:0,0:0:0:0:
378,242,33718,2,0,L|326:230,1,40,8|0,0:0|0:0,0:0:0:0:
327,122,33892,2,0,L|275:110,1,40,4|0,0:0|0:0,0:0:0:0:
288,113,34241,6,0,L|255:153,1,40,8|0,0:0|0:0,0:0:0:0:
264,41,34416,2,0,L|297:1,1,40,8|0,0:0|0:0,0:0:0:0:
218,93,34590,6,0,L|178:60,1,40,8|0,0:0|0:0,0:0:0:0:
333,59,34764,2,0,L|373:92,1,40,8|0,0:0|0:0,0:0:0:0:
174,189,34939,6,0,L|207:149,1,40,8|0,0:0|0:0,0:0:0:0:
348,151,35113,2,0,L|315:191,1,40,8|0,0:0|0:0,0:0:0:0:
227,280,35288,6,0,L|187:247,1,40,0|0,3:0|0:0,0:0:0:0:
278,233,35462,5,2,3:2:0:0:
346,340,35637,1,0,0:0:0:0:
334,339,35724,1,0,0:0:0:0:
322,338,35811,1,0,3:0:0:0:
337,270,35985,1,0,0:0:0:0:
458,200,36160,5,0,3:0:0:0:
493,328,36334,1,0,0:0:0:0:
470,192,36509,2,0,P|437:164|377:186,1,80,0|0,3:0|0:0,0:0:0:0:
340,197,36770,1,0,0:0:0:0:
348,211,36857,5,0,3:0:0:0:
390,97,37032,1,0,0:0:0:0:
379,91,37119,1,0,0:0:0:0:
368,86,37206,1,2,3:2:0:0:
391,18,37381,1,2,0:0:0:0:
308,131,37555,6,0,L|263:143,1,40,0|0,3:0|0:0,0:0:0:0:
203,119,37730,2,0,L|158:131,1,40,0|0,3:0|0:0,0:0:0:0:
100,147,37904,1,8,3:2:0:0:
172,27,38078,1,0,0:0:0:0:
0,67,38253,6,0,P|46:61|84:113,1,80,2|0,3:2|0:0,0:0:0:0:
100,147,38514,1,0,0:0:0:0:
110,160,38602,2,0,P|113:215|71:244,1,80,0|0,3:0|0:0,0:0:0:0:
0,366,38950,6,0,P|17:323|81:316,1,80,0|0,3:0|0:0,0:0:0:0:
118,300,39212,1,0,0:0:0:0:
134,297,39299,2,0,P|181:326|181:377,1,80,0|2,3:0|0:0,0:0:0:0:
291,291,39648,6,0,P|346:295|377:263,1,80,0|0,3:0|0:0,0:0:0:0:
404,221,39910,1,0,0:0:0:0:
415,212,39997,2,0,P|470:208|501:240,1,80,2|2,3:2|0:0,0:0:0:0:
441,346,40346,2,0,L|379:339,1,40,0|0,3:0|0:0,0:0:0:0:
447,281,40520,2,0,L|509:288,1,40,0|0,3:0|0:0,0:0:0:0:
339,368,40695,1,8,3:2:0:0:
320,229,40869,1,0,0:0:0:0:
369,172,41043,5,0,3:0:0:0:
488,220,41218,1,0,0:0:0:0:
489,208,41305,1,0,0:0:0:0:
490,196,41392,1,0,3:0:0:0:
439,150,41567,1,0,0:0:0:0:
498,36,41741,6,0,P|452:24|407:52,1,80,0|0,3:0|0:0,0:0:0:0:
385,97,42003,1,0,0:0:0:0:
378,108,42090,2,0,P|332:120|287:92,1,80,0|2,3:0|0:0,0:0:0:0:
198,20,42439,5,2,3:2:0:0:
238,128,42613,1,0,0:0:0:0:
235,139,42700,1,0,0:0:0:0:
232,150,42788,1,2,3:2:0:0:
296,180,42962,1,0,0:0:0:0:
160,156,43137,6,0,L|100:169,1,40,0|0,3:0|0:0,0:0:0:0:
144,90,43311,2,0,B|132:75|132:75|138:50,1,40,0|0,3:0|0:0,0:0:0:0:
74,113,43485,1,8,3:2:0:0:
37,246,43660,2,0,B|57:239|57:239|81:260,1,40,0|0,0:0|0:0,0:0:0:0:
118,306,43834,6,0,P|161:313|194:269,1,80,2|0,3:2|0:0,0:0:0:0:
218,201,44096,1,0,0:0:0:0:
207,205,44183,2,0,P|179:238|201:289,1,80,0|0,3:0|0:0,0:0:0:0:
247,344,44445,1,0,0:0:0:0:
249,332,44532,2,0,P|233:291|178:284,1,80,0|0,3:0|0:0,0:0:0:0:
105,300,44793,1,0,0:0:0:0:
118,306,44881,2,0,B|153:328|153:328|98:353,1,80,0|0,3:0|0:0,0:0:0:0:
26,189,45230,6,0,L|37:254,1,40,8|0,0:0|0:0,0:0:0:0:
120,62,45404,2,0,L|109:127,1,40,8|0,0:0|0:0,0:0:0:0:
117,51,45753,5,2,3:2:0:0:
222,136,45927,1,10,0:0:0:0:
259,80,46102,2,0,B|245:66|245:66|212:71,1,40,2|2,3:2|3:2,0:0:0:0:
261,0,46276,1,10,0:0:0:0:
321,36,46450,1,0,3:0:0:0:
325,47,46538,1,0,3:0:0:0:
330,57,46625,6,0,L|416:44,1,80,6|0,3:2|0:0,0:0:0:0:
301,216,46974,2,0,L|215:203,1,80,8|2,0:0|0:0,0:0:0:0:
371,120,47323,1,0,3:0:0:0:
396,225,47497,1,0,0:0:0:0:
405,218,47584,1,0,0:0:0:0:
414,211,47671,1,8,0:0:0:0:
438,146,47846,1,0,0:0:0:0:
342,273,48020,6,0,P|345:317|395:341,1,80,2|0,3:2|0:0,0:0:0:0:
438,146,48369,1,8,0:0:0:0:
426,141,48456,1,0,0:0:0:0:
414,136,48543,1,2,0:0:0:0:
402,131,48631,1,0,0:0:0:0:
400,101,48718,2,0,L|290:124,1,80,0|0,3:0|3:0,0:0:0:0:
309,114,48980,1,0,0:0:0:0:
297,111,49067,1,8,0:0:0:0:
322,45,49241,1,0,0:0:0:0:
270,176,49416,5,2,3:2:0:0:
235,157,49503,1,0,0:0:0:0:
197,168,49590,1,0,0:0:0:0:
177,201,49677,1,0,0:0:0:0:
176,239,49764,5,8,0:0:0:0:
291,276,49939,2,0,B|311:274|311:274|347:307,1,40,2|0,0:0|0:0,0:0:0:0:
289,348,50113,2,0,B|291:369|291:369|212:359,1,80,2|0,3:2|0:0,0:0:0:0:
102,235,50462,1,8,0:0:0:0:
16,302,50637,2,0,L|13:351,1,40,2|0,0:0|0:0,0:0:0:0:
75,375,50811,5,2,3:2:0:0:
158,317,50985,1,0,0:0:0:0:
170,315,51073,1,0,0:0:0:0:
181,313,51160,1,8,0:0:0:0:
210,250,51334,1,2,0:0:0:0:
140,179,51509,1,0,3:0:0:0:
157,63,51683,2,0,L|111:75,1,40,0|0,3:0|0:0,0:0:0:0:
49,93,51857,2,0,B|63:115|63:115|56:191,1,80,8|0,0:0|0:0,0:0:0:0:
44,309,52206,6,0,P|72:290|92:289,2,40,2|0|0,3:2|0:0|0:0,0:0:0:0:
89,359,52555,1,8,0:0:0:0:
214,316,52730,1,2,0:0:0:0:
221,306,52817,1,0,0:0:0:0:
228,296,52904,2,0,B|243:258|243:258|219:205,1,80,0|0,3:0|0:0,0:0:0:0:
81,144,53253,2,0,B|66:182|66:182|90:235,1,80,8|0,0:0|0:0,0:0:0:0:
270,167,53602,6,0,B|293:150|293:150|228:140,1,80,2|0,3:2|0:0,0:0:0:0:
156,128,53863,1,0,0:0:0:0:
169,134,53950,2,0,P|222:125|224:74,1,80,8|2,0:0|0:0,0:0:0:0:
112,9,54299,5,0,3:0:0:0:
234,37,54474,1,0,3:0:0:0:
167,56,54648,1,8,0:0:0:0:
62,120,54823,2,0,B|49:136|49:136|51:161,1,40,0|0,0:0|0:0,0:0:0:0:
107,196,54997,5,2,3:2:0:0:
208,132,55171,1,0,3:0:0:0:
219,130,55259,1,0,0:0:0:0:
230,128,55346,1,8,0:0:0:0:
285,168,55520,1,2,0:0:0:0:
174,227,55695,5,0,3:0:0:0:
320,86,55869,1,0,3:0:0:0:
322,97,55956,1,0,0:0:0:0:
324,108,56043,1,10,0:0:0:0:
252,63,56218,1,0,0:0:0:0:
454,53,56392,6,0,B|473:77|473:77|390:70,1,80,14|2,0:0|3:2,0:0:0:0:
343,211,56741,2,0,L|391:198,1,40,10|0,0:0|0:0,0:0:0:0:
445,233,56916,2,0,L|493:220,1,40,10|0,0:0|0:0,0:0:0:0:
439,162,57090,5,0,0:0:0:0:
450,305,57264,2,0,L|498:292,1,40,10|0,0:0|0:0,0:0:0:0:
381,200,57439,5,2,3:2:0:0:
392,343,57613,2,0,L|440:330,1,40,10|0,0:0|0:0,0:0:0:0:
317,173,57788,5,4,0:0:0:0:
320,162,57962,1,4,0:0:0:0:
178,337,58311,2,0,B|154:302|108:321|108:321|85:345|45:344,1,120,8|0,0:0|0:0,0:0:0:0:
50,348,58660,1,0,3:0:0:0:
98,251,58834,1,8,0:0:0:0:
31,169,59009,6,0,P|27:229|92:246,1,120,4|0,0:0|0:0,0:0:0:0:
98,251,59357,5,0,3:0:0:0:
150,203,59532,1,10,0:0:0:0:
239,230,59706,5,2,0:0:0:0:
291,182,59881,1,2,0:0:0:0:
380,209,60055,5,2,0:0:0:0:
432,161,60230,2,0,P|399:218|420:245,1,80,8|0,0:0|0:0,0:0:0:0:
502,144,60578,6,0,P|469:98|387:100,1,120,4|0,0:0|0:0,0:0:0:0:
394,93,60927,1,8,0:0:0:0:
432,161,61102,1,0,3:0:0:0:
356,24,61276,2,0,B|338:47|338:47|228:61,1,120,2|0,0:0|0:0,0:0:0:0:
231,61,61625,1,8,0:0:0:0:
59,8,61799,1,2,0:0:0:0:
126,28,61974,6,0,B|160:45|160:45|142:148,1,120,4|0,0:0|0:0,0:0:0:0:
132,138,62323,1,8,0:0:0:0:
64,157,62497,1,0,3:0:0:0:
186,187,62671,2,0,B|221:166|221:166|263:178,1,80,2|2,3:2|3:2,0:0:0:0:
141,303,63020,2,0,P|98:329|59:307,1,80,10|0,0:0|0:0,0:0:0:0:
258,176,63369,5,4,0:0:0:0:
259,161,63543,1,4,0:0:0:0:
51,329,63892,2,0,P|115:323|160:392,1,120,8|0,0:0|0:0,0:0:0:0:
160,374,64241,1,0,3:0:0:0:
206,317,64416,1,8,0:0:0:0:
319,372,64590,6,0,B|344:354|376:368|376:368|410:383|450:358,1,120,4|0,0:0|0:0,0:0:0:0:
448,355,64939,1,0,3:0:0:0:
479,206,65113,2,0,B|436:222|436:222|470:294,1,120,8|0,0:0|0:0,0:0:0:0:
483,294,65462,2,0,L|509:301,2,20,2|0|0,3:2|0:0|0:0,0:0:0:0:
413,278,65637,5,8,0:0:0:0:
343,261,65811,1,8,0:0:0:0:
273,244,65985,2,0,B|260:260|260:260|280:282,1,40,0|0,3:0|0:0,0:0:0:0:
346,247,66160,5,12,0:0:0:0:
402,204,66334,1,0,3:0:0:0:
367,140,66509,5,8,0:0:0:0:
423,97,66683,1,0,3:0:0:0:
459,157,66857,5,8,0:0:0:0:
434,88,67032,2,0,B|417:75|417:75|381:82,1,40,0|0,3:0|0:0,0:0:0:0:
341,124,67206,1,8,0:0:0:0:
361,19,67381,1,0,3:0:0:0:
285,168,67555,5,8,0:0:0:0:
275,98,67730,1,0,3:0:0:0:
299,239,67904,2,0,B|242:248|242:248|280:275,1,80,8|0,0:0|3:0,0:0:0:0:
355,282,68253,6,0,P|330:339|267:331,1,120,2|0,0:0|0:0,0:0:0:0:
265,331,68602,1,8,0:0:0:0:
201,359,68776,1,0,0:0:0:0:
133,346,68950,6,0,B|88:351|88:351|80:359|80:359|9:367,1,120,4|0,0:0|0:0,0:0:0:0:
0,362,69299,5,8,0:0:0:0:
31,291,69474,1,8,0:0:0:0:
9,211,69648,5,8,0:0:0:0:
40,282,69823,1,8,0:0:0:0:
4,200,69997,5,0,3:0:0:0:
35,129,70171,1,0,3:0:0:0:
197,77,70346,2,0,B|203:63|219:54|219:54|151:67|144:134,1,120,12|0,0:0|0:0,0:0:0:0:
143,121,70695,1,8,0:0:0:0:
260,112,70869,2,0,P|279:160|364:154,1,120,12|0,0:0|0:0,0:0:0:0:
359,165,71218,6,0,P|384:128|373:76,1,80,2|2,0:0|0:0,0:0:0:0:
303,258,71567,2,0,B|334:237|368:246|368:246|422:281|480:239,1,160,4|0,0:0|0:0,0:0:0:0:
500,192,72090,1,8,0:0:0:0:
434,165,72264,1,0,0:0:0:0:
390,279,72439,1,2,0:0:0:0:
455,253,72613,1,0,0:0:0:0:
395,102,72788,1,8,0:0:0:0:
326,306,72962,6,0,P|302:291|263:299,1,40,0|0,3:0|0:0,0:0:0:0:
230,320,73137,1,2,0:0:0:0:
168,349,73311,1,0,0:0:0:0:
229,157,73485,1,8,0:0:0:0:
290,189,73660,1,0,0:0:0:0:
154,54,73834,2,0,P|151:107|189:128,1,80,2|0,0:0|0:0,0:0:0:0:
323,43,74183,5,8,0:0:0:0:
257,18,74357,2,0,P|230:31|216:58,1,40,0|0,3:0|0:0,0:0:0:0:
340,111,74532,6,0,P|405:105|451:63,1,120,2|0,0:0|0:0,0:0:0:0:
465,56,74881,2,0,P|429:103|373:121,1,120,10|0,0:0|0:0,0:0:0:0:
349,129,75230,6,0,P|414:123|460:81,1,120,2|0,0:0|0:0,0:0:0:0:
474,74,75578,2,0,P|455:109|434:129,1,40,10|0,0:0|0:0,0:0:0:0:
315,200,75753,1,2,0:0:0:0:
399,234,75927,6,0,P|334:198|310:207,1,80,0|0,0:0|3:0,0:0:0:0:
313,17,76276,2,0,B|293:11|293:11|309:90,1,80,10|0,0:0|0:0,0:0:0:0:
441,71,76625,1,0,3:0:0:0:
374,60,76799,1,2,3:0:0:0:
441,175,76974,1,8,3:2:0:0:
496,217,77148,1,2,3:0:0:0:
442,338,77323,6,0,B|358:360|358:360|369:343|367:325,1,120,2|0,0:0|0:0,0:0:0:0:
345,337,77671,2,0,B|261:359|261:359|272:342|270:324,1,120,10|0,0:0|0:0,0:0:0:0:
264,311,78020,2,0,B|225:297|197:321|197:321|179:344|121:335,1,120,2|0,0:0|0:0,0:0:0:0:
132,335,78369,1,10,0:0:0:0:
212,238,78543,1,2,0:0:0:0:
101,170,78718,6,0,P|176:177|200:135,1,120,0|0,0:0|0:0,0:0:0:0:
198,126,79067,5,10,0:0:0:0:
132,105,79241,1,0,0:0:0:0:
253,78,79416,5,2,0:0:0:0:
267,145,79590,1,0,0:0:0:0:
183,55,79764,5,10,0:0:0:0:
234,9,79939,1,0,0:0:0:0:
329,182,80113,6,0,B|472:207|526:134|473:14|354:81|400:167,1,320,2|0,0:0|0:0,0:0:0:0:
261,260,81160,2,0,P|293:263|324:280,1,40,10|0,0:0|0:0,0:0:0:0:
358,303,81334,1,0,0:0:0:0:
219,222,81509,2,0,P|245:240|263:270,1,40,12|0,0:0|0:0,0:0:0:0:
221,315,81683,2,0,P|193:357|118:323,1,120,8|0,0:0|0:0,0:0:0:0:
121,332,82032,6,0,P|73:301|-3:312,1,120,4|0,3:0|0:0,0:0:0:0:
0,310,82381,1,8,0:0:0:0:
84,231,82555,1,8,0:0:0:0:
197,268,82730,6,0,P|254:257|229:173,1,160,4|0,0:0|0:0,0:0:0:0:
172,200,83253,1,8,0:0:0:0:
104,221,83427,1,0,0:0:0:0:
10,134,83602,1,2,0:0:0:0:
78,113,83776,1,0,0:0:0:0:
33,207,83950,2,0,B|21:224|21:224|25:251,1,40,8|0,0:0|0:0,0:0:0:0:
77,286,84125,1,0,3:0:0:0:
29,338,84299,6,0,P|84:310|156:316,1,120,2|0,0:0|0:0,0:0:0:0:
159,315,84648,1,8,0:0:0:0:
201,206,84823,2,0,P|282:233|428:229,1,200,0|0,3:0|0:0,0:0:0:0:
412,232,85346,1,8,0:0:0:0:
398,302,85520,1,0,3:0:0:0:
342,213,85695,6,0,P|349:271|399:302,1,120,2|0,0:0|0:0,0:0:0:0:
467,320,86043,2,0,P|460:262|410:231,1,120,10|0,0:0|0:0,0:0:0:0:
342,213,86392,6,0,P|349:271|399:302,1,120,2|0,0:0|0:0,0:0:0:0:
467,320,86741,2,0,P|468:280|450:257,1,40,10|0,0:0|0:0,0:0:0:0:
411,231,86916,2,0,P|385:274|331:280,1,80,2|2,0:0|3:2,0:0:0:0:
233,228,87264,1,0,3:0:0:0:
164,337,87439,5,8,0:0:0:0:
174,268,87613,1,0,3:0:0:0:
153,192,87788,5,8,0:0:0:0:
163,261,87962,1,0,3:0:0:0:
98,236,88137,1,8,0:0:0:0:
75,361,88311,2,0,P|60:294|11:349,1,160,4|0,0:0|0:0,0:0:0:0:
98,236,88834,2,0,P|55:224|10:232,1,80,10|0,0:0|0:0,0:0:0:0:
147,288,89183,5,0,3:0:0:0:
215,301,89357,1,0,3:0:0:0:
235,214,89532,5,8,0:0:0:0:
303,227,89706,1,0,0:0:0:0:
323,140,89881,5,0,3:0:0:0:
391,153,90055,1,0,3:0:0:0:
411,66,90230,5,8,0:0:0:0:
479,79,90404,1,0,0:0:0:0:
391,153,90578,2,0,P|442:158|485:98,1,120,2|0,0:0|0:0,0:0:0:0:
449,33,90927,2,0,P|398:28|355:88,1,120,10|0,0:0|0:0,0:0:0:0:
420,93,91276,2,0,P|354:77|256:89,1,160,4|10,0:0|0:0,0:0:0:0:
120,230,91799,2,0,P|186:214|284:226,1,160,2|0,0:0|0:0,0:0:0:0:
410,337,92323,6,0,B|398:322|398:322|393:280,1,40,10|0,0:0|0:0,0:0:0:0:
460,278,92497,2,0,B|472:293|472:293|477:335,1,40,10|0,0:0|0:0,0:0:0:0:
460,278,93020,5,0,0:0:0:0:
421,205,93195,2,0,L|280:190,1,120,0|0,0:0|0:0,0:0:0:0:
290,195,93543,2,0,L|271:223,2,20,0|0|0,3:0|3:0|3:0,0:0:0:0:
327,130,93718,1,8,0:0:0:0:
396,116,93892,1,0,0:0:0:0:
183,30,94067,6,0,P|234:58|254:121,1,120,4|0,0:0|0:0,0:0:0:0:
255,133,94416,1,8,0:0:0:0:
277,10,94590,6,0,P|293:65|262:124,1,120,4|0,0:0|0:0,0:0:0:0:
255,133,94939,1,0,3:0:0:0:
250,137,95113,1,8,0:0:0:0:
358,62,95288,6,0,P|330:112|266:132,1,120,4|0,0:0|0:0,0:0:0:0:
255,133,95637,1,0,3:0:0:0:
249,128,95811,1,8,0:0:0:0:
379,156,95985,6,0,P|324:172|265:141,1,120,4|0,0:0|0:0,0:0:0:0:
255,133,96334,1,4,0:0:0:0:
191,157,96509,1,12,0:0:0:0:
127,181,96683,1,2,0:0:0:0:
69,51,96857,6,0,P|121:39|117:96,1,120,4|0,0:0|0:0,0:0:0:0:
59,119,97206,1,8,0:0:0:0:
123,91,97381,6,0,P|159:130|108:155,1,120,4|0,0:0|0:0,0:0:0:0:
59,119,97730,1,0,3:0:0:0:
59,119,97904,1,8,0:0:0:0:
115,158,98078,6,0,P|99:209|52:177,1,120,4|0,0:0|0:0,0:0:0:0:
59,119,98427,1,0,3:0:0:0:
59,119,98602,1,8,0:0:0:0:
54,187,98776,6,0,P|2:199|6:142,1,120,4|0,0:0|0:0,0:0:0:0:
59,119,99125,1,4,0:0:0:0:
116,155,99299,1,12,0:0:0:0:
179,131,99474,1,2,0:0:0:0:
204,21,99648,6,0,L|335:43,1,120,4|0,0:0|0:0,0:0:0:0:
388,53,99998,1,8,0:0:0:0:
239,94,100174,6,0,L|370:116,1,120,4|0,0:0|0:0,0:0:0:0:
423,126,100525,1,0,3:0:0:0:
423,126,100700,1,8,0:0:0:0:
274,167,100876,6,0,L|405:189,1,120,4|0,0:0|0:0,0:0:0:0:
458,199,101226,1,0,3:0:0:0:
458,199,101402,1,8,0:0:0:0:
309,240,101577,6,0,L|440:262,1,120,4|0,0:0|0:0,0:0:0:0:
493,272,101928,1,4,0:0:0:0:
493,272,102104,1,12,0:0:0:0:
261,124,102455,5,4,0:0:0:0:
219,247,102630,2,0,B|198:246|198:246|179:206,1,40,0|0,3:0|0:0,0:0:0:0:
301,206,102805,5,8,0:0:0:0:
178,164,102981,2,0,B|179:143|179:143|219:124,1,40,4|0,0:0|0:0,0:0:0:0:
337,270,103332,6,0,L|393:263,1,40,0|0,3:0|0:0,0:0:0:0:
359,160,103507,2,0,L|415:153,1,40,8|0,0:0|0:0,0:0:0:0:
381,50,103683,6,0,L|476:38,1,80,4|0,0:0|0:0,0:0:0:0:
480,14,104020,1,2,0:0:0:0:
331,98,104198,1,2,0:0:0:0:
271,63,104377,1,2,0:0:0:0:
299,0,104555,1,2,0:0:0:0:
241,123,104734,1,2,0:0:0:0:
128,31,104912,1,2,0:0:0:0:
256,192,105091,6,0,L|256:256,1,40,10|0,0:0|0:0,0:0:0:0:
256,336,105627,6,0,B|316:264|316:264|430:295|430:295|390:354|390:354|344:341,1,320,12|0,0:0|0:0,0:0:0:0:
