osu file format v14

[General]
AudioFilename: audio.mp3
AudioLeadIn: 0
PreviewTime: 71218
Countdown: 0
SampleSet: Soft
StackLeniency: 0.4
Mode: 0
LetterboxInBreaks: 0
WidescreenStoryboard: 1

[Editor]
DistanceSpacing: 1.5
BeatDivisor: 4
GridSize: 16
TimelineZoom: 1.5

[Metadata]
Title:Tobenai Mahoutsukai
TitleUnicode:飛べない魔法使い
Artist:yanaginagi
ArtistUnicode:やなぎなぎ
Creator:Dored
Version:Hard
Source:しゅぷれ~むキャンディ ~王道には王道たる理由があるんです!~
Tags:Supreme Candy Galgame Eroge Visual Novel Opening Short Version Makura Reincarnation Necho DalouBot Hidden me 84461810 fuyuyu- Mamayu Kanau Silky
BeatmapID:1814078
BeatmapSetID:867830

[Difficulty]
HPDrainRate:5
CircleSize:3.8
OverallDifficulty:6
ApproachRate:7.5
SliderMultiplier:1.4
SliderTickRate:1

[Events]
//Background and Video events
0,0,"Hard.jpg",0,0
//Break Periods
//Storyboard Layer 0 (Background)
//Storyboard Layer 1 (Fail)
//Storyboard Layer 2 (Pass)
//Storyboard Layer 3 (Foreground)
//Storyboard Sound Samples

[TimingPoints]
-1460,365.853658536585,4,2,1,30,1,0
918,-133.333333333333,4,2,1,30,0,0
2545,368.098159509202,4,2,1,30,1,0
2545,-133.333333333333,4,2,1,30,0,0
2913,368.098159509202,4,2,1,30,1,0
2913,-133.333333333333,4,2,1,30,0,0
6950,365.853658536585,4,2,1,30,1,0
6950,-133.333333333333,4,2,1,30,0,0
7315,365.853658536585,4,2,1,30,1,0
7315,-133.333333333333,4,2,1,30,0,0
12440,348.837209302326,4,2,1,45,1,0
12440,-111.111111111111,4,2,1,45,0,0
13137,348.837209302326,4,2,1,45,1,0
13137,-111.111111111111,4,2,1,45,0,0
24299,-100,4,2,1,65,0,0
24561,-100,4,2,1,5,0,0
24648,-100,4,2,1,65,0,0
25084,-100,4,2,1,5,0,0
25171,-100,4,2,1,65,0,0
25782,-100,4,2,1,5,0,0
25869,-100,4,2,1,65,0,0
26480,-100,4,2,1,5,0,0
26567,-100,4,2,1,65,0,0
27352,-100,4,2,1,5,0,0
27439,-100,4,2,1,65,0,0
27875,-100,4,2,1,5,0,0
27962,-100,4,2,1,65,0,0
28573,-100,4,2,1,5,0,0
28660,-100,4,2,1,65,0,0
29270,-100,4,2,1,5,0,0
29357,-100,4,2,1,65,0,0
30142,-100,4,2,1,5,0,0
30230,-100,4,2,1,65,0,0
30666,-100,4,2,1,5,0,0
30753,-100,4,2,1,65,0,0
31363,-100,4,2,1,5,0,0
31450,-100,4,2,1,65,0,0
32061,-100,4,2,1,5,0,0
32148,-100,4,2,1,65,0,0
33456,-100,4,2,1,5,0,0
33543,-100,4,2,1,65,0,0
34154,-100,4,2,1,5,0,0
34241,-100,4,2,1,65,0,0
35462,-111.111111111111,4,2,1,45,0,0
46625,-100,4,2,1,60,0,0
57177,-100,4,2,1,5,0,0
57264,-100,4,2,1,60,0,0
63282,-100,4,2,1,5,0,0
63369,-100,4,2,1,60,0,0
66160,-100,4,2,1,65,0,0
69212,-100,4,2,1,5,0,0
69299,-100,4,2,1,65,0,0
71218,-100,4,2,1,60,0,0
71567,-90.9090909090909,4,2,1,75,0,1
82293,-90.9090909090909,4,2,1,5,0,1
82381,-90.9090909090909,4,2,1,75,0,1
84561,-90.9090909090909,4,2,1,5,0,1
84648,-90.9090909090909,4,2,1,75,0,1
91538,-90.9090909090909,4,2,1,5,0,1
91625,-90.9090909090909,4,2,1,75,0,1
92497,-100,4,2,1,75,0,0
93543,-100,4,2,1,55,0,0
94067,-100,4,2,1,65,0,0
94328,-100,4,2,1,5,0,0
94416,-100,4,2,1,65,0,0
94852,-100,4,2,1,5,0,0
94939,-100,4,2,1,65,0,0
95549,-100,4,2,1,5,0,0
95637,-100,4,2,1,65,0,0
96247,-100,4,2,1,5,0,0
96334,-100,4,2,1,65,0,0
97119,-100,4,2,1,5,0,0
97206,-100,4,2,1,65,0,0
97642,-100,4,2,1,5,0,0
97730,-100,4,2,1,65,0,0
98340,-100,4,2,1,5,0,0
98427,-100,4,2,1,65,0,0
99038,-100,4,2,1,5,0,0
99125,-100,4,2,1,65,0,0
99648,350.877192982456,4,2,1,65,1,0
99911,-100,4,2,1,5,0,0
99998,-100,4,2,1,65,0,0
100437,-100,4,2,1,5,0,0
100525,-100,4,2,1,65,0,0
101139,-100,4,2,1,5,0,0
101226,-100,4,2,1,65,0,0
101840,-100,4,2,1,5,0,0
101928,-100,4,2,1,65,0,0
103244,-100,4,2,1,5,0,0
103332,-100,4,2,1,65,0,0
104020,357.142857142857,4,2,1,50,1,0
104020,-100,4,2,1,50,0,0
104555,-100,4,2,1,60,0,0
105091,-100,4,2,1,70,0,0

[Colours]
Combo1 : 217,172,209
Combo2 : 180,180,180
Combo3 : 138,207,244
Combo4 : 241,205,97

[HitObjects]
96,272,918,6,0,L|91:324,2,52.5000020027161,2|2|2,0:0|0:0|0:0,0:0:0:0:
105,193,1466,6,0,P|154:179|201:200,1,105.000004005432,2|0,0:0|0:0,0:0:0:0:
248,264,2015,2,0,P|295:285|344:271,1,105.000004005432,2|0,0:0|0:0,0:0:0:0:
412,230,2545,2,0,L|407:178,1,52.5000020027161,2|2,0:0|0:0,0:0:0:0:
456,116,2913,5,2,0:0:0:0:
396,66,3097,2,0,L|291:76,1,105.000004005432,2|2,0:0|0:0,0:0:0:0:
291,75,4017,2,0,L|239:70,1,52.5000020027161,2|2,0:0|0:0,0:0:0:0:
168,32,4385,6,0,P|119:18|72:39,1,105.000004005432,2|0,0:0|0:0,0:0:0:0:
125,98,4937,2,0,L|135:203,1,105.000004005432,2|0,0:0|0:0,0:0:0:0:
56,211,5489,2,0,L|51:159,2,52.5000020027161,2|2|0,0:0|0:0|0:0,0:0:0:0:
56,211,6950,2,0,L|51:263,1,52.5000020027161,2|2,0:0|0:0,0:0:0:0:
43,342,7315,6,0,P|89:363|139:349,1,105.000004005432,2|0,0:0|0:0,0:0:0:0:
196,294,7863,2,0,P|245:280|292:301,1,105.000004005432,2|0,0:0|0:0,0:0:0:0:
352,353,8412,2,0,L|404:358,1,52.5000020027161,2|2,0:0|0:0,0:0:0:0:
482,364,8778,5,2,0:0:0:0:
489,286,8961,2,0,L|498:181,1,105.000004005432,2|2,0:0|0:0,0:0:0:0:
498,181,10058,1,2,0:0:0:0:
424,209,10241,6,0,P|374:222|327:201,1,105.000004005432,2|2,0:0|0:0,0:0:0:0:
254,170,10790,2,0,P|204:156|157:177,1,105.000004005432,2|2,0:0|0:0,0:0:0:0:
89,218,11339,1,2,0:0:0:0:
285,99,12614,6,0,L|279:36,2,62.9999980773926,2|2|2,0:0|0:0|0:0,0:0:0:0:
368,96,13137,6,0,P|430:91|493:85,1,125.999996154785,2|2,3:2|3:2,0:0:0:0:
368,192,13834,2,0,P|430:187|493:181,1,125.999996154785,0|2,3:0|3:2,0:0:0:0:
368,288,14532,2,0,P|430:283|493:277,2,125.999996154785,0|0|0,3:0|3:0|3:0,0:0:0:0:
210,240,15578,1,2,3:2:0:0:
289,216,15753,1,2,3:2:0:0:
228,159,15927,6,0,P|165:152|102:148,2,125.999996154785,2|2|0,3:2|3:2|3:0,0:0:0:0:
192,321,16974,1,0,3:0:0:0:
271,297,17148,1,0,3:0:0:0:
210,240,17323,2,0,P|147:233|84:229,1,125.999996154785,0|0,3:0|3:0,0:0:0:0:
120,67,18020,1,2,3:2:0:0:
84,229,18369,1,2,3:2:0:0:
120,67,18718,6,0,P|183:74|246:78,1,125.999996154785,2|2,3:2|3:2,0:0:0:0:
368,192,19416,2,0,P|425:211|479:182,1,125.999996154785,0|2,3:0|3:2,0:0:0:0:
357,68,20113,2,0,P|299:48|245:77,2,125.999996154785,0|0|0,3:0|3:0|3:0,0:0:0:0:
256,201,21160,1,0,3:0:0:0:
317,258,21334,1,2,3:2:0:0:
266,324,21509,6,0,P|203:328|140:334,1,125.999996154785,2|0,3:2|3:0,0:0:0:0:
16,222,22206,2,0,L|10:159,1,62.9999980773926,2|8,3:2|3:0,0:0:0:0:
80,115,22555,2,0,L|85:52,1,62.9999980773926,8|4,0:0|3:0,0:0:0:0:
155,8,22904,5,2,3:2:0:0:
140,171,23253,1,2,3:2:0:0:
303,186,23602,1,2,3:2:0:0:
140,171,23950,1,2,3:2:0:0:
207,123,24125,1,8,0:0:0:0:
207,123,24212,1,8,0:0:0:0:
207,122,24299,6,0,P|273:126|303:186,1,140,4|8,0:0|0:0,0:0:0:0:
227,239,24823,2,0,P|296:244|366:251,1,140,4|0,0:0|3:0,0:0:0:0:
438,309,25346,1,8,0:0:0:0:
385,234,25520,6,0,P|377:164|372:94,1,140,4|0,0:0|3:0,0:0:0:0:
410,11,26043,1,8,0:0:0:0:
463,86,26218,2,0,P|471:156|476:226,1,140,4|4,0:0|0:0,0:0:0:0:
438,309,26741,1,12,0:0:0:0:
385,234,26916,1,2,0:0:0:0:
385,234,27003,1,2,0:0:0:0:
385,234,27090,6,0,B|342:223|317:246|317:246|292:268|253:259,1,140,4|8,0:0|0:0,0:0:0:0:
176,309,27613,2,0,P|163:242|200:184,1,140,4|0,0:0|3:0,0:0:0:0:
253,259,28137,1,8,0:0:0:0:
292,177,28311,6,0,B|313:137|313:137|304:42,1,140,4|0,0:0|3:0,0:0:0:0:
229,96,28834,1,8,0:0:0:0:
145,59,29009,2,0,P|76:64|30:114,1,140,4|4,0:0|0:0,0:0:0:0:
116,146,29532,1,12,0:0:0:0:
45,204,29706,1,2,0:0:0:0:
45,204,29793,1,2,0:0:0:0:
45,204,29881,6,0,P|53:274|58:344,1,140,4|8,0:0|0:0,0:0:0:0:
144,371,30404,2,0,P|195:326|264:329,1,140,4|0,0:0|3:0,0:0:0:0:
342,374,30927,1,8,0:0:0:0:
421,329,31102,6,0,B|411:218|411:218|396:224|387:233,1,140,4|0,0:0|3:0,0:0:0:0:
296,244,31625,1,8,0:0:0:0:
241,171,31799,2,0,P|216:107|242:43,1,140,4|4,0:0|0:0,0:0:0:0:
308,108,32323,2,0,L|377:114,1,70,12|0,0:0|0:0,0:0:0:0:
457,69,32671,6,0,L|451:0,2,70,4|0|8,0:0|3:0|0:0,0:0:0:0:
502,149,33195,2,0,P|494:219|489:289,1,140,4|0,0:0|3:0,0:0:0:0:
481,378,33718,1,8,0:0:0:0:
406,326,33892,6,0,B|366:305|366:305|271:314,1,140,4|8,0:0|0:0,0:0:0:0:
189,352,34416,2,0,L|120:346,1,70,8|8,0:0|0:0,0:0:0:0:
126,254,34764,2,0,L|195:260,1,70,8|8,0:0|0:0,0:0:0:0:
201,168,35113,2,0,L|132:162,1,70,8|0,0:0|3:0,0:0:0:0:
136,68,35462,6,0,P|190:39|247:59,1,125.999996154785,2|0,3:2|3:0,0:0:0:0:
276,135,35985,1,0,0:0:0:0:
328,72,36160,2,0,L|390:77,1,62.9999980773926,0|0,3:0|0:0,0:0:0:0:
449,135,36509,2,0,L|511:129,1,62.9999980773926,0|0,3:0|0:0,0:0:0:0:
370,158,36857,6,0,P|375:220|381:283,1,125.999996154785,0|2,3:0|3:2,0:0:0:0:
322,341,37381,2,0,L|259:346,1,62.9999980773926,2|0,0:0|3:0,0:0:0:0:
179,353,37730,1,0,3:0:0:0:
212,279,37904,2,0,L|207:216,1,62.9999980773926,8|0,3:2|0:0,0:0:0:0:
179,353,38253,6,0,P|119:339|89:286,1,125.999996154785,2|0,3:2|3:0,0:0:0:0:
125,212,38776,1,0,0:0:0:0:
207,216,38950,2,0,P|266:202|296:149,1,125.999996154785,0|0,3:0|3:0,0:0:0:0:
261,75,39474,1,2,0:0:0:0:
313,137,39648,6,0,L|438:148,1,125.999996154785,0|2,3:0|3:2,0:0:0:0:
446,65,40171,2,0,L|383:59,1,62.9999980773926,2|0,0:0|3:0,0:0:0:0:
315,13,40520,1,0,3:0:0:0:
261,75,40695,2,0,L|198:80,1,62.9999980773926,8|0,3:2|0:0,0:0:0:0:
137,135,41043,6,0,P|76:122|40:72,1,125.999996154785,0|0,3:0|3:0,0:0:0:0:
121,54,41567,1,0,0:0:0:0:
137,135,41741,2,0,L|131:197,1,62.9999980773926,0|0,3:0|0:0,0:0:0:0:
53,225,42090,2,0,L|58:287,1,62.9999980773926,0|2,3:0|0:0,0:0:0:0:
5,350,42439,6,0,P|61:324|119:343,1,125.999996154785,2|2,3:2|3:2,0:0:0:0:
193,307,42962,2,0,L|198:245,1,62.9999980773926,0|0,0:0|3:0,0:0:0:0:
130,197,43311,1,0,3:0:0:0:
204,162,43485,2,0,L|266:167,1,62.9999980773926,8|0,3:2|0:0,0:0:0:0:
209,79,43834,6,0,L|334:89,2,125.999996154785,2|0|0,3:2|3:0|3:0,0:0:0:0:
343,172,44881,1,0,3:0:0:0:
198,244,45230,5,8,0:0:0:0:
278,323,45404,1,8,0:0:0:0:
278,323,45753,1,2,3:2:0:0:
311,248,45927,2,0,L|373:253,1,62.9999980773926,10|2,0:0|3:2,0:0:0:0:
404,281,46189,1,2,3:2:0:0:
404,281,46276,2,0,L|466:275,1,62.9999980773926,10|0,0:0|3:0,0:0:0:0:
498,248,46538,1,0,3:0:0:0:
498,248,46625,6,0,P|506:178|511:108,1,140,6|8,3:2|0:0,0:0:0:0:
471,25,47148,2,0,L|401:18,1,70,2|0,0:0|3:0,0:0:0:0:
322,63,47497,1,0,0:0:0:0:
243,18,47671,2,0,L|173:25,1,70,8|0,0:0|0:0,0:0:0:0:
83,37,48020,6,0,P|46:94|59:161,1,140,2|8,3:2|0:0,0:0:0:0:
136,112,48543,2,0,L|206:119,1,70,2|0,0:0|3:0,0:0:0:0:
273,180,48892,1,0,3:0:0:0:
197,230,49067,2,0,L|127:223,1,70,8|0,0:0|0:0,0:0:0:0:
273,180,49416,6,0,P|285:247|249:304,1,140,2|8,3:2|0:0,0:0:0:0:
158,312,49939,1,2,0:0:0:0:
127,223,50113,2,0,P|61:202|0:232,1,140,2|8,3:2|0:0,0:0:0:0:
68,294,50637,1,2,0:0:0:0:
127,223,50811,6,0,P|147:157|117:96,1,140,2|8,3:2|0:0,0:0:0:0:
38,50,51334,1,2,0:0:0:0:
117,5,51509,2,0,L|186:11,1,70,0|0,3:0|3:0,0:0:0:0:
187,102,51857,2,0,L|117:95,1,70,8|0,0:0|0:0,0:0:0:0:
266,57,52206,6,0,P|327:86|392:66,1,140,2|8,3:2|0:0,0:0:0:0:
480,94,52730,2,0,L|486:163,1,70,2|0,0:0|3:0,0:0:0:0:
407,209,53078,1,0,0:0:0:0:
486,254,53253,2,0,L|479:323,1,70,8|0,0:0|0:0,0:0:0:0:
405,376,53602,6,0,P|353:331|285:334,1,140,2|8,3:2|0:0,0:0:0:0:
200,368,54125,2,0,L|130:374,1,70,2|0,0:0|3:0,0:0:0:0:
47,336,54474,1,0,3:0:0:0:
121,285,54648,2,0,L|190:278,1,70,8|0,0:0|0:0,0:0:0:0:
273,242,54997,6,0,L|279:172,1,70,2|0,3:2|3:0,0:0:0:0:
365,250,55346,2,0,L|371:180,1,70,8|2,0:0|0:0,0:0:0:0:
443,128,55695,2,0,L|512:121,1,70,0|0,3:0|3:0,0:0:0:0:
435,38,56043,2,0,L|504:31,1,70,10|0,0:0|0:0,0:0:0:0:
362,89,56392,6,0,P|306:49|238:58,1,140,14|10,0:0|0:0,0:0:0:0:
164,111,56916,2,0,L|95:118,1,70,10|0,0:0|0:0,0:0:0:0:
86,27,57264,2,0,L|155:20,2,70,10|2|10,0:0|3:2|0:0,0:0:0:0:
12,81,57788,5,4,0:0:0:0:
52,199,57962,1,4,0:0:0:0:
52,199,58311,2,0,P|7:251|11:319,1,140,8|0,0:0|3:0,0:0:0:0:
86,371,58834,1,8,0:0:0:0:
93,280,59009,6,0,P|163:272|233:267,1,140,4|0,0:0|3:0,0:0:0:0:
315,228,59532,2,0,L|384:234,1,70,10|2,0:0|0:0,0:0:0:0:
475,242,59881,1,2,0:0:0:0:
467,332,60055,1,2,0:0:0:0:
376,325,60230,2,0,L|306:318,1,70,8|0,0:0|0:0,0:0:0:0:
384,234,60578,6,0,P|413:172|392:106,1,140,4|8,0:0|0:0,0:0:0:0:
323,166,61102,1,0,3:0:0:0:
306,76,61276,2,0,P|266:19|199:5,1,140,2|8,0:0|0:0,0:0:0:0:
217,94,61799,1,2,0:0:0:0:
130,62,61974,6,0,P|61:67|15:119,1,140,4|8,0:0|0:0,0:0:0:0:
101,149,62497,1,0,3:0:0:0:
31,208,62671,2,0,L|37:277,1,70,2|2,3:2|3:2,0:0:0:0:
45,368,63020,2,0,L|114:361,1,70,10|0,0:0|0:0,0:0:0:0:
205,353,63369,5,4,0:0:0:0:
125,254,63543,1,4,0:0:0:0:
125,254,63892,2,0,P|195:262|265:267,1,140,8|0,0:0|3:0,0:0:0:0:
333,207,64416,1,8,0:0:0:0:
277,137,64590,6,0,P|291:70|348:32,1,140,4|0,0:0|3:0,0:0:0:0:
418,91,65113,2,0,L|411:160,1,70,8|0,0:0|0:0,0:0:0:0:
412,252,65462,2,0,L|481:258,2,70,2|8|8,3:2|0:0|0:0,0:0:0:0:
333,207,65985,1,0,3:0:0:0:
264,266,66160,6,0,L|194:272,1,70,12|0,0:0|3:0,0:0:0:0:
248,177,66509,2,0,L|178:170,1,70,8|0,0:0|3:0,0:0:0:0:
109,229,66857,2,0,L|39:235,1,70,8|0,0:0|3:0,0:0:0:0:
93,140,67206,2,0,L|23:133,1,70,8|0,0:0|3:0,0:0:0:0:
162,82,67555,6,0,L|231:75,1,70,8|0,0:0|3:0,0:0:0:0:
178,170,67904,2,0,L|248:177,1,70,8|0,0:0|3:0,0:0:0:0:
194,272,68253,2,0,L|263:265,1,70,2|0,0:0|3:0,0:0:0:0:
210,360,68602,2,0,L|279:366,1,70,8|0,0:0|0:0,0:0:0:0:
345,302,68950,5,4,0:0:0:0:
345,302,69299,1,8,0:0:0:0:
427,340,69474,1,8,0:0:0:0:
488,273,69648,1,8,0:0:0:0:
443,194,69823,1,8,0:0:0:0:
354,211,69997,2,0,L|348:142,1,70,0|0,3:0|3:0,0:0:0:0:
404,70,70346,5,12,0:0:0:0:
404,70,70695,1,8,0:0:0:0:
279,81,70869,1,12,0:0:0:0:
279,81,71567,6,0,P|202:75|125:67,1,154.000004699707,4|0,0:0|0:0,0:0:0:0:
25,60,72090,2,0,L|18:136,1,77.0000023498536,8|0,0:0|0:0,0:0:0:0:
99,193,72439,2,0,L|175:200,1,77.0000023498536,2|0,0:0|0:0,0:0:0:0:
274,206,72788,1,8,0:0:0:0:
218,289,72962,1,0,3:0:0:0:
303,342,73137,6,0,P|315:267|273:205,1,154.000004699707,2|8,0:0|0:0,0:0:0:0:
175,200,73660,1,0,0:0:0:0:
230,116,73834,2,0,L|306:109,1,77.0000023498536,2|0,0:0|0:0,0:0:0:0:
395,151,74183,1,8,0:0:0:0:
413,54,74357,1,0,3:0:0:0:
502,97,74532,6,0,L|495:173,1,77.0000023498536,2|0,0:0|0:0,0:0:0:0:
395,151,74881,2,0,L|401:227,1,77.0000023498536,10|0,0:0|0:0,0:0:0:0:
489,276,75230,2,0,L|482:352,1,77.0000023498536,2|0,0:0|0:0,0:0:0:0:
385,325,75578,1,10,0:0:0:0:
401,227,75753,1,2,0:0:0:0:
309,263,75927,6,0,L|232:269,1,77.0000023498536,0|0,0:0|3:0,0:0:0:0:
133,278,76276,1,10,0:0:0:0:
124,178,76450,1,0,0:0:0:0:
223,169,76625,2,0,L|299:162,1,77.0000023498536,0|2,3:0|3:0,0:0:0:0:
398,153,76974,1,8,3:2:0:0:
390,53,77148,1,2,3:0:0:0:
291,62,77323,6,0,L|215:69,1,77.0000023498536,2|0,0:0|0:0,0:0:0:0:
115,79,77671,2,0,L|38:72,1,77.0000023498536,10|0,0:0|0:0,0:0:0:0:
47,171,78020,2,0,L|123:177,1,77.0000023498536,2|0,0:0|0:0,0:0:0:0:
223,169,78369,1,10,0:0:0:0:
179,259,78543,6,0,P|108:286|75:353,1,154.000004699707,2|0,0:0|0:0,0:0:0:0:
176,361,79067,2,0,L|252:354,1,77.0000023498536,10|0,0:0|0:0,0:0:0:0:
323,283,79416,2,0,L|316:206,1,77.0000023498536,2|0,0:0|0:0,0:0:0:0:
386,134,79764,2,0,L|463:128,1,77.0000023498536,10|0,0:0|0:0,0:0:0:0:
316,206,80113,6,0,P|286:136|311:65,2,154.000004699707,2|8|0,0:0|0:0|0:0,0:0:0:0:
386,134,80985,1,0,3:0:0:0:
310,65,81160,2,0,L|233:59,1,77.0000023498536,10|0,0:0|0:0,0:0:0:0:
147,114,81509,6,0,L|70:106,2,77.0000023498536,12|8|2,0:0|0:0|3:0,0:0:0:0:
202,200,82032,2,0,L|208:277,1,77.0000023498536,4|0,3:0|0:0,0:0:0:0:
216,376,82381,1,8,0:0:0:0:
125,334,82555,1,8,0:0:0:0:
208,277,82730,6,0,P|279:299|316:365,1,154.000004699707,4|0,0:0|0:0,0:0:0:0:
415,356,83253,2,0,L|492:350,1,77.0000023498536,8|0,0:0|0:0,0:0:0:0:
484,249,83602,2,0,L|478:172,1,77.0000023498536,2|0,0:0|0:0,0:0:0:0:
469,72,83950,1,8,0:0:0:0:
387,129,84125,1,0,3:0:0:0:
296,86,84299,6,0,P|228:117|201:188,1,154.000004699707,2|8,0:0|0:0,0:0:0:0:
302,188,84823,2,0,L|308:265,1,77.0000023498536,0|2,3:0|0:0,0:0:0:0:
316,364,85171,1,0,0:0:0:0:
225,321,85346,2,0,L|148:327,1,77.0000023498536,8|0,0:0|3:0,0:0:0:0:
49,335,85695,6,0,L|43:258,1,77.0000023498536,2|0,0:0|0:0,0:0:0:0:
108,182,86043,2,0,L|114:105,1,77.0000023498536,10|0,0:0|0:0,0:0:0:0:
190,40,86392,2,0,L|344:54,1,154.000004699707,2|10,0:0|0:0,0:0:0:0:
433,98,86916,1,2,0:0:0:0:
378,181,87090,6,0,L|301:187,2,77.0000023498536,2|0|8,3:2|3:0|0:0,0:0:0:0:
468,226,87613,1,0,3:0:0:0:
413,309,87788,2,0,L|336:315,1,77.0000023498536,8|0,0:0|3:0,0:0:0:0:
246,270,88137,1,8,0:0:0:0:
156,225,88311,6,0,P|88:256|61:327,1,154.000004699707,4|0,0:0|0:0,0:0:0:0:
163,326,88834,1,10,0:0:0:0:
156,225,89009,1,0,0:0:0:0:
149,124,89183,2,0,L|72:118,1,77.0000023498536,0|0,3:0|3:0,0:0:0:0:
239,168,89532,2,0,L|316:162,1,77.0000023498536,8|0,0:0|0:0,0:0:0:0:
405,206,89881,6,0,L|411:283,1,77.0000023498536,0|0,3:0|3:0,0:0:0:0:
488,150,90230,2,0,L|494:73,1,77.0000023498536,8|0,0:0|0:0,0:0:0:0:
405,25,90578,2,0,P|367:13|329:18,1,77.0000023498536,2|0,0:0|0:0,0:0:0:0:
231,30,90927,2,0,P|193:34|156:24,1,77.0000023498536,10|0,0:0|0:0,0:0:0:0:
55,18,91276,6,0,P|62:94|68:171,1,154.000004699707,4|10,0:0|0:0,0:0:0:0:
144,236,91799,1,2,0:0:0:0:
81,313,91974,2,0,L|4:319,1,77.0000023498536,0|0,3:0|0:0,0:0:0:0:
144,236,92323,1,10,0:0:0:0:
156,377,92497,1,10,0:0:0:0:
144,236,93543,6,0,L|74:242,1,70,0|8,3:0|0:0,0:0:0:0:
156,377,94067,6,0,B|186:354|186:354|223:391|281:373,1,140,4|8,0:0|0:0,0:0:0:0:
246,288,94590,2,0,P|255:220|308:177,1,140,4|0,0:0|3:0,0:0:0:0:
392,213,95113,1,8,0:0:0:0:
320,156,95288,6,0,P|250:150|180:143,1,140,4|0,0:0|3:0,0:0:0:0:
89,135,95811,1,8,0:0:0:0:
37,210,95985,2,0,P|88:253|150:229,1,140,4|4,0:0|0:0,0:0:0:0:
180,143,96509,1,12,0:0:0:0:
204,59,96683,1,2,0:0:0:0:
204,59,96770,1,2,0:0:0:0:
204,59,96857,6,0,B|298:42|298:42|339:59,1,140,4|8,0:0|0:0,0:0:0:0:
365,146,97381,2,0,P|418:102|426:35,1,140,4|0,0:0|3:0,0:0:0:0:
339,59,97904,1,8,0:0:0:0:
365,146,98078,6,0,B|392:213|392:213|378:279,1,140,4|0,0:0|3:0,0:0:0:0:
320,349,98602,1,8,0:0:0:0:
250,290,98776,2,0,B|222:222|222:222|236:156,1,140,4|4,0:0|0:0,0:0:0:0:
294,86,99299,1,12,0:0:0:0:
365,146,99474,1,2,0:0:0:0:
365,146,99561,1,2,0:0:0:0:
365,146,99648,6,0,B|408:157|433:134|433:134|458:112|497:121,1,140,4|8,0:0|0:0,0:0:0:0:
483,211,100174,2,0,P|475:281|470:351,1,140,4|0,0:0|3:0,0:0:0:0:
385,384,100700,1,8,0:0:0:0:
314,328,100876,6,0,P|252:297|187:316,1,140,4|0,0:0|3:0,0:0:0:0:
108,359,101402,1,8,0:0:0:0:
31,310,101577,2,0,P|23:240|18:170,1,140,4|4,0:0|0:0,0:0:0:0:
86,109,102104,2,0,L|155:115,1,70,12|0,0:0|0:0,0:0:0:0:
225,173,102455,6,0,L|219:242,2,70,4|0|8,0:0|3:0|0:0,0:0:0:0:
240,84,102981,2,0,P|195:33|126:28,1,140,4|0,0:0|3:0,0:0:0:0:
35,33,103507,1,8,0:0:0:0:
86,109,103683,1,4,0:0:0:0:
60,279,104020,5,2,0:0:0:0:
137,326,104198,2,0,L|206:332,1,70,2|2,0:0|0:0,0:0:0:0:
291,295,104555,2,0,L|360:288,1,70,2|2,0:0|0:0,0:0:0:0:
445,251,104912,1,2,0:0:0:0:
434,341,105091,5,10,0:0:0:0:
465,71,105627,2,0,B|407:41|367:85|367:85|324:44|324:44|281:87|220:58,1,280,12|0,0:0|0:0,0:0:0:0:
