osu file format v14

[General]
AudioFilename: audio.mp3
AudioLeadIn: 0
PreviewTime: 71218
Countdown: 0
SampleSet: Soft
StackLeniency: 0.7
Mode: 0
LetterboxInBreaks: 0
WidescreenStoryboard: 1

[Editor]
DistanceSpacing: 1
BeatDivisor: 2
GridSize: 16
TimelineZoom: 1.5

[Metadata]
Title:Tobenai Mahoutsukai
TitleUnicode:飛べない魔法使い
Artist:yanaginagi
ArtistUnicode:やなぎなぎ
Creator:Dored
Version:Easy
Source:しゅぷれ~むキャンディ ~王道には王道たる理由があるんです!~
Tags:Supreme Candy Galgame Eroge Visual Novel Opening Short Version Makura Reincarnation Necho DalouBot Hidden me 84461810 fuyuyu- Mamayu Kanau Silky
BeatmapID:1814077
BeatmapSetID:867830

[Difficulty]
HPDrainRate:2
CircleSize:3
OverallDifficulty:2
ApproachRate:3
SliderMultiplier:0.9
SliderTickRate:1

[Events]
//Background and Video events
0,0,"Easy.jpg",0,0
//Break Periods
//Storyboard Layer 0 (Background)
//Storyboard Layer 1 (Fail)
//Storyboard Layer 2 (Pass)
//Storyboard Layer 3 (Foreground)
//Storyboard Sound Samples

[TimingPoints]
-1460,365.853658536585,4,2,1,30,1,0
2545,368.098159509202,4,2,1,30,1,0
2913,368.098159509202,4,2,1,30,1,0
6950,365.853658536585,4,2,1,30,1,0
7315,365.853658536585,4,2,1,30,1,0
12440,348.837209302326,4,2,1,45,1,0
13137,348.837209302326,4,2,1,60,1,0
13137,-100,4,2,1,60,0,0
24299,-100,4,2,1,65,0,0
24561,-100,4,2,1,5,0,0
24648,-100,4,2,1,65,0,0
25084,-100,4,2,1,5,0,0
25171,-100,4,2,1,65,0,0
25782,-100,4,2,1,5,0,0
25869,-100,4,2,1,65,0,0
26480,-100,4,2,1,5,0,0
26567,-100,4,2,1,65,0,0
27352,-100,4,2,1,5,0,0
27439,-100,4,2,1,65,0,0
27875,-100,4,2,1,5,0,0
27962,-100,4,2,1,65,0,0
28573,-100,4,2,1,5,0,0
28660,-100,4,2,1,65,0,0
29270,-100,4,2,1,5,0,0
29357,-100,4,2,1,65,0,0
30142,-100,4,2,1,5,0,0
30230,-100,4,2,1,65,0,0
30666,-100,4,2,1,5,0,0
30753,-100,4,2,1,65,0,0
31363,-100,4,2,1,5,0,0
31450,-100,4,2,1,65,0,0
32061,-100,4,2,1,5,0,0
32148,-100,4,2,1,65,0,0
33456,-100,4,2,1,5,0,0
33543,-100,4,2,1,65,0,0
34154,-100,4,2,1,5,0,0
34241,-100,4,2,1,65,0,0
35462,-100,4,2,1,45,0,0
46625,-100,4,2,1,60,0,0
57177,-100,4,2,1,5,0,0
57264,-100,4,2,1,60,0,0
63282,-100,4,2,1,5,0,0
63369,-100,4,2,1,60,0,0
66160,-100,4,2,1,65,0,0
69212,-100,4,2,1,5,0,0
69299,-100,4,2,1,65,0,0
71218,-100,4,2,1,60,0,0
71567,-100,4,2,1,75,0,1
82293,-100,4,2,1,5,0,1
82381,-100,4,2,1,75,0,1
84561,-100,4,2,1,5,0,1
84648,-100,4,2,1,75,0,1
91538,-100,4,2,1,5,0,1
91625,-100,4,2,1,75,0,1
92497,-100,4,2,1,75,0,0
93543,-100,4,2,1,55,0,0
94067,-100,4,2,1,65,0,0
94328,-100,4,2,1,5,0,0
94416,-100,4,2,1,65,0,0
94852,-100,4,2,1,5,0,0
94939,-100,4,2,1,65,0,0
95549,-100,4,2,1,5,0,0
95637,-100,4,2,1,65,0,0
96247,-100,4,2,1,5,0,0
96334,-100,4,2,1,65,0,0
97119,-100,4,2,1,5,0,0
97206,-100,4,2,1,65,0,0
97642,-100,4,2,1,5,0,0
97730,-100,4,2,1,65,0,0
98340,-100,4,2,1,5,0,0
98427,-100,4,2,1,65,0,0
99038,-100,4,2,1,5,0,0
99125,-100,4,2,1,65,0,0
99648,350.877192982456,4,2,1,65,1,0
99911,-100,4,2,1,5,0,0
99998,-100,4,2,1,65,0,0
100437,-100,4,2,1,5,0,0
100525,-100,4,2,1,65,0,0
101139,-100,4,2,1,5,0,0
101226,-100,4,2,1,65,0,0
101840,-100,4,2,1,5,0,0
101928,-100,4,2,1,65,0,0
103244,-100,4,2,1,5,0,0
103332,-100,4,2,1,65,0,0
104020,357.142857142857,4,2,1,50,1,0
104020,-100,4,2,1,50,0,0
104555,-100,4,2,1,60,0,0
105091,-100,4,2,1,70,0,0

[Colours]
Combo1 : 217,172,209
Combo2 : 180,180,180
Combo3 : 138,207,244
Combo4 : 241,205,97

[HitObjects]
454,112,13137,6,0,L|364:112,1,90,2|2,3:2|3:2,0:0:0:0:
301,48,13834,2,0,L|211:48,1,90,0|2,3:0|3:2,0:0:0:0:
147,112,14532,2,0,L|57:112,2,90,0|0|0,3:0|3:0|3:0,0:0:0:0:
211,176,15578,1,2,3:2:0:0:
147,240,15927,6,0,L|57:240,2,90,2|2|0,3:2|3:2|3:0,0:0:0:0:
211,304,16974,1,0,3:0:0:0:
275,368,17323,2,0,L|365:368,1,90,0|0,3:0|3:0,0:0:0:0:
428,304,18020,2,0,L|428:214,1,90,2|2,3:2|3:2,0:0:0:0:
365,149,18718,6,0,L|275:149,2,90,2|2|0,3:2|3:2|3:0,0:0:0:0:
428,84,19764,1,2,3:2:0:0:
365,19,20113,2,0,L|275:19,1,90,0|0,3:0|3:0,0:0:0:0:
212,84,20811,2,0,L|122:84,1,90,0|0,3:0|3:0,0:0:0:0:
122,174,21509,6,0,L|212:174,2,90,2|0|2,3:2|3:0|3:2,0:0:0:0:
32,174,22555,1,8,0:0:0:0:
32,264,22904,2,0,L|32:354,1,90,2|2,3:2|3:2,0:0:0:0:
122,354,23602,2,0,L|122:264,1,90,2|2,3:2|3:2,0:0:0:0:
122,174,24299,6,0,P|183:149|244:174,1,135,4|4,0:0|0:0,0:0:0:0:
245,264,25171,1,0,3:0:0:0:
245,353,25520,2,0,L|335:353,1,90,4|0,0:0|3:0,0:0:0:0:
425,353,26218,2,0,L|425:218,1,135,4|12,0:0|0:0,0:0:0:0:
347,173,27090,6,0,P|322:111|347:50,1,135,4|4,0:0|0:0,0:0:0:0:
425,5,27962,1,0,3:0:0:0:
490,66,28311,2,0,L|490:156,1,90,4|0,0:0|3:0,0:0:0:0:
425,218,29009,2,0,P|373:258|307:253,1,135,4|12,0:0|0:0,0:0:0:0:
246,185,29881,6,0,P|180:179|127:219,1,135,4|4,0:0|0:0,0:0:0:0:
64,282,30753,1,0,3:0:0:0:
0,219,31102,2,0,L|0:129,1,90,4|0,0:0|3:0,0:0:0:0:
0,39,31799,2,0,L|135:39,1,135,4|12,0:0|0:0,0:0:0:0:
214,80,32671,6,0,P|277:95|334:60,1,135,4|4,0:0|0:0,0:0:0:0:
421,39,33543,2,0,L|421:129,1,90,0|4,3:0|0:0,0:0:0:0:
162,364,35462,6,0,L|252:364,1,90,2|0,3:2|3:0,0:0:0:0:
315,300,36160,2,0,L|405:300,1,90,0|0,3:0|3:0,0:0:0:0:
405,210,36857,2,0,L|315:210,2,90,0|2|0,3:0|3:2|3:0,0:0:0:0:
495,210,37904,1,8,3:2:0:0:
494,119,38253,6,0,P|470:36|387:11,2,180,2|0|0,3:2|3:0|3:0,0:0:0:0:
407,99,39997,2,0,L|317:99,1,90,2|0,3:2|3:0,0:0:0:0:
254,35,40695,1,8,3:2:0:0:
190,99,41043,6,0,L|190:189,1,90,0|0,3:0|3:0,0:0:0:0:
99,189,41741,2,0,L|9:189,1,90,0|0,3:0|3:0,0:0:0:0:
9,99,42439,2,0,L|9:9,2,90,2|2|0,3:2|3:2|3:0,0:0:0:0:
9,189,43485,1,8,3:2:0:0:
9,279,43834,6,0,L|99:279,2,90,2|0|0,3:2|3:0|3:0,0:0:0:0:
9,369,44881,1,0,3:0:0:0:
99,369,45230,2,0,L|144:369,1,45,8|8,0:0|0:0,0:0:0:0:
459,369,46625,6,0,L|459:279,1,90,6|8,3:2|0:0,0:0:0:0:
395,216,47323,2,0,L|395:126,1,90,0|8,3:0|0:0,0:0:0:0:
395,36,48020,2,0,L|485:36,2,90,2|8|0,3:2|0:0|3:0,0:0:0:0:
304,36,49067,1,8,0:0:0:0:
213,36,49416,6,0,L|123:36,1,90,2|8,3:2|0:0,0:0:0:0:
32,36,50113,2,0,L|32:126,1,90,2|8,3:2|0:0,0:0:0:0:
32,215,50811,2,0,L|32:305,2,90,2|8|0,3:2|0:0|3:0,0:0:0:0:
123,216,51857,1,8,0:0:0:0:
200,171,52206,6,0,P|261:146|322:171,2,135,2|2|8,3:2|0:0|0:0,0:0:0:0:
200,261,53602,2,0,P|261:285|322:261,2,135,2|2|8,3:2|0:0|0:0,0:0:0:0:
123,216,54997,6,0,L|123:126,1,90,2|8,3:2|0:0,0:0:0:0:
123,36,55695,2,0,L|213:36,1,90,0|10,3:0|0:0,0:0:0:0:
277,100,56392,2,0,P|342:108|394:68,1,135,14|10,0:0|0:0,0:0:0:0:
479,36,57264,2,0,L|486:125,1,90,10|10,0:0|0:0,0:0:0:0:
512,163,57788,6,0,L|508:207,1,45,4|4,0:0|0:0,0:0:0:0:
499,296,58311,2,0,L|409:296,1,90,8|0,0:0|3:0,0:0:0:0:
331,251,59009,2,0,P|266:243|214:283,1,135,4|10,0:0|0:0,0:0:0:0:
168,361,59881,1,2,0:0:0:0:
78,361,60230,1,8,0:0:0:0:
33,283,60578,6,0,L|33:193,1,90,4|8,0:0|0:0,0:0:0:0:
33,103,61276,2,0,L|123:103,1,90,2|8,0:0|0:0,0:0:0:0:
213,103,61974,2,0,L|213:193,1,90,4|8,0:0|0:0,0:0:0:0:
213,283,62671,2,0,L|123:283,1,90,2|10,3:2|0:0,0:0:0:0:
123,373,63369,6,0,L|168:373,1,45,4|4,0:0|0:0,0:0:0:0:
258,373,63892,2,0,L|348:373,1,90,8|0,0:0|3:0,0:0:0:0:
426,328,64590,2,0,P|450:267|425:206,1,135,4|8,0:0|0:0,0:0:0:0:
335,206,65462,2,0,L|335:251,2,45,2|8|8,3:2|0:0|0:0,0:0:0:0:
335,116,66160,6,0,L|335:26,1,90,12|8,0:0|0:0,0:0:0:0:
245,26,66857,2,0,L|245:116,1,90,8|8,0:0|0:0,0:0:0:0:
245,206,67555,1,8,0:0:0:0:
155,206,67904,2,0,L|65:206,2,90,8|2|8,0:0|0:0|0:0,0:0:0:0:
155,116,68950,5,4,0:0:0:0:
108,39,69299,2,0,P|25:63|0:146,1,180,8|0,0:0|3:0,0:0:0:0:
65,206,70346,1,12,0:0:0:0:
0,266,70695,2,0,L|0:311,1,45,8|12,0:0|0:0,0:0:0:0:
179,321,71567,6,0,P|244:328|296:288,1,135,4|8,0:0|0:0,0:0:0:0:
297,198,72439,2,0,L|297:108,1,90,2|8,0:0|0:0,0:0:0:0:
297,18,73137,2,0,L|387:18,1,90,2|8,0:0|0:0,0:0:0:0:
477,18,73834,2,0,L|477:108,1,90,2|8,0:0|0:0,0:0:0:0:
477,198,74532,5,2,0:0:0:0:
387,198,74881,1,10,0:0:0:0:
297,198,75230,2,0,L|207:198,1,90,2|10,0:0|0:0,0:0:0:0:
207,288,75927,2,0,L|297:288,2,90,0|10|0,0:0|0:0|3:0,0:0:0:0:
117,288,76974,1,8,3:2:0:0:
27,288,77323,6,0,L|27:198,1,90,2|10,0:0|0:0,0:0:0:0:
106,155,78020,2,0,L|106:65,1,90,2|10,0:0|0:0,0:0:0:0:
185,22,78718,1,0,0:0:0:0:
264,65,79067,2,0,L|354:65,2,90,10|2|10,0:0|0:0|0:0,0:0:0:0:
264,155,80113,6,0,L|354:155,2,90,2|8|0,0:0|0:0|0:0,0:0:0:0:
185,199,81160,1,10,0:0:0:0:
185,289,81509,2,0,P|224:341|289:351,1,135,12|4,0:0|3:0,0:0:0:0:
379,352,82381,1,8,0:0:0:0:
469,352,82730,6,0,L|469:217,1,135,4|8,0:0|0:0,0:0:0:0:
405,154,83602,2,0,L|405:64,1,90,2|8,0:0|0:0,0:0:0:0:
315,64,84299,2,0,L|315:154,2,90,2|8|2,0:0|0:0|0:0,0:0:0:0:
237,19,85346,1,8,0:0:0:0:
159,64,85695,6,0,L|69:64,1,90,2|10,0:0|0:0,0:0:0:0:
69,154,86392,2,0,L|159:154,1,90,2|10,0:0|0:0,0:0:0:0:
159,244,87090,2,0,L|69:244,1,90,2|8,3:2|0:0,0:0:0:0:
69,334,87788,2,0,L|159:334,1,90,8|8,0:0|0:0,0:0:0:0:
190,367,88311,6,0,P|255:375|307:335,1,135,4|10,0:0|0:0,0:0:0:0:
308,246,89183,2,0,L|308:156,1,90,0|8,3:0|0:0,0:0:0:0:
308,66,89881,2,0,L|398:66,1,90,0|8,3:0|0:0,0:0:0:0:
476,111,90578,1,2,0:0:0:0:
476,201,90927,1,10,0:0:0:0:
398,246,91276,6,0,L|308:246,2,90,4|10|0,0:0|0:0|3:0,0:0:0:0:
398,336,92323,2,0,L|353:336,1,45,10|10,0:0|0:0,0:0:0:0:
353,336,94067,6,0,P|300:296|235:304,1,135,4|4,0:0|0:0,0:0:0:0:
172,368,94939,1,0,3:0:0:0:
108,304,95288,2,0,L|108:214,1,90,4|0,0:0|3:0,0:0:0:0:
44,150,95985,2,0,P|19:89|44:28,1,135,4|12,0:0|0:0,0:0:0:0:
111,89,96857,6,0,P|171:113|232:89,1,135,4|4,0:0|0:0,0:0:0:0:
296,25,97730,1,0,3:0:0:0:
359,89,98078,2,0,L|359:179,1,90,4|0,0:0|3:0,0:0:0:0:
359,269,98776,2,0,L|224:269,1,135,4|12,0:0|0:0,0:0:0:0:
224,359,99648,6,0,L|359:359,1,135,4|4,0:0|0:0,0:0:0:0:
449,359,100525,1,0,3:0:0:0:
449,269,100876,2,0,L|449:179,1,90,4|0,0:0|3:0,0:0:0:0:
449,89,101577,2,0,P|388:64|327:88,1,135,4|12,0:0|0:0,0:0:0:0:
327,179,102455,6,0,L|192:179,1,135,4|4,0:0|0:0,0:0:0:0:
101,179,103332,2,0,L|101:89,1,90,0|4,3:0|0:0,0:0:0:0:
449,179,105091,5,10,0:0:0:0:
382,296,105627,2,0,P|305:336|230:294,1,180,12|0,0:0|0:0,0:0:0:0:
