osu file format v14

[General]
AudioFilename: audio.mp3
AudioLeadIn: 0
PreviewTime: 71218
Countdown: 0
SampleSet: Soft
StackLeniency: 0.4
Mode: 0
LetterboxInBreaks: 0
WidescreenStoryboard: 1

[Editor]
DistanceSpacing: 0.8
BeatDivisor: 4
GridSize: 16
TimelineZoom: 1.5

[Metadata]
Title:Tobenai Mahoutsukai
TitleUnicode:飛べない魔法使い
Artist:yanaginagi
ArtistUnicode:やなぎなぎ
Creator:Dored
Version:Dalou's Insane
Source:しゅぷれ~むキャンディ ~王道には王道たる理由があるんです!~
Tags:Supreme Candy Galgame Eroge Visual Novel Opening Short Version Makura Reincarnation Necho DalouBot Hidden me 84461810 fuyuyu- Mamayu Kanau Silky
BeatmapID:1815206
BeatmapSetID:867830

[Difficulty]
HPDrainRate:6
CircleSize:4
OverallDifficulty:8
ApproachRate:9
SliderMultiplier:1.6
SliderTickRate:1

[Events]
//Background and Video events
0,0,"Insane2.jpg",0,0
//Break Periods
//Storyboard Layer 0 (Background)
//Storyboard Layer 1 (Fail)
//Storyboard Layer 2 (Pass)
//Storyboard Layer 3 (Foreground)
//Storyboard Sound Samples

[TimingPoints]
-1460,365.853658536585,4,2,1,30,1,0
735,-125,4,2,1,30,0,0
2545,368.098159509202,4,2,1,30,1,0
2913,368.098159509202,4,2,1,30,1,0
2913,-125,4,2,1,30,0,0
6950,365.853658536585,4,2,1,30,1,0
6950,-125,4,2,1,30,0,0
7315,365.853658536585,4,2,1,30,1,0
7315,-125,4,2,1,30,0,0
12440,348.837209302326,4,2,1,30,1,0
12440,-100,4,2,1,30,0,0
12614,-100,4,2,1,40,0,0
12788,-100,4,2,1,45,0,0
13137,348.837209302326,4,2,1,45,1,0
23253,-111.111111111111,4,2,1,45,0,0
23602,-100,4,2,1,45,0,0
24299,-90.9090909090909,4,2,1,65,0,0
24561,-90.9090909090909,4,2,1,5,0,0
24648,-90.9090909090909,4,2,1,65,0,0
25084,-90.9090909090909,4,2,1,5,0,0
25171,-90.9090909090909,4,2,1,65,0,0
25782,-90.9090909090909,4,2,1,5,0,0
25869,-90.9090909090909,4,2,1,65,0,0
26480,-90.9090909090909,4,2,1,5,0,0
26567,-90.9090909090909,4,2,1,65,0,0
27352,-90.9090909090909,4,2,1,5,0,0
27439,-90.9090909090909,4,2,1,65,0,0
27875,-90.9090909090909,4,2,1,5,0,0
27962,-90.9090909090909,4,2,1,65,0,0
28573,-90.9090909090909,4,2,1,5,0,0
28660,-90.9090909090909,4,2,1,65,0,0
29270,-90.9090909090909,4,2,1,5,0,0
29357,-90.9090909090909,4,2,1,65,0,0
30142,-90.9090909090909,4,2,1,5,0,0
30230,-90.9090909090909,4,2,1,65,0,0
30666,-90.9090909090909,4,2,1,5,0,0
30753,-90.9090909090909,4,2,1,65,0,0
31363,-90.9090909090909,4,2,1,5,0,0
31450,-90.9090909090909,4,2,1,65,0,0
32061,-90.9090909090909,4,2,1,5,0,0
32148,-90.9090909090909,4,2,1,65,0,0
32671,-100,4,2,1,65,0,0
33456,-100,4,2,1,5,0,0
33543,-100,4,2,1,65,0,0
34154,-100,4,2,1,5,0,0
34241,-100,4,2,1,65,0,0
35462,-100,4,2,1,45,0,0
46014,-100,4,2,1,40,0,0
46276,-100,4,2,1,45,0,0
46625,-90.9090909090909,4,2,1,60,0,0
57177,-90.9090909090909,4,2,1,5,0,0
57264,-90.9090909090909,4,2,1,60,0,0
57788,-100,4,2,1,60,0,0
60578,-90.9090909090909,4,2,1,60,0,0
63282,-90.9090909090909,4,2,1,5,0,0
63369,-100,4,2,1,60,0,0
66160,-90.9090909090909,4,2,1,65,0,0
69212,-90.9090909090909,4,2,1,5,0,0
69299,-90.9090909090909,4,2,1,65,0,0
71218,-90.9090909090909,4,2,1,60,0,0
71567,-83.3333333333333,4,2,1,75,0,1
82206,-83.3333333333333,4,2,1,40,0,1
82293,-83.3333333333333,4,2,1,5,0,1
82381,-83.3333333333333,4,2,1,75,0,1
84561,-83.3333333333333,4,2,1,5,0,1
84648,-83.3333333333333,4,2,1,75,0,1
91538,-83.3333333333333,4,2,1,5,0,1
91625,-83.3333333333333,4,2,1,75,0,1
92497,-100,4,2,1,75,0,0
93543,-100,4,2,1,55,0,0
94067,-90.9090909090909,4,2,1,65,0,0
94328,-90.9090909090909,4,2,1,5,0,0
94416,-90.9090909090909,4,2,1,65,0,0
94852,-90.9090909090909,4,2,1,5,0,0
94939,-90.9090909090909,4,2,1,65,0,0
95549,-90.9090909090909,4,2,1,5,0,0
95637,-90.9090909090909,4,2,1,65,0,0
96247,-90.9090909090909,4,2,1,5,0,0
96334,-90.9090909090909,4,2,1,65,0,0
97119,-90.9090909090909,4,2,1,5,0,0
97206,-90.9090909090909,4,2,1,65,0,0
97642,-90.9090909090909,4,2,1,5,0,0
97730,-90.9090909090909,4,2,1,65,0,0
98340,-90.9090909090909,4,2,1,5,0,0
98427,-90.9090909090909,4,2,1,65,0,0
99038,-90.9090909090909,4,2,1,5,0,0
99125,-90.9090909090909,4,2,1,65,0,0
99648,350.877192982456,4,2,1,65,1,0
99648,-90.9090909090909,4,2,1,65,0,0
99911,-90.9090909090909,4,2,1,5,0,0
99998,-90.9090909090909,4,2,1,65,0,0
100437,-90.9090909090909,4,2,1,5,0,0
100525,-90.9090909090909,4,2,1,65,0,0
101139,-90.9090909090909,4,2,1,5,0,0
101226,-90.9090909090909,4,2,1,65,0,0
101840,-90.9090909090909,4,2,1,5,0,0
101928,-90.9090909090909,4,2,1,65,0,0
102455,-100,4,2,1,65,0,0
103244,-100,4,2,1,5,0,0
103332,-100,4,2,1,65,0,0
104020,357.142857142857,4,2,1,50,1,0
104020,-100,4,2,1,50,0,0
104555,-100,4,2,1,60,0,0
105091,-100,4,2,1,70,0,0

[Colours]
Combo1 : 217,172,209
Combo2 : 180,180,180
Combo3 : 138,207,244
Combo4 : 241,205,97

[HitObjects]
155,314,918,6,0,L|158:227,1,64,2|2,0:0|0:0,0:0:0:0:
161,160,1283,1,2,0:0:0:0:
280,126,1466,6,0,L|274:275,1,128,2|0,0:0|0:0,0:0:0:0:
376,296,2015,2,0,L|381:146,1,128,2|0,0:0|0:0,0:0:0:0:
383,37,2545,5,2,0:0:0:0:
469,105,2729,1,2,0:0:0:0:
380,168,2913,1,2,0:0:0:0:
282,123,3097,2,0,B|250:113|250:113|194:116,1,64,2|0,0:0|0:0,0:0:0:0:
117,128,3465,2,0,P|140:186|195:215,1,128,2|0,0:0|0:0,0:0:0:0:
282,123,4017,5,2,0:0:0:0:
380,168,4201,1,2,0:0:0:0:
289,229,4385,2,0,B|279:294|279:294|295:372,1,128,2|0,0:0|0:0,0:0:0:0:
382,290,4937,2,0,P|396:228|379:167,1,128,2|0,0:0|0:0,0:0:0:0:
289,229,5489,5,2,0:0:0:0:
184,206,5673,1,2,0:0:0:0:
101,277,5857,1,0,0:0:0:0:
101,277,6950,6,0,P|95:226|100:197,1,64,2|2,0:0|0:0,0:0:0:0:
86,112,7315,2,0,P|152:92|222:107,1,128,2|0,0:0|0:0,0:0:0:0:
274,181,7863,2,0,P|336:190|397:170,1,128,2|0,0:0|0:0,0:0:0:0:
287,32,8412,5,2,0:0:0:0:
209,101,8595,1,2,0:0:0:0:
274,181,8778,1,2,0:0:0:0:
180,259,8961,2,0,L|174:195,1,64,2|0,0:0|0:0,0:0:0:0:
130,347,9327,2,0,P|201:356|260:321,1,128,2|0,0:0|0:0,0:0:0:0:
274,181,9875,5,2,0:0:0:0:
339,268,10058,1,2,0:0:0:0:
424,201,10241,2,0,L|418:119,1,64,2|0,0:0|0:0,0:0:0:0:
350,44,10607,1,2,0:0:0:0:
270,117,10790,2,0,L|275:198,1,64,2|0,0:0|0:0,0:0:0:0:
214,280,11156,1,2,0:0:0:0:
127,215,11339,2,0,L|121:133,2,64,2|0|0,0:0|0:0|0:0,0:0:0:0:
140,359,12436,5,0,0:0:0:0:
215,281,12614,1,2,0:0:0:0:
127,215,12788,1,2,0:0:0:0:
203,138,12963,1,2,0:0:0:0:
318,183,13137,6,0,L|324:273,1,80,2|0,3:2|0:0,0:0:0:0:
474,202,13485,2,0,L|468:112,1,80,2|2,3:2|0:0,0:0:0:0:
346,35,13834,2,0,L|266:40,1,80,0|0,3:0|0:0,0:0:0:0:
318,183,14183,1,2,3:2:0:0:
193,238,14357,1,2,0:0:0:0:
78,144,14532,5,0,3:0:0:0:
24,315,14706,2,0,L|118:309,1,80,2|0,0:0|3:0,0:0:0:0:
193,238,15055,2,0,L|287:232,1,80,2|0,0:0|3:0,0:0:0:0:
413,305,15404,1,0,0:0:0:0:
406,147,15578,1,2,3:2:0:0:
273,233,15753,1,2,3:2:0:0:
174,116,15927,6,0,L|176:26,1,80,2|0,3:2|0:0,0:0:0:0:
311,30,16276,1,2,3:2:0:0:
406,147,16450,2,0,L|404:250,2,80,2|0|0,0:0|3:0|0:0,0:0:0:0:
273,233,16974,1,0,3:0:0:0:
172,120,17148,1,0,3:0:0:0:
101,250,17323,6,0,L|104:345,1,80,0|0,3:0|0:0,0:0:0:0:
273,233,17671,2,0,L|270:138,1,80,0|0,3:0|0:0,0:0:0:0:
12,131,18020,2,0,L|15:226,1,80,2|0,3:2|0:0,0:0:0:0:
172,120,18369,2,0,L|169:25,1,80,2|0,3:2|0:0,0:0:0:0:
368,133,18718,6,0,L|365:228,1,80,2|0,3:2|0:0,0:0:0:0:
285,335,19067,1,2,3:2:0:0:
158,276,19241,2,0,L|162:197,1,80,2|0,0:0|3:0,0:0:0:0:
169,40,19590,1,2,0:0:0:0:
32,108,19764,1,2,3:2:0:0:
162,196,19939,1,0,0:0:0:0:
36,308,20113,6,0,L|33:210,1,80,0|0,3:0|0:0,0:0:0:0:
166,117,20462,2,0,L|162:196,1,80,0|0,3:0|0:0,0:0:0:0:
259,309,20811,1,0,3:0:0:0:
365,212,20985,2,0,L|360:117,2,80,2|0|2,0:0|3:0|3:2,0:0:0:0:
452,357,21509,6,0,L|353:361,1,80,2|0,3:2|0:0,0:0:0:0:
275,227,21857,1,0,3:0:0:0:
154,287,22032,1,4,0:0:0:0:
42,172,22206,5,2,3:2:0:0:
244,149,22381,1,8,3:0:0:0:
154,287,22555,1,8,0:0:0:0:
136,81,22730,1,4,3:0:0:0:
343,137,22904,6,0,L|340:223,1,80,2|0,3:2|0:0,0:0:0:0:
337,352,23253,1,2,3:2:0:0:
337,352,23340,2,0,P|291:345|245:352,1,71.9999978027344,8|0,0:0|0:0,0:0:0:0:
188,356,23602,1,2,3:2:0:0:
340,216,23776,1,0,0:0:0:0:
146,148,23950,1,2,3:2:0:0:
22,268,24125,1,8,0:0:0:0:
47,282,24212,1,8,0:0:0:0:
73,295,24299,6,0,L|186:291,1,88.000002685547,4|0,0:0|0:0,0:0:0:0:
243,173,24648,1,8,0:0:0:0:
478,262,24823,2,0,P|412:302|303:277,1,176.000005371094,4|0,0:0|3:0,0:0:0:0:
243,173,25346,1,8,0:0:0:0:
279,40,25520,6,0,P|346:76|379:183,1,176.000005371094,4|0,0:0|3:0,0:0:0:0:
318,288,26043,1,8,0:0:0:0:
183,322,26218,2,0,P|185:236|242:173,1,176.000005371094,4|4,0:0|0:0,0:0:0:0:
380,166,26741,1,12,0:0:0:0:
318,288,26916,1,2,0:0:0:0:
482,349,27090,6,0,L|477:240,1,88.000002685547,4|0,0:0|0:0,0:0:0:0:
472,112,27439,1,8,0:0:0:0:
329,37,27613,2,0,P|259:89|242:173,1,176.000005371094,4|0,0:0|3:0,0:0:0:0:
318,288,28137,1,8,0:0:0:0:
456,310,28311,6,0,P|444:225|381:166,1,176.000005371094,4|0,0:0|3:0,0:0:0:0:
242,173,28834,1,8,0:0:0:0:
156,282,29009,2,0,P|226:314|331:276,1,176.000005371094,4|4,0:0|0:0,0:0:0:0:
380,166,29532,1,12,0:0:0:0:
242,173,29706,1,2,0:0:0:0:
131,91,29881,6,0,P|126:41|137:-1,2,88.000002685547,4|0|8,0:0|0:0|0:0,0:0:0:0:
87,220,30404,2,0,P|174:224|243:172,1,176.000005371094,4|0,0:0|3:0,0:0:0:0:
257,36,30927,1,8,0:0:0:0:
383,96,31102,6,0,P|327:162|242:173,1,176.000005371094,4|0,0:0|3:0,0:0:0:0:
131,91,31625,1,8,0:0:0:0:
20,169,31799,2,0,L|25:310,1,132.00000402832,4|0,0:0|0:0,0:0:0:0:
29,378,32148,1,4,0:0:0:0:
183,350,32323,2,0,L|187:263,1,88.000002685547,12|0,0:0|0:0,0:0:0:0:
193,103,32671,5,4,0:0:0:0:
328,188,32846,1,0,3:0:0:0:
187,263,33020,1,8,0:0:0:0:
329,348,33195,2,0,L|328:189,1,160,4|0,0:0|3:0,0:0:0:0:
326,44,33718,1,8,0:0:0:0:
193,103,33892,6,0,L|186:279,1,160,4|8,0:0|0:0,0:0:0:0:
328,188,34416,1,8,0:0:0:0:
438,322,34590,1,8,0:0:0:0:
260,302,34764,1,8,0:0:0:0:
398,146,34939,1,8,0:0:0:0:
193,103,35113,1,8,0:0:0:0:
260,302,35288,1,0,3:0:0:0:
53,294,35462,6,0,L|57:187,1,80,2|0,3:2|0:0,0:0:0:0:
193,103,35811,2,0,L|189:210,1,80,0|0,3:0|0:0,0:0:0:0:
325,267,36160,2,0,L|327:187,1,80,0|0,3:0|0:0,0:0:0:0:
185,294,36509,2,0,L|182:373,1,80,0|0,3:0|0:0,0:0:0:0:
329,373,36857,6,0,L|408:370,1,80,0|0,3:0|0:0,0:0:0:0:
430,238,37206,2,0,L|509:235,1,80,2|2,3:2|0:0,0:0:0:0:
430,90,37555,1,0,3:0:0:0:
328,188,37730,1,0,3:0:0:0:
209,120,37904,2,0,L|208:40,1,80,8|0,3:2|0:0,0:0:0:0:
116,194,38253,6,0,P|181:238|258:229,1,160,2|0,3:2|3:0,0:0:0:0:
325,108,38776,1,0,0:0:0:0:
452,173,38950,2,0,L|451:273,2,80,0|0|0,3:0|0:0|3:0,0:0:0:0:
455,44,39474,1,2,0:0:0:0:
325,108,39648,6,0,L|328:204,1,80,0|0,3:0|0:0,0:0:0:0:
191,143,39997,2,0,L|195:56,1,80,2|2,3:2|0:0,0:0:0:0:
66,108,40346,1,0,3:0:0:0:
59,229,40520,1,0,3:0:0:0:
184,264,40695,1,8,3:2:0:0:
191,143,40869,1,0,0:0:0:0:
327,187,41043,6,0,L|329:267,1,80,0|0,3:0|0:0,0:0:0:0:
185,344,41392,2,0,L|184:262,1,80,0|0,3:0|0:0,0:0:0:0:
59,229,41741,2,0,L|57:149,1,80,0|0,3:0|0:0,0:0:0:0:
121,34,42090,1,0,3:0:0:0:
191,143,42264,1,2,0:0:0:0:
314,98,42439,6,0,L|316:13,1,80,2|0,3:2|0:0,0:0:0:0:
443,104,42788,2,0,L|441:189,1,80,2|0,3:2|0:0,0:0:0:0:
312,203,43137,1,0,3:0:0:0:
309,322,43311,1,0,3:0:0:0:
438,302,43485,1,8,3:2:0:0:
441,183,43660,1,0,0:0:0:0:
314,98,43834,6,0,L|219:101,1,80,2|0,3:2|0:0,0:0:0:0:
119,156,44183,2,0,L|24:159,1,80,0|0,3:0|0:0,0:0:0:0:
51,26,44532,2,0,L|146:23,1,80,0|0,3:0|0:0,0:0:0:0:
234,100,44881,2,0,L|329:97,1,80,0|0,3:0|0:0,0:0:0:0:
430,28,45230,5,8,0:0:0:0:
441,183,45404,1,8,0:0:0:0:
234,100,45753,1,2,3:2:0:0:
154,195,45927,1,10,0:0:0:0:
184,213,46014,1,2,0:0:0:0:
219,221,46102,1,2,3:2:0:0:
254,220,46189,1,2,3:2:0:0:
289,210,46276,2,0,L|347:188,1,40,10|0,0:0|0:0,0:0:0:0:
402,173,46450,2,0,L|470:189,1,40,0|0,3:0|3:0,0:0:0:0:
488,301,46625,6,0,P|442:311|387:298,1,88.000002685547,6|0,3:2|0:0,0:0:0:0:
289,210,46974,2,0,L|292:106,1,88.000002685547,8|2,0:0|0:0,0:0:0:0:
135,156,47323,2,0,L|133:244,1,88.000002685547,0|0,3:0|0:0,0:0:0:0:
129,379,47671,1,8,0:0:0:0:
248,315,47846,1,0,0:0:0:0:
133,244,48020,6,0,L|32:247,1,88.000002685547,2|0,3:2|0:0,0:0:0:0:
93,100,48369,2,0,L|194:97,1,88.000002685547,8|2,0:0|0:0,0:0:0:0:
337,94,48718,1,0,3:0:0:0:
263,211,48892,1,0,3:0:0:0:
181,98,49067,2,0,L|179:7,1,88.000002685547,8|0,0:0|0:0,0:0:0:0:
29,52,49416,6,0,L|32:236,1,176.000005371094,2|8,3:2|0:0,0:0:0:0:
132,320,49939,1,2,0:0:0:0:
265,281,50113,2,0,L|262:97,1,176.000005371094,2|8,3:2|0:0,0:0:0:0:
377,25,50637,1,2,0:0:0:0:
476,168,50811,6,0,L|383:166,1,88.000002685547,2|0,3:2|0:0,0:0:0:0:
262,105,51160,2,0,L|169:103,1,88.000002685547,8|2,0:0|0:0,0:0:0:0:
49,207,51509,1,0,3:0:0:0:
202,264,51683,1,0,3:0:0:0:
174,103,51857,1,8,0:0:0:0:
110,275,52032,1,0,0:0:0:0:
288,302,52206,6,0,L|286:205,1,88.000002685547,2|0,3:2|0:0,0:0:0:0:
420,136,52555,1,8,0:0:0:0:
424,284,52730,1,2,0:0:0:0:
286,214,52904,2,0,L|282:109,1,88.000002685547,0|0,3:0|0:0,0:0:0:0:
417,48,53253,2,0,L|420:136,1,88.000002685547,8|0,0:0|0:0,0:0:0:0:
283,126,53602,6,0,L|172:128,1,88.000002685547,2|0,3:2|0:0,0:0:0:0:
53,58,53950,1,8,0:0:0:0:
58,209,54125,1,2,0:0:0:0:
195,127,54299,2,0,L|192:21,2,88.000002685547,0|0|8,3:0|3:0|0:0,0:0:0:0:
200,278,54823,1,0,0:0:0:0:
350,220,54997,6,0,P|351:175|346:114,1,88.000002685547,2|0,3:2|3:0,0:0:0:0:
498,242,55346,2,0,P|499:286|494:347,1,88.000002685547,8|2,0:0|0:0,0:0:0:0:
344,351,55695,2,0,P|293:353|249:348,1,88.000002685547,0|0,3:0|3:0,0:0:0:0:
160,204,56043,2,0,P|203:201|247:205,1,88.000002685547,10|0,0:0|0:0,0:0:0:0:
399,288,56392,5,14,0:0:0:0:
297,65,56741,1,10,0:0:0:0:
247,205,56916,1,10,0:0:0:0:
399,288,57090,1,0,0:0:0:0:
360,138,57264,1,10,0:0:0:0:
263,336,57439,1,2,3:2:0:0:
153,144,57613,1,10,0:0:0:0:
109,309,57788,5,4,0:0:0:0:
171,73,57962,1,4,0:0:0:0:
91,379,58311,5,8,0:0:0:0:
324,228,58660,1,0,3:0:0:0:
374,337,58834,1,8,0:0:0:0:
443,238,59009,1,4,0:0:0:0:
294,29,59357,5,0,3:0:0:0:
191,92,59532,2,0,L|186:191,1,80,10|2,0:0|0:0,0:0:0:0:
63,214,59881,2,0,L|67:114,1,80,2|2,0:0|0:0,0:0:0:0:
187,172,60230,1,8,0:0:0:0:
174,291,60404,1,0,0:0:0:0:
299,332,60578,6,0,P|310:247|299:149,1,176.000005371094,4|8,0:0|0:0,0:0:0:0:
304,33,61102,1,0,3:0:0:0:
434,36,61276,2,0,P|447:120|438:218,1,176.000005371094,2|8,0:0|0:0,0:0:0:0:
431,335,61799,1,2,0:0:0:0:
299,332,61974,6,0,P|289:244|300:156,1,176.000005371094,4|8,0:0|0:0,0:0:0:0:
304,33,62497,1,0,3:0:0:0:
175,38,62671,2,0,P|165:80|170:133,1,88.000002685547,2|2,3:2|3:2,0:0:0:0:
125,250,63020,2,0,P|167:256|220:246,1,88.000002685547,10|0,0:0|0:0,0:0:0:0:
300,157,63369,5,4,0:0:0:0:
354,374,63543,1,4,0:0:0:0:
282,85,63892,5,8,0:0:0:0:
218,327,64241,1,0,3:0:0:0:
125,250,64416,1,8,0:0:0:0:
105,367,64590,1,4,0:0:0:0:
15,129,64939,5,0,3:0:0:0:
128,153,65113,2,0,B|170:155|170:155|223:148,1,80,8|0,0:0|0:0,0:0:0:0:
230,6,65462,1,2,3:2:0:0:
355,112,65637,1,8,0:0:0:0:
207,150,65811,1,8,0:0:0:0:
332,16,65985,1,0,3:0:0:0:
424,164,66160,6,0,P|425:214|419:262,1,88.000002685547,12|0,0:0|3:0,0:0:0:0:
278,319,66509,2,0,P|277:265|283:217,1,88.000002685547,8|0,0:0|3:0,0:0:0:0:
247,82,66857,2,0,P|198:80|146:87,1,88.000002685547,8|0,0:0|3:0,0:0:0:0:
91,234,67206,2,0,P|139:235|192:229,1,88.000002685547,8|0,0:0|3:0,0:0:0:0:
353,187,67555,6,0,L|355:81,1,88.000002685547,8|0,0:0|3:0,0:0:0:0:
179,232,67904,2,0,L|177:338,1,88.000002685547,8|0,0:0|3:0,0:0:0:0:
347,346,68253,2,0,P|382:268|350:184,1,176.000005371094,2|8,0:0|0:0,0:0:0:0:
276,263,68776,1,0,0:0:0:0:
246,87,68950,1,4,0:0:0:0:
36,219,69299,5,8,0:0:0:0:
232,176,69474,1,8,0:0:0:0:
74,97,69648,1,8,0:0:0:0:
110,315,69823,1,8,0:0:0:0:
246,87,69997,1,0,3:0:0:0:
276,263,70171,1,0,3:0:0:0:
74,97,70346,5,12,0:0:0:0:
20,291,70695,1,8,0:0:0:0:
87,53,70869,1,12,0:0:0:0:
225,326,71218,5,2,0:0:0:0:
225,326,71392,1,2,0:0:0:0:
172,230,71567,6,0,B|220:209|273:227|273:227|323:241|382:215,1,191.999994140625,4|0,0:0|0:0,0:0:0:0:
340,45,72090,2,0,P|313:106|314:142,1,95.9999970703126,8|0,0:0|0:0,0:0:0:0:
410,321,72439,1,2,0:0:0:0:
427,120,72613,1,0,0:0:0:0:
267,225,72788,1,8,0:0:0:0:
473,210,72962,1,0,3:0:0:0:
340,45,73137,6,0,B|283:34|242:71|242:71|204:107|143:93,1,191.999994140625,2|8,0:0|0:0,0:0:0:0:
45,12,73660,1,0,0:0:0:0:
162,96,73834,2,0,P|169:156|158:212,1,95.9999970703126,2|0,0:0|0:0,0:0:0:0:
43,315,74183,1,8,0:0:0:0:
32,145,74357,1,0,3:0:0:0:
258,193,74532,6,0,P|233:253|200:278,1,95.9999970703126,2|0,0:0|0:0,0:0:0:0:
295,61,74881,2,0,P|359:52|401:69,1,95.9999970703126,10|0,0:0|0:0,0:0:0:0:
162,96,75230,2,0,P|122:44|117:3,1,95.9999970703126,2|0,0:0|0:0,0:0:0:0:
342,157,75578,1,10,0:0:0:0:
318,304,75753,1,2,0:0:0:0:
504,321,75927,6,0,P|505:275|503:211,1,95.9999970703126,0|0,0:0|3:0,0:0:0:0:
343,61,76276,2,0,P|340:109|343:170,1,95.9999970703126,10|0,0:0|0:0,0:0:0:0:
244,337,76625,1,0,3:0:0:0:
102,326,76799,1,2,3:0:0:0:
58,190,76974,1,8,3:2:0:0:
164,94,77148,1,2,3:0:0:0:
342,157,77323,6,0,P|400:165|438:156,1,95.9999970703126,2|0,0:0|0:0,0:0:0:0:
235,34,77671,2,0,P|193:56|164:94,1,95.9999970703126,10|0,0:0|0:0,0:0:0:0:
244,337,78020,2,0,P|255:282|246:229,1,95.9999970703126,2|0,0:0|0:0,0:0:0:0:
58,190,78369,1,10,0:0:0:0:
129,376,78543,1,2,0:0:0:0:
250,243,78718,6,0,L|248:135,1,95.9999970703126
498,108,79067,2,0,L|500:203,1,95.9999970703126,10|0,0:0|0:0,0:0:0:0:
341,150,79416,2,0,L|338:40,1,95.9999970703126,2|0,0:0|0:0,0:0:0:0:
178,14,79764,2,0,L|180:109,1,95.9999970703126,10|0,0:0|0:0,0:0:0:0:
131,268,80113,6,0,P|180:275|225:268,1,95.9999970703126,2|0,0:0|0:0,0:0:0:0:
341,150,80462,2,0,P|371:190|385:249,1,95.9999970703126,8|0,0:0|0:0,0:0:0:0:
180,109,80811,2,0,B|188:57|250:21,1,95.9999970703126,0|0,0:0|3:0,0:0:0:0:
341,150,81160,1,10,0:0:0:0:
226,268,81334,1,0,0:0:0:0:
318,374,81509,5,12,0:0:0:0:
251,163,81683,1,8,0:0:0:0:
114,295,81857,1,2,3:0:0:0:
337,262,82032,1,4,3:0:0:0:
117,108,82206,1,4,3:0:0:0:
226,268,82381,1,8,0:0:0:0:
340,73,82555,1,8,0:0:0:0:
511,249,82730,6,0,P|443:288|318:243,1,191.999994140625,4|0,0:0|0:0,0:0:0:0:
252,125,83253,2,0,L|256:6,1,95.9999970703126,8|0,0:0|0:0,0:0:0:0:
422,85,83602,2,0,L|418:204,1,95.9999970703126,2|0,0:0|0:0,0:0:0:0:
369,341,83950,1,8,0:0:0:0:
254,216,84125,1,0,3:0:0:0:
104,194,84299,6,0,P|97:251|110:306,1,95.9999970703126,2|0,0:0|0:0,0:0:0:0:
214,380,84648,1,8,0:0:0:0:
254,216,84823,2,0,B|264:143|250:64|250:64|202:89,1,191.999994140625,2|0,0:0|0:0,0:0:0:0:
104,194,85346,1,8,0:0:0:0:
235,300,85520,1,0,3:0:0:0:
392,222,85695,6,0,P|411:279|407:324,1,95.9999970703126,2|0,0:0|0:0,0:0:0:0:
328,101,86043,2,0,P|369:50|408:36,1,95.9999970703126,10|0,0:0|0:0,0:0:0:0:
254,216,86392,2,0,P|190:205|158:179,1,95.9999970703126,2|0,0:0|0:0,0:0:0:0:
419,135,86741,1,10,0:0:0:0:
409,314,86916,1,2,0:0:0:0:
254,216,87090,6,0,P|252:167|256:106,1,95.9999970703126,2|0,3:2|3:0,0:0:0:0:
141,11,87439,1,8,0:0:0:0:
2,119,87613,1,0,3:0:0:0:
165,187,87788,1,8,0:0:0:0:
31,284,87962,1,0,3:0:0:0:
98,101,88137,1,8,0:0:0:0:
254,216,88311,6,0,B|259:294|249:361|249:361|208:327,1,191.999994140625,4|0,0:0|0:0,0:0:0:0:
96,196,88834,2,0,P|94:148|98:101,1,95.9999970703126,10|0,0:0|0:0,0:0:0:0:
239,76,89183,1,0,3:0:0:0:
254,216,89357,1,0,3:0:0:0:
402,178,89532,2,0,P|403:125|388:67,1,95.9999970703126,8|0,0:0|0:0,0:0:0:0:
254,216,89881,6,0,L|256:325,1,95.9999970703126,0|0,3:0|3:0,0:0:0:0:
98,291,90230,2,0,P|92:239|101:179,1,95.9999970703126,8|0,0:0|0:0,0:0:0:0:
138,53,90578,2,0,P|190:47|250:56,1,95.9999970703126,2|0,0:0|0:0,0:0:0:0:
349,135,90927,2,0,P|396:139|444:133,1,95.9999970703126,10|0,0:0|0:0,0:0:0:0:
496,311,91276,6,0,P|417:350|311:314,1,191.999994140625,4|10,0:0|0:0,0:0:0:0:
254,216,91799,1,2,0:0:0:0:
119,250,91974,2,0,L|121:361,1,95.9999970703126,0|0,3:0|0:0,0:0:0:0:
321,323,92323,1,10,0:0:0:0:
197,135,92497,1,10,0:0:0:0:
321,323,93543,1,0,3:0:0:0:
339,348,93631,1,0,0:0:0:0:
356,373,93718,1,8,0:0:0:0:
443,88,94067,6,0,L|332:92,1,88.000002685547,4|0,0:0|0:0,0:0:0:0:
269,211,94416,1,8,0:0:0:0:
34,122,94590,2,0,P|100:82|208:105,1,176.000005371094,4|0,0:0|3:0,0:0:0:0:
269,211,95113,1,8,0:0:0:0:
233,344,95288,6,0,P|166:308|134:202,1,176.000005371094,4|0,0:0|3:0,0:0:0:0:
194,96,95811,1,8,0:0:0:0:
328,61,95985,2,0,P|327:147|267:212,1,176.000005371094,4|4,0:0|0:0,0:0:0:0:
132,218,96509,1,12,0:0:0:0:
194,96,96683,1,2,0:0:0:0:
30,35,96857,6,0,L|34:143,1,88.000002685547,4|0,0:0|0:0,0:0:0:0:
40,272,97206,1,8,0:0:0:0:
183,347,97381,2,0,P|253:295|269:208,1,176.000005371094,4|0,0:0|3:0,0:0:0:0:
194,96,97904,1,8,0:0:0:0:
56,78,98078,6,0,P|70:163|135:221,1,176.000005371094,4|0,0:0|3:0,0:0:0:0:
270,211,98602,1,8,0:0:0:0:
356,102,98776,2,0,P|286:70|181:108,1,176.000005371094,4|4,0:0|0:0,0:0:0:0:
135,221,99299,1,12,0:0:0:0:
270,211,99474,1,2,0:0:0:0:
381,293,99648,6,0,P|386:343|378:385,2,88.000002685547,4|0|8,0:0|0:0|0:0,0:0:0:0:
425,163,100174,2,0,P|339:159|270:211,1,176.000005371094,4|0,0:0|3:0,0:0:0:0:
143,150,100700,1,8,0:0:0:0:
128,286,100876,6,0,P|214:276|270:211,1,176.000005371094,4|0,0:0|3:0,0:0:0:0:
381,293,101402,1,8,0:0:0:0:
492,215,101577,2,0,L|486:75,1,132.00000402832,4|0,0:0|0:0,0:0:0:0:
483,6,101928,1,4,0:0:0:0:
329,34,102104,2,0,L|325:130,1,88.000002685547,12|0,0:0|0:0,0:0:0:0:
319,281,102455,5,4,0:0:0:0:
184,196,102630,1,0,3:0:0:0:
325,122,102805,1,8,0:0:0:0:
183,36,102981,2,0,L|184:201,1,160,4|0,0:0|3:0,0:0:0:0:
186,340,103507,1,8,0:0:0:0:
43,270,103683,1,4,0:0:0:0:
325,122,104020,5,2,0:0:0:0:
184,196,104198,1,2,0:0:0:0:
88,67,104377,1,2,0:0:0:0:
272,33,104555,1,2,0:0:0:0:
184,196,104734,1,2,0:0:0:0:
349,285,104912,1,2,0:0:0:0:
272,33,105091,1,10,0:0:0:0:
110,339,105627,5,12,0:0:0:0:
