osu file format v14

[General]
AudioFilename: audio.mp3
AudioLeadIn: 0
PreviewTime: 71218
Countdown: 0
SampleSet: Soft
StackLeniency: 0.4
Mode: 0
LetterboxInBreaks: 0
WidescreenStoryboard: 1

[Editor]
DistanceSpacing: 1
BeatDivisor: 2
GridSize: 4
TimelineZoom: 1.5

[Metadata]
Title:Tobenai Mahoutsukai
TitleUnicode:飛べない魔法使い
Artist:yanaginagi
ArtistUnicode:やなぎなぎ
Creator:Dored
Version:844's Normal
Source:しゅぷれ~むキャンディ ~王道には王道たる理由があるんです!~
Tags:Supreme Candy Galgame Eroge Visual Novel Opening Short Version Makura Reincarnation Necho DalouBot Hidden me 84461810 fuyuyu- Mamayu Kanau Silky
BeatmapID:1821320
BeatmapSetID:867830

[Difficulty]
HPDrainRate:3
CircleSize:3.3
OverallDifficulty:4
ApproachRate:5
SliderMultiplier:0.9
SliderTickRate:1

[Events]
//Background and Video events
0,0,"Normal.jpg",0,0
//Break Periods
//Storyboard Layer 0 (Background)
//Storyboard Layer 1 (Fail)
//Storyboard Layer 2 (Pass)
//Storyboard Layer 3 (Foreground)
//Storyboard Sound Samples

[TimingPoints]
-1460,365.853658536585,4,2,1,30,1,0
2545,368.098159509202,4,2,1,30,1,0
2913,368.098159509202,4,2,1,30,1,0
6950,365.853658536585,4,2,1,30,1,0
7315,365.853658536585,4,2,1,30,1,0
12440,348.837209302326,4,2,1,45,1,0
13137,348.837209302326,4,2,1,45,1,0
24299,-100,4,2,1,65,0,0
24561,-100,4,2,1,5,0,0
24648,-100,4,2,1,65,0,0
25084,-100,4,2,1,5,0,0
25171,-100,4,2,1,65,0,0
25782,-100,4,2,1,5,0,0
25869,-100,4,2,1,65,0,0
26480,-100,4,2,1,5,0,0
26567,-100,4,2,1,65,0,0
27352,-100,4,2,1,5,0,0
27439,-100,4,2,1,65,0,0
27875,-100,4,2,1,5,0,0
27962,-100,4,2,1,65,0,0
28573,-100,4,2,1,5,0,0
28660,-100,4,2,1,65,0,0
29270,-100,4,2,1,5,0,0
29357,-100,4,2,1,65,0,0
30142,-100,4,2,1,5,0,0
30230,-100,4,2,1,65,0,0
30666,-100,4,2,1,5,0,0
30753,-100,4,2,1,65,0,0
31363,-100,4,2,1,5,0,0
31450,-100,4,2,1,65,0,0
32061,-100,4,2,1,5,0,0
32148,-100,4,2,1,65,0,0
33456,-100,4,2,1,5,0,0
33543,-100,4,2,1,65,0,0
34154,-100,4,2,1,5,0,0
34241,-100,4,2,1,65,0,0
35462,-100,4,2,1,45,0,0
46625,-100,4,2,1,60,0,0
57177,-100,4,2,1,5,0,0
57264,-100,4,2,1,60,0,0
63282,-100,4,2,1,5,0,0
63369,-100,4,2,1,60,0,0
66160,-100,4,2,1,65,0,0
69212,-100,4,2,1,5,0,0
69299,-100,4,2,1,65,0,0
71218,-100,4,2,1,60,0,0
71567,-100,4,2,1,75,0,1
82293,-100,4,2,1,5,0,1
82381,-100,4,2,1,75,0,1
84561,-100,4,2,1,5,0,1
84648,-100,4,2,1,75,0,1
91538,-100,4,2,1,5,0,1
91625,-100,4,2,1,75,0,1
92497,-100,4,2,1,75,0,0
93543,-100,4,2,1,55,0,0
94067,-100,4,2,1,65,0,0
94328,-100,4,2,1,5,0,0
94416,-100,4,2,1,65,0,0
94852,-100,4,2,1,5,0,0
94939,-100,4,2,1,65,0,0
95549,-100,4,2,1,5,0,0
95637,-100,4,2,1,65,0,0
96247,-100,4,2,1,5,0,0
96334,-100,4,2,1,65,0,0
97119,-100,4,2,1,5,0,0
97206,-100,4,2,1,65,0,0
97642,-100,4,2,1,5,0,0
97730,-100,4,2,1,65,0,0
98340,-100,4,2,1,5,0,0
98427,-100,4,2,1,65,0,0
99038,-100,4,2,1,5,0,0
99125,-100,4,2,1,65,0,0
99648,350.877192982456,4,2,1,65,1,0
99911,-100,4,2,1,5,0,0
99998,-100,4,2,1,65,0,0
100437,-100,4,2,1,5,0,0
100525,-100,4,2,1,65,0,0
101139,-100,4,2,1,5,0,0
101226,-100,4,2,1,65,0,0
101840,-100,4,2,1,5,0,0
101928,-100,4,2,1,65,0,0
103244,-100,4,2,1,5,0,0
103332,-100,4,2,1,65,0,0
104020,357.142857142857,4,2,1,50,1,0
104020,-100,4,2,1,50,0,0
104555,-100,4,2,1,60,0,0
105091,-100,4,2,1,70,0,0

[Colours]
Combo1 : 217,172,209
Combo2 : 180,180,180
Combo3 : 138,207,244
Combo4 : 241,205,97

[HitObjects]
48,336,13137,6,0,L|144:336,1,90,2|2,3:2|3:2,0:0:0:0:
212,285,13834,2,0,L|308:285,1,90,0|2,3:0|3:2,0:0:0:0:
380,240,14532,2,0,L|476:240,2,90,0|0|0,3:0|3:0|3:0,0:0:0:0:
327,167,15578,1,2,3:2:0:0:
256,110,15927,6,0,P|213:95|171:107,1,90,2|2,3:2|3:2,0:0:0:0:
80,108,16625,2,0,P|88:151|120:182,1,90,0|0,3:0|3:0,0:0:0:0:
76,261,17323,2,0,P|118:275|160:263,1,90,0|0,3:0|3:0,0:0:0:0:
208,187,18020,1,2,3:2:0:0:
256,110,18369,1,2,3:2:0:0:
305,35,18718,6,0,P|382:37|457:67,2,135,2|2|2,3:2|0:0|3:2,0:0:0:0:
256,110,20113,2,0,L|144:110,1,90,0|0,3:0|3:0,0:0:0:0:
124,192,20811,2,0,L|27:248,1,90,0|0,3:0|3:0,0:0:0:0:
67,324,21509,6,0,P|98:345|175:344,1,90,2|0,3:2|3:0,0:0:0:0:
184,322,22032,2,0,L|183:263,2,45,4|2|8,0:0|3:2|3:0,0:0:0:0:
226,337,22555,1,8,0:0:0:0:
314,351,22904,2,0,P|361:332|401:331,1,90,2|2,3:2|3:2,0:0:0:0:
474,279,23602,1,2,3:2:0:0:
474,189,23950,1,2,3:2:0:0:
472,97,24299,6,0,P|429:107|398:139,1,90,4|8,0:0|0:0,0:0:0:0:
385,183,24823,2,0,P|319:178|302:142,1,90,4|0,0:0|3:0,0:0:0:0:
290,121,25346,1,8,0:0:0:0:
273,79,25520,2,0,L|183:84,1,90,4|0,0:0|3:0,0:0:0:0:
143,106,26043,2,0,L|76:97,1,45,8|4,0:0|0:0,0:0:0:0:
36,165,26567,2,0,L|30:209,1,45,4|12,0:0|0:0,0:0:0:0:
51,296,27090,6,0,P|91:278|115:240,1,90,4|8,0:0|0:0,0:0:0:0:
153,216,27613,2,0,L|235:278,1,90,4|0,0:0|3:0,0:0:0:0:
259,299,28137,1,8,0:0:0:0:
298,319,28311,2,0,P|310:250|334:222,1,90,4|0,0:0|3:0,0:0:0:0:
363,219,28834,2,0,L|434:218,1,45,8|4,0:0|0:0,0:0:0:0:
417,128,29357,2,0,L|372:128,1,45,4|12,0:0|0:0,0:0:0:0:
284,153,29881,6,0,P|283:109|304:70,1,90,4|8,0:0|0:0,0:0:0:0:
343,46,30404,2,0,L|442:44,1,90,4|0,0:0|3:0,0:0:0:0:
472,64,30927,1,8,0:0:0:0:
458,107,31102,2,0,P|447:154|475:215,1,90,4|0,0:0|3:0,0:0:0:0:
477,234,31625,2,0,L|482:303,1,45,8|4,0:0|0:0,0:0:0:0:
415,341,32148,2,0,L|370:344,1,45,4|12,0:0|0:0,0:0:0:0:
291,304,32671,6,0,L|286:249,2,45,4|0|8,0:0|3:0|0:0,0:0:0:0:
256,333,33195,2,0,P|210:345|151:335,1,90,4|0,0:0|3:0,0:0:0:0:
133,312,33718,2,0,L|81:314,1,45,8|4,0:0|0:0,0:0:0:0:
70,225,34241,2,0,L|114:223,1,45,8|8,0:0|0:0,0:0:0:0:
159,220,34590,1,8,0:0:0:0:
204,217,34764,2,0,L|203:172,2,45,8|8|8,0:0|0:0|0:0,0:0:0:0:
294,212,35462,6,0,L|292:99,1,90,2|0,3:2|3:0,0:0:0:0:
262,88,35985,2,0,P|196:78|135:106,1,135,0|0,0:0|3:0,0:0:0:0:
85,178,36857,2,0,P|126:194|170:186,1,90,0|2,3:0|3:2,0:0:0:0:
204,217,37381,2,0,L|205:306,1,90,2|0,0:0|3:0,0:0:0:0:
230,344,37904,1,8,3:2:0:0:
319,336,38253,6,0,B|333:292|333:292|314:249,1,90,2|0,3:2|3:0,0:0:0:0:
294,212,38776,1,0,0:0:0:0:
288,167,38950,2,0,P|346:145|404:137,1,90,0|0,3:0|3:0,0:0:0:0:
352,51,39648,2,0,P|305:46|234:60,1,90,0|2,3:0|3:2,0:0:0:0:
223,73,40171,2,0,P|147:84|118:67,1,90,2|0,0:0|3:0,0:0:0:0:
96,61,40695,1,8,3:2:0:0:
34,126,41043,6,0,P|55:193|32:227,1,90,0|0,3:0|3:0,0:0:0:0:
36,251,41567,2,0,L|171:274,1,135,0|0,0:0|3:0,0:0:0:0:
231,338,42439,2,0,L|324:318,1,90,2|2,3:2|3:2,0:0:0:0:
354,346,42962,2,0,L|424:246,1,90,0|0,0:0|3:0,0:0:0:0:
434,237,43485,1,8,3:2:0:0:
368,175,43834,5,2,3:2:0:0:
302,113,44183,1,0,3:0:0:0:
235,51,44532,2,0,P|213:89|214:134,1,90,0|0,3:0|3:0,0:0:0:0:
241,220,45230,6,0,L|296:200,1,45,8|8,0:0|0:0,0:0:0:0:
368,175,45753,1,2,3:2:0:0:
380,218,45927,2,0,L|394:268,2,45,10|2|10,0:0|3:2|0:0,0:0:0:0:
454,167,46625,6,0,B|484:149|484:149|431:98,1,90,6|8,3:2|0:0,0:0:0:0:
412,78,47148,2,0,L|308:78,1,90,2|0,0:0|0:0,0:0:0:0:
283,54,47671,1,8,0:0:0:0:
202,93,48020,2,0,P|156:102|108:89,1,90,2|8,3:2|0:0,0:0:0:0:
76,67,48543,2,0,L|63:176,1,90,2|0,0:0|3:0,0:0:0:0:
61,201,49067,1,8,0:0:0:0:
100,280,49416,6,0,P|133:251|149:210,1,90,2|8,3:2|0:0,0:0:0:0:
170,170,49939,1,2,0:0:0:0:
192,131,50113,2,0,L|283:129,1,90,2|8,3:2|0:0,0:0:0:0:
365,162,50811,2,0,L|456:164,1,90,2|8,3:2|0:0,0:0:0:0:
480,201,51334,2,0,P|469:244|468:289,1,90,2|0,0:0|3:0,0:0:0:0:
477,333,51857,1,8,0:0:0:0:
393,366,52206,6,0,P|361:326|379:269,1,90,2|8,3:2|0:0,0:0:0:0:
331,257,52730,2,0,L|231:223,1,90,2|0,0:0|0:0,0:0:0:0:
202,213,53253,1,8,0:0:0:0:
116,185,53602,2,0,P|111:234|77:266,1,90,2|8,3:2|0:0,0:0:0:0:
63,302,54125,2,0,P|121:313|166:348,1,90,2|0,0:0|3:0,0:0:0:0:
186,349,54648,2,0,L|245:333,1,45,8|0,0:0|0:0,0:0:0:0:
273,347,54997,6,0,P|332:340|369:314,1,90,2|8,3:2|0:0,0:0:0:0:
420,258,55695,1,0,3:0:0:0:
439,170,56043,1,10,0:0:0:0:
418,82,56392,1,14,0:0:0:0:
329,98,56741,2,0,L|284:104,1,45,10|10,0:0|0:0,0:0:0:0:
264,192,57264,2,0,P|307:197|378:173,1,90,10|10,0:0|0:0,0:0:0:0:
396,176,57788,6,0,L|414:240,1,45,4|4,0:0|0:0,0:0:0:0:
434,305,58311,1,8,0:0:0:0:
355,349,58660,1,0,3:0:0:0:
286,290,59009,2,0,P|243:285|172:309,1,90,4|0,0:0|3:0,0:0:0:0:
154,308,59532,1,10,0:0:0:0:
72,346,59881,2,0,P|48:301|69:238,1,90,2|8,0:0|0:0,0:0:0:0:
66,174,60578,6,0,P|156:143|177:112,1,135,4|0,0:0|3:0,0:0:0:0:
194,71,61276,2,0,L|299:79,1,90,2|8,0:0|0:0,0:0:0:0:
368,47,61974,2,0,P|366:113|320:160,1,135,4|0,0:0|3:0,0:0:0:0:
276,169,62671,2,0,P|269:213|269:258,1,90,2|10,3:2|0:0,0:0:0:0:
359,250,63369,6,0,L|414:245,1,45,4|4,0:0|0:0,0:0:0:0:
477,297,63892,1,8,0:0:0:0:
398,341,64241,1,0,3:0:0:0:
307,337,64590,2,0,P|277:296|271:234,1,90,4|0,0:0|3:0,0:0:0:0:
275,213,65113,1,8,0:0:0:0:
314,132,65462,2,0,L|281:84,2,45,2|8|8,3:2|0:0|0:0,0:0:0:0:
398,99,66160,6,0,P|442:101|483:119,1,90,12|8,0:0|0:0,0:0:0:0:
470,163,66683,2,0,B|451:207|451:207|467:268,1,90,0|0,3:0|3:0,0:0:0:0:
476,290,67206,1,8,0:0:0:0:
409,350,67555,1,8,0:0:0:0:
357,276,67904,2,0,L|251:254,1,90,8|2,0:0|0:0,0:0:0:0:
180,240,68602,1,8,0:0:0:0:
92,218,68950,6,0,P|113:179|150:154,1,90,4|8,0:0|0:0,0:0:0:0:
195,151,69474,1,8,0:0:0:0:
239,159,69648,2,0,L|298:171,2,45,8|8|0,0:0|0:0|3:0,0:0:0:0:
248,68,70346,2,0,P|291:57|334:65,1,90,12|8,0:0|0:0,0:0:0:0:
377,51,70869,1,12,0:0:0:0:
469,205,71567,6,0,P|452:269|467:335,1,135,4|8,0:0|0:0,0:0:0:0:
379,354,72439,2,0,P|329:335|272:345,1,90,2|8,0:0|0:0,0:0:0:0:
249,349,72962,1,0,0:0:0:0:
207,331,73137,2,0,P|213:273|244:247,1,90,2|8,0:0|0:0,0:0:0:0:
320,228,73834,2,0,L|340:138,1,90,2|8,0:0|0:0,0:0:0:0:
350,96,74357,1,0,0:0:0:0:
312,70,74532,6,0,P|249:60|227:36,1,90,2|8,0:0|0:0,0:0:0:0:
154,89,75230,1,2,0:0:0:0:
167,178,75578,1,10,0:0:0:0:
197,211,75753,2,0,P|251:190|310:209,1,90,2|0,0:0|3:0,0:0:0:0:
325,206,76276,1,10,0:0:0:0:
409,236,76625,2,0,L|413:290,1,45,0|2,3:0|3:0,0:0:0:0:
416,325,76974,1,8,3:2:0:0:
325,324,77323,6,0,P|283:330|223:364,1,90,2|10,0:0|0:0,0:0:0:0:
168,295,78020,2,0,L|61:255,1,90,2|10,0:0|0:0,0:0:0:0:
42,245,78543,2,0,P|87:191|96:148,1,90
97,128,79067,1,10,0:0:0:0:
180,93,79416,2,0,L|246:94,1,45,2|0,0:0|0:0,0:0:0:0:
270,95,79764,1,10,0:0:0:0:
355,66,80113,6,0,P|359:110|340:150,1,90,2|8,0:0|0:0,0:0:0:0:
285,223,80811,1,0,0:0:0:0:
223,289,81160,2,0,P|197:252|195:208,1,90,10|12,0:0|0:0,0:0:0:0:
214,167,81683,2,0,L|109:147,1,90,8|4,0:0|3:0,0:0:0:0:
36,138,82381,2,0,L|24:94,1,45,8|8,0:0|0:0,0:0:0:0:
35,50,82730,6,0,P|86:65|168:35,1,135,4|8,0:0|0:0,0:0:0:0:
251,47,83602,2,0,P|298:45|355:84,1,90,2|8,0:0|0:0,0:0:0:0:
339,108,84125,1,0,0:0:0:0:
307,139,84299,2,0,P|293:173|324:236,1,90,2|8,0:0|0:0,0:0:0:0:
348,243,84823,2,0,B|395:233|395:233|459:255,1,90,0|0,3:0|0:0,0:0:0:0:
471,270,85346,2,0,P|474:315|459:357,1,90,8|2,0:0|0:0,0:0:0:0:
371,343,86043,5,10,0:0:0:0:
282,358,86392,2,0,P|266:315|269:271,1,90,2|10,0:0|0:0,0:0:0:0:
269,225,86916,2,0,L|148:203,1,90,2|0,0:0|3:0,0:0:0:0:
135,201,87439,1,8,0:0:0:0:
45,189,87788,2,0,L|31:135,1,45,8|0,0:0|3:0,0:0:0:0:
35,100,88137,1,8,0:0:0:0:
57,61,88311,6,0,P|122:70|203:33,1,135,4|10,0:0|0:0,0:0:0:0:
229,34,89009,2,0,L|257:148,1,90,0|0,0:0|3:0,0:0:0:0:
262,164,89532,1,8,0:0:0:0:
286,250,89881,1,0,3:0:0:0:
223,313,90230,1,8,0:0:0:0:
136,290,90578,2,0,L|114:202,1,90,2|10,0:0|0:0,0:0:0:0:
198,168,91276,6,0,P|236:190|297:175,1,90,4|10,0:0|0:0,0:0:0:0:
311,152,91799,2,0,L|429:145,1,90,2|0,0:0|0:0,0:0:0:0:
418,104,92323,2,0,L|433:52,1,45,10|10,0:0|0:0,0:0:0:0:
430,60,94067,6,0,L|447:148,1,90,4|8,0:0|0:0,0:0:0:0:
469,188,94590,2,0,P|419:190|372:222,1,90,4|0,0:0|3:0,0:0:0:0:
351,239,95113,1,8,0:0:0:0:
327,277,95288,2,0,L|208:256,1,90,4|0,0:0|3:0,0:0:0:0:
198,239,95811,2,0,L|150:253,1,45,8|4,0:0|0:0,0:0:0:0:
80,303,96334,2,0,L|36:290,1,45,4|12,0:0|0:0,0:0:0:0:
56,202,96857,6,0,P|64:146|48:106,1,90,4|8,0:0|0:0,0:0:0:0:
36,74,97381,2,0,P|81:70|125:28,1,90,4|0,0:0|3:0,0:0:0:0:
160,39,97904,1,8,0:0:0:0:
200,58,98078,2,0,B|240:79|240:79|305:68,1,90,4|0,0:0|3:0,0:0:0:0:
324,51,98602,2,0,L|372:65,1,45,8|4,0:0|0:0,0:0:0:0:
430,127,99125,2,0,L|473:114,1,45,4|12,0:0|0:0,0:0:0:0:
473,203,99648,6,0,P|460:242|475:306,1,90,4|8,0:0|0:0,0:0:0:0:
478,333,100174,2,0,P|438:325|373:348,1,90,4|0,0:0|3:0,0:0:0:0:
348,353,100700,1,8,0:0:0:0:
307,333,100876,2,0,L|314:233,1,90,4|0,0:0|3:0,0:0:0:0:
331,202,101402,2,0,L|320:137,1,45,8|4,0:0|0:0,0:0:0:0:
246,110,101928,2,0,L|257:45,1,45,4|12,0:0|0:0,0:0:0:0:
165,45,102455,6,0,L|120:37,2,45,4|0|8,0:0|3:0|0:0,0:0:0:0:
140,82,102981,2,0,P|126:130|153:191,1,90,4|0,0:0|3:0,0:0:0:0:
168,198,103507,2,0,L|158:262,1,45,8|4,0:0|0:0,0:0:0:0:
74,267,104020,6,0,L|29:272,2,45,2|2|2,0:0|0:0|0:0,0:0:0:0:
92,308,104555,2,0,L|44:336,2,45,2|2|2,0:0|0:0|0:0,0:0:0:0:
130,332,105091,1,10,0:0:0:0:
252,276,105627,6,0,P|341:270|402:353,1,180,12|0,0:0|0:0,0:0:0:0:
