osu file format v14

[General]
AudioFilename: Sweet Track.mp3
AudioLeadIn: 0
PreviewTime: 206159
Countdown: 0
SampleSet: Soft
StackLeniency: 0.7
Mode: 0
LetterboxInBreaks: 0
WidescreenStoryboard: 1

[Editor]
Bookmarks: 49563
DistanceSpacing: 0.7
BeatDivisor: 4
GridSize: 8
TimelineZoom: 1.999999

[Metadata]
Title:Sweet Track
TitleUnicode:Sweet Track
Artist:yanaginagi
ArtistUnicode:やなぎなぎ
Creator:Lafayla
Version:Hard
Source:スッキリ!!
Tags:best album japanese pop ベストアルバム -MUSEUM- 楠野功太郎 大西省吾 Shogo Ohnishi Kotaro Kusuno terakomari sukkiri!! tv television
BeatmapID:2894927
BeatmapSetID:1402613

[Difficulty]
HPDrainRate:4.5
CircleSize:3.6
OverallDifficulty:6.7
ApproachRate:8
SliderMultiplier:1.4
SliderTickRate:1

[Events]
//Background and Video events
0,0,"Yanagi nagi.jpg",0,0
//Break Periods
2,191991,196825
//Storyboard Layer 0 (Background)
//Storyboard Layer 1 (Fail)
//Storyboard Layer 2 (Pass)
//Storyboard Layer 3 (Foreground)
//Storyboard Layer 4 (Overlay)
//Storyboard Sound Samples

[TimingPoints]
949,361.44578313253,4,2,1,40,1,0
949,-142.857142857143,4,2,1,40,0,0
6732,-125,4,2,1,45,0,0
12334,-105.263157894737,4,2,1,60,0,0
21732,-105.263157894737,4,2,1,60,0,0
22093,-105.263157894737,4,2,1,60,0,0
22455,-105.263157894737,4,2,1,60,0,0
22816,-105.263157894737,4,2,1,60,0,0
23900,-142.857142857143,4,2,1,40,0,0
29141,-142.857142857143,4,2,1,47,0,0
29864,-142.857142857143,4,2,1,40,0,0
34202,-142.857142857143,4,2,1,40,0,0
35105,-125,4,2,1,47,0,0
35647,-125,4,2,1,50,0,0
46310,-125,4,2,1,50,0,0
47214,-142.857142857143,4,2,1,50,0,0
52997,-125,4,2,1,55,0,0
55888,-111.111111111111,4,2,1,55,0,0
60226,-142.857142857143,4,2,1,40,0,0
61671,-100,4,2,1,70,0,1
84804,-105.263157894737,4,2,1,60,0,0
94021,-105.263157894737,4,2,1,60,0,0
96189,-142.857142857143,4,2,1,40,0,0
101611,-142.857142857143,4,2,1,45,0,0
102153,-133.333333333333,4,2,1,45,0,0
107214,-133.333333333333,4,2,1,45,0,0
107936,-125,4,2,1,50,0,0
118780,-125,4,2,1,50,0,0
119503,-142.857142857143,4,2,1,50,0,0
125286,-125,4,2,1,55,0,0
128177,-111.111111111111,4,2,1,55,0,0
128539,-111.111111111111,4,2,1,55,0,0
132515,-142.857142857143,4,2,1,40,0,0
133961,-100,4,2,1,70,0,1
157093,-111.111111111111,4,2,1,55,0,0
174985,-111.111111111111,4,2,1,55,0,0
175436,-111.111111111111,4,2,1,55,0,0
176430,-111.111111111111,4,2,1,55,0,0
176882,-111.111111111111,4,2,1,55,0,0
177876,-111.111111111111,4,2,1,55,0,0
178418,-111.111111111111,4,2,1,55,0,0
179322,-111.111111111111,4,2,1,65,0,0
180226,-100,4,2,1,65,0,0
188900,-100,4,2,1,65,0,0
190798,-100,4,2,1,65,0,0
191973,-100,4,2,1,65,0,0
197575,-125,4,2,1,55,0,0
200467,-111.111111111111,4,2,1,55,0,0
204804,-142.857142857143,4,2,1,40,0,0
206250,-100,4,2,1,70,0,1
229382,-105.263157894737,4,2,1,65,0,0
240768,-200,4,2,1,55,0,0
240858,-200,4,2,1,35,0,0
242485,-200,4,2,1,30,0,0
245286,-105.263157894737,4,2,1,15,0,0

[Colours]
Combo1 : 91,227,187
Combo2 : 77,135,242
Combo3 : 136,131,188
Combo4 : 214,105,163

[HitObjects]
221,53,949,6,0,P|272:58|329:49,1,97.9999970092774,2|0,0:0|0:0,0:0:0:0:
395,28,1491,1,2,0:0:0:0:
486,161,1852,2,0,L|494:112,2,48.9999985046387,2|0|0,0:0|0:0|0:0,0:0:0:0:
477,241,2394,2,0,P|427:274|370:265,1,97.9999970092774,2|0,0:0|0:0,0:0:0:0:
244,203,3117,2,0,P|205:173|157:170,1,97.9999970092774,2|0,0:0|0:0,0:0:0:0:
157,169,3840,6,0,L|148:217,2,48.9999985046387,2|0|0,0:0|0:0|0:0,0:0:0:0:
126,93,4382,2,0,P|174:86|222:76,1,97.9999970092774,2|0,0:0|0:0,0:0:0:0:
280,19,4924,2,0,P|304:21|328:27,1,48.9999985046387,2|0,0:0|0:0,0:0:0:0:
400,64,5286,2,0,P|445:39|501:53,2,97.9999970092774,2|0|2,0:0|0:0|0:0,0:0:0:0:
335,111,6189,1,0,0:0:0:0:
335,111,6370,2,0,P|332:135|326:159,1,48.9999985046387
359,243,6732,6,0,P|401:263|476:245,1,112,2|0,0:0|0:0,0:0:0:0:
512,181,7274,2,0,P|469:160|394:178,1,112,2|0,0:0|0:0,0:0:0:0:
363,247,7816,1,2,0:0:0:0:
363,247,7997,1,0,0:0:0:0:
269,232,8177,2,0,P|261:205|257:177,1,56,2|0,0:0|0:0,0:0:0:0:
177,225,8539,2,0,P|169:252|159:278,1,56
86,221,8900,2,0,P|79:161|69:110,1,112,2|0,0:0|0:0,0:0:0:0:
69,110,9442,5,0,0:0:0:0:
127,46,9623,2,0,P|193:42|229:82,1,112,2|0,0:0|0:0,0:0:0:0:
223,71,10165,1,0,0:0:0:0:
269,150,10346,2,0,P|312:116|366:125,1,112,2|0,0:0|0:0,0:0:0:0:
365,124,10888,5,0,0:0:0:0:
405,207,11069,2,0,P|409:234|415:262,1,56,2|0,0:0|0:0,0:0:0:0:
492,211,11430,2,0,P|486:183|482:155,1,56,2|0,0:0|0:0,0:0:0:0:
454,79,11792,1,0,1:0:0:0:
454,79,11973,1,0,1:0:0:0:
240,208,12334,6,0,P|165:190|92:147,1,132.999996448517,14|8,0:0|0:0,0:0:0:0:
10,240,12876,2,0,P|85:258|158:301,1,132.999996448517,0|10,1:0|0:0,0:0:0:0:
209,345,13418,1,8,0:0:0:0:
300,324,13599,2,0,P|311:292|313:259,1,66.4999982242585,0|0,1:0|0:0,0:0:0:0:
409,271,13961,6,0,L|473:257,1,66.4999982242585,10|8,0:0|0:0,0:0:0:0:
416,167,14322,2,0,L|351:153,1,66.4999982242585,0|0,1:0|0:0,0:0:0:0:
328,152,14593,1,0,3:0:0:0:
328,152,14683,1,8,0:0:0:0:
230,209,14864,1,8,0:0:0:0:
173,111,15045,2,0,P|181:74|183:31,1,66.4999982242585,0|0,1:0|0:0,0:0:0:0:
61,115,15406,6,0,P|68:179|121:217,1,132.999996448517,10|0,0:0|1:0,0:0:0:0:
230,209,15948,2,0,L|239:240,2,33.2499991121292,0|0|8,3:0|3:0|0:0,0:0:0:0:
207,113,16310,1,8,0:0:0:0:
291,72,16491,2,0,P|323:65|356:62,1,66.4999982242585,0|0,1:0|0:0,0:0:0:0:
458,94,16852,6,0,P|469:124|465:157,1,66.4999982242585,10|8,0:0|0:0,0:0:0:0:
371,209,17214,2,0,P|367:241|378:272,1,66.4999982242585,0|0,1:0|3:0,0:0:0:0:
415,305,17485,1,0,3:0:0:0:
415,305,17575,2,0,P|465:292|507:289,1,66.4999982242585,8|8,0:0|0:0,0:0:0:0:
351,374,17936,2,0,P|301:361|259:358,1,66.4999982242585,0|0,1:0|0:0,0:0:0:0:
161,364,18298,6,0,P|202:314|200:249,1,132.999996448517,14|0,0:0|1:0,0:0:0:0:
103,216,18840,2,0,L|70:220,2,33.2499991121292,0|0|8,3:0|3:0|0:0,0:0:0:0:
200,249,19202,1,8,0:0:0:0:
281,181,19382,2,0,P|284:149|271:115,1,66.4999982242585,0|8,1:0|0:0,0:0:0:0:
224,27,19744,5,2,1:2:0:0:
224,27,19924,1,8,0:0:0:0:
327,3,20105,2,0,L|392:15,1,66.4999982242585,14|0,1:2|1:0,0:0:0:0:
426,62,20376,1,0,1:0:0:0:
426,62,20467,2,0,L|491:75,1,66.4999982242585,0|8,1:0|3:0,0:0:0:0:
512,175,20828,1,4,3:0:0:0:
512,175,21009,1,0,1:0:0:0:
403,218,21189,5,14,0:0:0:0:
316,178,21370,2,0,P|277:178|230:197,1,66.4999982242585,2|0,1:1|1:0,0:0:0:0:
329,281,21732,2,0,P|393:328|445:320,1,132.999996448517,2|2,1:0|1:0,0:0:0:0:
396,92,22455,2,0,P|331:44|279:52,1,132.999996448517,2|2,1:0|1:1,0:0:0:0:
190,82,22997,1,2,1:2:0:0:
237,173,23177,2,0,L|239:207,2,33.2499991121292,0|0|2,1:0|1:0|1:2,0:0:0:0:
138,220,23539,1,0,1:0:0:0:
138,220,23629,1,0,1:0:0:0:
138,220,23720,1,8,3:0:0:0:
201,308,23900,6,0,B|281:334|267:270|363:310,1,146.999995513916,12|10,0:0|0:0,0:0:0:0:
439,340,24623,1,0,0:0:0:0:
439,340,24804,2,0,P|436:291|458:246,1,97.9999970092774,10|8,0:0|0:0,0:0:0:0:
381,184,25346,2,0,P|383:135|363:91,1,97.9999970092774,2|0,0:0|0:0,0:0:0:0:
174,36,26069,2,0,P|125:32|76:23,2,97.9999970092774,0|2|0,0:0|0:0|0:0,0:0:0:0:
257,88,26973,6,0,L|235:191,1,97.9999970092774,10|8,0:0|0:0,0:0:0:0:
235,277,27515,2,0,P|247:307|269:334,1,48.9999985046387,2|8,0:0|0:0,0:0:0:0:
149,231,27876,2,0,P|124:231|100:237,1,48.9999985046387,0|8,0:0|0:0,0:0:0:0:
4,194,28238,6,0,B|-23:133|6:76|6:76|17:91|30:107,1,146.999995513916,2|8,0:0|0:0,0:0:0:0:
108,131,28961,1,0,0:0:0:0:
108,131,29141,1,8,0:0:0:0:
20,95,29322,1,0,1:0:0:0:
104,30,29503,2,0,L|128:26,3,24.4999992523194,0|0|0|0,1:0|1:0|1:0|1:0,0:0:0:0:
175,39,29864,6,0,P|240:59|292:64,1,97.9999970092774,10|10,0:0|0:0,0:0:0:0:
275,164,30406,1,0,0:0:0:0:
275,164,30587,2,0,P|340:144|392:139,1,97.9999970092774,10|8,0:0|0:0,0:0:0:0:
462,172,31129,2,0,L|473:75,2,97.9999970092774,2|0|2,0:0|0:0|0:0,0:0:0:0:
327,355,32214,2,0,L|305:252,1,97.9999970092774,2|0,0:0|0:0,0:0:0:0:
253,186,32756,6,0,P|206:154|150:164,1,97.9999970092774,10|8,0:0|0:0,0:0:0:0:
166,156,33298,1,0,0:0:0:0:
125,254,33479,2,0,P|172:286|228:276,1,97.9999970092774,10|8,0:0|0:0,0:0:0:0:
211,283,34021,1,0,0:0:0:0:
306,259,34202,6,0,B|319:262|342:272|342:272|333:205|389:169,1,146.999995513916,8|0,3:0|0:0,0:0:0:0:
467,136,34924,1,0,0:0:0:0:
451,39,35105,1,8,0:0:0:0:
365,55,35286,2,0,P|337:52|309:49,1,56,0|8,1:0|0:0,0:0:0:0:
261,50,35557,1,8,0:0:0:0:
261,50,35647,6,0,P|219:92|236:159,1,112,14|0,0:0|1:0,0:0:0:0:
303,202,36189,2,0,L|330:207,2,28,0|0|8,3:0|3:0|0:0,0:0:0:0:
220,259,36551,1,8,0:0:0:0:
220,259,36732,1,0,1:0:0:0:
140,197,36912,6,0,P|120:149|114:85,1,112,2|8,0:0|0:0,0:0:0:0:
6,97,37455,1,0,1:0:0:0:
25,193,37635,2,0,P|36:247|32:303,1,112,2|8,0:0|0:0,0:0:0:0:
106,371,38177,1,0,1:0:0:0:
201,322,38358,1,0,3:0:0:0:
201,322,38448,1,0,3:0:0:0:
201,322,38539,6,0,L|319:312,1,112,10|0,0:0|1:0,0:0:0:0:
406,349,39081,2,0,L|411:376,2,28,0|0|8,3:0|3:0|0:0,0:0:0:0:
442,254,39442,2,0,P|446:226|452:198,1,56,8|0,0:0|1:0,0:0:0:0:
508,109,39804,1,8,0:0:0:0:
508,109,39894,1,8,0:0:0:0:
508,109,39985,6,0,B|487:135|442:138|442:138|411:96|357:107,1,168,10|0,0:0|0:0,0:0:0:0:
310,177,40708,2,0,P|304:204|295:230,1,56,8|8,0:0|0:0,0:0:0:0:
226,143,41069,2,0,P|231:115|241:89,1,56,0|0,1:0|0:0,0:0:0:0:
278,56,41340,1,0,1:0:0:0:
278,56,41430,1,10,0:0:0:0:
96,98,41792,2,0,P|62:93|19:88,1,56,0|0,1:0|0:0,0:0:0:0:
5,93,42063,1,0,3:0:0:0:
5,93,42153,1,8,0:0:0:0:
42,182,42334,1,8,0:0:0:0:
133,190,42515,1,0,1:0:0:0:
133,190,42695,6,0,P|191:200|239:238,1,112,2|8,0:0|0:0,0:0:0:0:
287,315,43238,1,0,1:0:0:0:
287,315,43418,2,0,L|314:310,2,28,0|0|8,3:0|3:0|0:0,0:0:0:0:
198,347,43780,2,0,P|142:342|86:338,1,112,8|8,0:0|0:0,0:0:0:0:
43,331,44232,1,8,0:0:0:0:
43,331,44322,6,0,P|8:284|18:212,1,112,10|0,0:0|1:0,0:0:0:0:
84,170,44864,1,0,3:0:0:0:
84,170,44955,1,0,3:0:0:0:
84,170,45045,2,0,L|165:157,1,56,8|8,0:0|0:0,0:0:0:0:
76,68,45406,2,0,L|20:59,1,56,0|0,1:0|0:0,0:0:0:0:
171,20,45768,6,0,P|226:23|282:28,1,112,10|0,0:0|1:0,0:0:0:0:
342,105,46310,2,0,L|347:132,2,28,0|0|2,1:0|1:0|1:2,0:0:0:0:
436,99,46671,2,0,L|441:72,2,28,8|8|8,0:0|0:0|3:0,0:0:0:0:
455,202,47033,1,8,3:0:0:0:
455,202,47123,1,8,3:0:0:0:
455,202,47214,6,0,P|399:232|343:228,1,97.9999970092774,14|0,0:0|0:0,0:0:0:0:
365,233,47756,1,8,0:0:0:0:
289,172,47936,2,0,P|248:145|200:140,1,97.9999970092774,0|8,1:0|0:0,0:0:0:0:
121,130,48479,6,0,P|117:186|122:234,2,97.9999970092774,10|0|8,0:0|1:0|0:0,0:0:0:0:
331,212,49563,2,0,P|335:268|330:316,1,97.9999970092774,10|8,0:0|0:0,0:0:0:0:
328,357,50015,1,8,0:0:0:0:
328,357,50105,6,0,P|267:360|228:328,1,97.9999970092774,14|0,0:0|0:0,0:0:0:0:
161,289,50647,2,0,P|118:311|70:305,2,97.9999970092774,10|2|10,0:0|0:0|0:0,0:0:0:0:
213,211,51551,6,0,P|217:186|222:162,1,48.9999985046387,2|0,0:0|1:0,0:0:0:0:
304,96,51912,2,0,P|312:144|322:192,1,97.9999970092774,2|0,0:0|1:1,0:0:0:0:
383,269,52455,1,14,0:0:0:0:
481,226,52635,2,0,L|487:191,3,24.4999992523194,0|0|0|0,1:0|1:0|1:0|1:0,0:0:0:0:
491,155,52997,6,0,P|453:119|394:113,1,112,14|8,0:0|0:0,0:0:0:0:
326,171,53539,2,0,P|291:181|252:185,1,56,8|8,3:0|0:0,0:0:0:0:
339,269,53900,2,0,P|366:273|392:283,1,56,8|8,3:0|0:0,0:0:0:0:
284,356,54262,5,2,0:0:0:0:
284,356,54442,1,10,0:0:0:0:
195,298,54623,1,8,3:0:0:0:
85,320,54804,2,0,P|100:258|107:200,1,112,8|8,0:0|0:0,0:0:0:0:
70,117,55346,1,8,3:0:0:0:
70,117,55527,1,10,0:0:0:0:
168,79,55708,1,0,1:0:0:0:
168,79,55798,1,0,1:0:0:0:
168,79,55888,6,0,P|173:38|174:5,2,62.9999980773926,14|0|2,1:2|0:0|1:2,0:0:0:0:
211,168,56430,1,0,1:0:0:0:
211,168,56521,1,0,1:0:0:0:
212,167,56611,2,0,L|247:173,3,31.4999990386963,0|0|8|8,1:0|1:0|3:0|3:0,0:0:0:0:
281,156,56973,2,0,P|312:145|355:150,1,62.9999980773926,8|4,3:0|3:0,0:0:0:0:
411,215,57334,2,0,P|442:226|485:221,1,62.9999980773926,0|2,1:0|1:2,0:0:0:0:
509,218,57605,1,0,1:0:0:0:
509,218,57695,6,0,L|513:156,2,62.9999980773926,2|4|2,1:2|3:0|1:2,0:0:0:0:
489,305,58238,2,0,P|491:319|497:337,2,31.4999990386963,8|8|2,3:0|3:0|1:2,0:0:0:0:
401,305,58599,1,2,1:2:0:0:
401,305,58689,1,0,1:0:0:0:
401,305,58780,6,0,L|370:310,3,31.4999990386963,0|0|0|0,1:0|1:0|1:0|1:0,0:0:0:0:
329,301,59141,2,0,P|298:294|267:292,1,62.9999980773926,2|2,1:2|1:2,0:0:0:0:
182,312,59503,1,8,3:0:0:0:
182,312,59593,1,8,3:0:0:0:
182,312,59683,2,0,P|177:328|175:361,4,31.4999990386963,8|8|4|8|8,3:0|3:0|3:0|3:0|3:0,0:0:0:0:
141,218,60226,6,0,B|114:145|179:155|139:68,1,146.999995513916,4|0,1:3|2:0,0:0:0:0:
142,76,61129,1,0,2:0:0:0:
147,80,61671,6,0,P|211:44|288:73,1,140,14|8,0:0|1:0,0:0:0:0:
368,130,62214,1,0,1:0:0:0:
368,130,62304,1,0,1:0:0:0:
368,130,62394,2,0,P|371:95|375:60,1,70,8|8,0:0|0:0,0:0:0:0:
466,143,62756,2,0,P|462:177|458:212,1,70,8|0,1:0|0:0,0:0:0:0:
493,307,63117,6,0,P|425:288|356:281,1,140,10|8,0:0|1:0,0:0:0:0:
256,315,63659,2,0,L|222:321,2,35,0|0|8,1:0|1:0|0:0,0:0:0:0:
356,281,64021,1,8,0:0:0:0:
298,196,64202,2,0,P|286:148|296:107,1,70,8|0,1:0|0:0,0:0:0:0:
305,31,64563,6,0,L|235:39,1,70,10|0,0:0|0:0,0:0:0:0:
158,110,64924,1,8,1:0:0:0:
88,35,65105,2,0,L|82:-9,2,35,0|0|8,1:0|1:0|0:0,0:0:0:0:
158,110,65467,1,8,0:0:0:0:
69,152,65647,2,0,P|31:145|-3:140,1,70,8|0,1:0|0:0,0:0:0:0:
36,247,66009,5,10,0:0:0:0:
36,247,66189,1,0,0:0:0:0:
137,226,66370,2,0,P|174:219|208:214,1,70,8|0,1:0|1:0,0:0:0:0:
244,221,66641,1,0,1:0:0:0:
244,221,66732,1,8,0:0:0:0:
328,267,66912,1,8,0:0:0:0:
347,166,67093,2,0,P|339:113|295:61,1,105,8|0,1:0|0:0,0:0:0:0:
273,48,67455,6,0,B|364:57|326:11|417:15,1,140,14|8,0:0|1:0,0:0:0:0:
512,54,67997,1,0,1:0:0:0:
512,54,68087,1,0,1:0:0:0:
512,54,68177,2,0,P|516:109|503:143,1,70,8|8,0:0|0:0,0:0:0:0:
447,206,68539,1,8,1:0:0:0:
447,206,68720,1,0,0:0:0:0:
347,166,68900,6,0,P|312:160|277:159,1,70,10|0,0:0|0:0,0:0:0:0:
252,261,69262,2,0,P|218:266|183:267,1,70,8|0,1:0|1:0,0:0:0:0:
143,268,69533,1,0,1:0:0:0:
143,268,69623,1,8,0:0:0:0:
60,323,69804,1,8,0:0:0:0:
10,242,69985,2,0,P|4:207|0:172,1,70,8|0,1:0|0:0,0:0:0:0:
5,49,70346,6,0,P|41:86|129:81,1,140,10|8,0:0|1:0,0:0:0:0:
208,27,70888,1,0,1:0:0:0:
208,27,70979,1,0,1:0:0:0:
208,27,71069,2,0,P|275:18|327:61,1,140,8|8,0:0|1:0,0:0:0:0:
327,61,71611,1,8,0:0:0:0:
425,65,71792,6,0,P|419:99|415:134,1,70,8|8,1:0|0:0,0:0:0:0:
482,218,72153,1,8,1:0:0:0:
422,298,72334,1,0,1:0:0:0:
422,298,72424,1,0,1:0:0:0:
422,298,72515,2,0,P|397:302|370:296,3,35,2|0|0|0,1:1|1:0|1:1|1:0,0:0:0:0:
345,260,72876,2,0,P|327:256|310:257,3,35,2|0|0|0,1:1|1:0|1:1|1:0,0:0:0:0:
275,282,73238,6,0,B|245:301|214:298|214:298|181:257|120:272,1,140,14|8,0:0|1:0,0:0:0:0:
102,179,73780,1,0,1:0:0:0:
102,179,73870,1,0,1:0:0:0:
102,179,73961,2,0,P|93:144|83:111,1,70,8|8,0:0|0:0,0:0:0:0:
8,217,74322,2,0,P|18:250|26:284,1,70,8|0,1:0|0:0,0:0:0:0:
72,363,74683,6,0,P|104:350|139:344,2,70,10|0|8,0:0|0:0|1:0,0:0:0:0:
170,257,75226,1,0,1:0:0:0:
170,257,75316,1,0,1:0:0:0:
170,257,75406,2,0,P|239:259|306:281,1,140,8|8,0:0|1:0,0:0:0:0:
372,349,75948,1,0,0:0:0:0:
440,291,76129,6,0,P|444:256|447:221,1,70,10|0,0:0|0:0,0:0:0:0:
398,144,76491,1,8,1:0:0:0:
468,87,76671,2,0,P|484:82|502:79,2,35,0|0|8,1:0|1:0|0:0,0:0:0:0:
398,144,77033,1,8,0:0:0:0:
312,111,77214,2,0,P|276:103|242:104,1,70,8|0,1:0|0:0,0:0:0:0:
150,54,77575,6,0,P|179:122|157:189,1,140,10|8,0:0|1:0,0:0:0:0:
83,230,78117,1,0,1:0:0:0:
83,230,78208,1,0,1:0:0:0:
83,230,78298,2,0,P|49:225|14:221,1,70,8|8,0:0|0:0,0:0:0:0:
103,323,78659,2,0,P|137:326|172:332,1,70,8|8,1:0|3:0,0:0:0:0:
227,364,78930,1,8,3:0:0:0:
227,364,79021,6,0,B|254:289|194:310|239:201,1,140,14|8,0:0|1:0,0:0:0:0:
288,142,79563,2,0,P|318:137|350:133,2,35,0|0|8,1:0|1:0|0:0,0:0:0:0:
328,229,79924,1,8,0:0:0:0:
416,195,80105,2,0,P|450:190|483:201,1,70,8|8,1:0|3:0,0:0:0:0:
512,233,80376,1,8,3:0:0:0:
512,233,80467,6,0,P|507:189|494:89,1,140,10|8,0:0|1:0,0:0:0:0:
412,50,81009,1,0,1:0:0:0:
412,50,81099,1,0,1:0:0:0:
412,50,81189,2,0,P|377:45|344:56,1,70,8|8,0:0|0:0,0:0:0:0:
259,127,81551,1,8,1:0:0:0:
164,118,81732,1,8,3:0:0:0:
164,118,81822,1,8,3:0:0:0:
164,118,81912,6,0,P|120:66|136:0,1,140,14|8,0:0|1:0,0:0:0:0:
26,54,82455,1,8,3:0:0:0:
49,152,82635,2,0,L|55:186,3,35,14|0|0|0,1:2|1:0|1:0|1:0,0:0:0:0:
61,224,82997,1,8,1:0:0:0:
180,226,83177,1,8,3:0:0:0:
180,226,83268,1,8,3:0:0:0:
180,226,83358,6,0,P|218:228|249:236,1,70,8|10,1:0|0:0,0:0:0:0:
325,311,83720,1,8,1:0:0:0:
325,311,83900,1,8,1:0:0:0:
220,357,84081,2,0,P|182:351|148:346,1,70,8|0,1:0|1:0,0:0:0:0:
120,351,84352,1,0,1:0:0:0:
120,351,84442,1,0,1:1:0:0:
20,299,84623,1,0,1:1:0:0:
15,291,84714,1,0,1:0:0:0:
11,282,84804,6,0,P|8:215|53:164,1,132.999996448517,14|0,0:0|1:0,0:0:0:0:
156,148,85346,1,2,0:0:0:0:
161,56,85527,2,0,P|130:47|97:42,1,66.4999982242585,8|8,0:0|0:0,0:0:0:0:
156,148,85888,2,0,P|187:157|220:162,1,66.4999982242585,0|0,1:0|0:0,0:0:0:0:
321,167,86250,6,0,L|385:152,2,66.4999982242585,10|8|0,0:0|0:0|1:0,0:0:0:0:
265,256,86792,2,0,L|232:263,2,33.2499991121292,0|0|8,3:0|3:0|0:0,0:0:0:0:
321,167,87153,1,8,0:0:0:0:
395,236,87334,2,0,P|407:266|420:312,1,66.4999982242585,0|0,1:0|0:0,0:0:0:0:
490,198,87695,6,0,P|457:137|447:71,1,132.999996448517,10|0,0:0|1:0,0:0:0:0:
375,11,88238,2,0,L|343:5,2,33.2499991121292,0|0|8,3:0|3:0|0:0,0:0:0:0:
326,101,88599,1,8,0:0:0:0:
230,81,88780,2,0,P|197:73|165:63,1,66.4999982242585,0|0,1:0|0:0,0:0:0:0:
84,25,89141,6,0,P|102:51|107:84,1,66.4999982242585,10|8,0:0|0:0,0:0:0:0:
182,173,89503,2,0,P|168:201|142:222,1,66.4999982242585,0|0,1:0|3:0,0:0:0:0:
111,228,89774,1,0,3:0:0:0:
111,228,89864,2,0,P|61:215|19:212,1,66.4999982242585,8|8,0:0|0:0,0:0:0:0:
20,311,90226,2,0,P|51:320|84:325,1,66.4999982242585,0|0,1:0|0:0,0:0:0:0:
185,377,90587,6,0,P|205:314|283:290,1,132.999996448517,14|0,0:0|1:0,0:0:0:0:
362,284,91129,2,0,L|366:317,2,33.2499991121292,0|0|8,3:0|3:0|0:0,0:0:0:0:
323,191,91491,1,8,0:0:0:0:
410,153,91671,2,0,P|443:146|478:140,1,66.4999982242585,0|8,1:0|0:0,0:0:0:0:
425,46,92033,5,2,1:2:0:0:
425,46,92214,1,8,0:0:0:0:
325,64,92394,2,0,P|308:92|300:124,1,66.4999982242585,14|0,1:2|1:0,0:0:0:0:
255,142,92665,1,0,1:0:0:0:
255,142,92756,2,0,P|271:170|279:202,1,66.4999982242585,0|8,1:0|3:0,0:0:0:0:
281,306,93117,1,4,3:0:0:0:
281,306,93298,1,0,1:0:0:0:
186,359,93479,5,14,0:0:0:0:
104,302,93659,2,0,L|95:235,1,66.4999982242585,2|0,1:1|1:0,0:0:0:0:
14,155,94021,2,0,B|94:162|65:122|140:125,1,132.999996448517,2|2,1:0|1:0,0:0:0:0:
346,140,94744,2,0,B|265:132|294:172|219:169,1,132.999996448517,2|2,1:0|1:1,0:0:0:0:
140,125,95286,1,2,1:2:0:0:
210,56,95467,2,0,L|213:22,2,33.2499991121292,0|0|2,1:0|1:0|1:2,0:0:0:0:
228,176,95828,1,0,1:0:0:0:
228,176,95918,1,0,1:0:0:0:
228,176,96009,1,10,0:0:0:0:
313,140,96189,6,0,P|383:151|420:212,1,146.999995513916,12|0,0:0|0:0,0:0:0:0:
451,312,96912,1,0,0:0:0:0:
451,312,97093,2,0,L|346:296,1,97.9999970092774,2|0,0:0|0:0,0:0:0:0:
289,243,97635,2,0,L|184:259,2,97.9999970092774,2|0|0,0:0|0:0|0:0,0:0:0:0:
370,47,98720,2,0,P|369:95|346:138,1,97.9999970092774,2|0,0:0|0:0,0:0:0:0:
258,137,99262,6,0,P|209:134|160:128,1,97.9999970092774,2|0,0:0|0:0,0:0:0:0:
107,63,99804,2,0,P|99:39|91:16,1,48.9999985046387,2|0,0:0|0:0,0:0:0:0:
15,72,100165,2,0,P|22:95|30:118,1,48.9999985046387
18,218,100527,6,0,P|105:221|137:271,1,146.999995513916,2|0,0:0|0:0,0:0:0:0:
146,357,101250,1,0,0:0:0:0:
146,357,101430,1,0,0:0:0:0:
135,265,101611,1,0,1:0:0:0:
234,309,101792,2,0,L|258:313,3,24.4999992523194,8|8|0|0,0:0|0:0|1:0|1:0,0:0:0:0:
303,344,102153,6,0,P|352:327|404:320,1,105.000004005432,12|8,0:0|0:0,0:0:0:0:
482,245,102695,1,0,1:0:0:0:
482,245,102876,2,0,P|430:238|380:221,1,105.000004005432,2|0,0:0|1:0,0:0:0:0:
312,166,103418,2,0,L|324:59,2,105.000004005432,2|8|0,0:0|0:0|1:0,0:0:0:0:
67,131,104503,2,0,L|73:78,1,52.5000020027161,8|0,0:0|1:0,0:0:0:0:
137,22,104864,1,0,1:0:0:0:
137,22,104955,1,0,1:0:0:0:
137,22,105045,6,0,P|186:36|220:75,1,105.000004005432,10|8,0:0|0:0,0:0:0:0:
220,75,105587,1,0,1:0:0:0:
182,157,105768,2,0,P|132:171|98:210,1,105.000004005432,2|0,0:0|1:0,0:0:0:0:
98,209,106310,1,0,1:0:0:0:
149,292,106491,2,0,P|145:318|139:343,2,52.5000020027161,10|8|2,0:0|0:0|1:2,0:0:0:0:
240,257,107033,1,0,1:0:0:0:
317,319,107214,1,10,0:0:0:0:
317,319,107394,1,8,3:0:0:0:
403,275,107575,2,0,P|408:250|412:217,1,52.5000020027161,0|0,1:0|1:0,0:0:0:0:
436,186,107846,1,0,1:0:0:0:
436,186,107936,6,0,P|390:216|335:212,1,112,14|0,0:0|1:0,0:0:0:0:
255,181,108479,2,0,L|228:186,2,28,0|0|8,3:0|3:0|0:0,0:0:0:0:
329,117,108840,1,8,0:0:0:0:
329,117,109021,1,0,1:0:0:0:
243,65,109202,6,0,P|187:70|135:91,1,112,2|8,0:0|0:0,0:0:0:0:
44,128,109744,1,0,1:0:0:0:
40,227,109924,2,0,P|91:206|147:200,1,112,2|8,0:0|0:0,0:0:0:0:
241,232,110467,1,0,1:0:0:0:
327,183,110647,1,0,3:0:0:0:
327,183,110738,1,0,3:0:0:0:
327,183,110828,6,0,P|343:128|314:77,1,112,10|0,0:0|1:0,0:0:0:0:
251,26,111370,2,0,L|224:21,2,28,0|0|8,3:0|3:0|0:0,0:0:0:0:
247,126,111732,2,0,P|219:130|191:129,1,56,8|0,0:0|1:0,0:0:0:0:
86,106,112093,1,8,0:0:0:0:
86,106,112183,1,8,0:0:0:0:
86,106,112274,6,0,B|98:174|98:174|79:202|79:202|92:278,1,168,10|0,0:0|0:0,0:0:0:0:
158,337,112997,2,0,P|184:345|212:350,1,56,8|8,0:0|0:0,0:0:0:0:
297,280,113358,2,0,P|324:285|351:293,1,56,0|0,1:0|0:0,0:0:0:0:
386,324,113629,1,0,1:0:0:0:
386,324,113720,6,0,P|391:358|396:401,1,56,10|0,0:0|0:0,0:0:0:0:
488,303,114081,2,0,P|483:269|478:226,1,56,0|0,1:0|0:0,0:0:0:0:
476,204,114352,1,0,3:0:0:0:
476,204,114442,1,8,0:0:0:0:
361,195,114623,1,8,0:0:0:0:
361,195,114804,1,0,1:0:0:0:
310,93,114985,6,0,P|343:50|398:42,1,112,2|8,0:0|0:0,0:0:0:0:
485,99,115527,1,0,1:0:0:0:
485,99,115708,2,0,L|512:94,2,28,0|0|8,3:0|3:0|0:0,0:0:0:0:
472,186,116069,2,0,P|416:191|360:195,1,112,8|8,0:0|0:0,0:0:0:0:
327,211,116521,1,8,0:0:0:0:
327,211,116611,6,0,P|362:258|340:328,1,112,10|0,0:0|1:0,0:0:0:0:
264,358,117153,1,0,3:0:0:0:
264,358,117244,1,0,3:0:0:0:
264,358,117334,2,0,L|183:345,1,56,8|8,0:0|0:0,0:0:0:0:
154,267,117695,2,0,L|98:258,1,56,0|0,1:0|0:0,0:0:0:0:
11,278,118057,6,0,P|16:222|19:166,1,112,10|0,0:0|1:0,0:0:0:0:
87,82,118599,2,0,L|82:55,2,28,0|0|2,1:0|1:0|1:2,0:0:0:0:
172,134,118961,2,0,L|177:107,2,28,0|0|8,1:0|1:0|3:0,0:0:0:0:
131,235,119322,1,8,3:0:0:0:
131,235,119412,1,8,3:0:0:0:
131,235,119503,6,0,P|182:232|233:271,1,97.9999970092774,14|0,0:0|0:0,0:0:0:0:
221,255,120045,1,8,0:0:0:0:
298,192,120226,2,0,P|325:235|317:298,1,97.9999970092774,0|8,1:0|0:0,0:0:0:0:
291,362,120768,6,0,P|242:366|194:379,2,97.9999970092774,10|0|8,0:0|1:0|0:0,0:0:0:0:
499,216,121852,2,0,P|450:211|402:198,1,97.9999970092774,10|8,0:0|0:0,0:0:0:0:
363,220,122304,1,8,0:0:0:0:
363,220,122394,6,0,P|398:179|392:119,1,97.9999970092774,14|0,0:0|0:0,0:0:0:0:
323,93,122936,2,0,P|289:58|285:10,2,97.9999970092774,10|2|10,0:0|0:0|0:0,0:0:0:0:
236,142,123840,6,0,P|212:146|187:150,1,48.9999985046387,2|0,0:0|1:0,0:0:0:0:
96,146,124202,2,0,P|112:100|112:51,1,97.9999970092774,2|0,0:0|1:1,0:0:0:0:
10,93,124744,1,14,0:2:0:0:
0,187,124924,2,0,L|4:211,3,24.4999992523194,0|0|0|0,1:0|1:0|1:0|1:0,0:0:0:0:
43,245,125286,6,0,P|97:250|138:287,1,112,14|8,0:0|0:0,0:0:0:0:
219,353,125828,2,0,L|273:340,1,56,8|8,3:0|0:0,0:0:0:0:
278,225,126189,2,0,L|223:212,1,56,8|8,3:0|0:0,0:0:0:0:
142,158,126551,5,2,0:0:0:0:
142,158,126732,1,10,0:0:0:0:
223,212,126912,1,8,3:0:0:0:
273,112,127093,2,0,P|321:74|380:78,1,112,8|8,0:0|0:0,0:0:0:0:
459,129,127635,1,8,3:0:0:0:
374,197,127816,1,10,0:0:0:0:
484,257,127997,1,0,1:0:0:0:
484,257,128087,1,0,1:0:0:0:
484,257,128177,6,0,P|489:298|490:331,2,62.9999980773926,14|0|2,1:2|0:0|1:2,0:0:0:0:
387,308,128720,1,0,1:0:0:0:
387,308,128810,1,0,1:0:0:0:
387,308,128900,2,0,L|352:314,3,31.4999990386963,0|0|8|8,1:0|1:0|3:0|3:0,0:0:0:0:
318,297,129262,2,0,P|287:286|241:257,1,62.9999980773926,8|4,3:0|3:0,0:0:0:0:
324,190,129623,2,0,P|351:174|381:164,1,62.9999980773926,0|2,1:0|1:2,0:0:0:0:
418,165,129894,1,0,1:0:0:0:
418,165,129985,6,0,L|422:227,2,62.9999980773926,2|4|2,1:2|3:0|1:2,0:0:0:0:
470,72,130527,2,0,P|474:57|477:41,2,31.4999990386963,8|8|2,3:0|3:0|1:2,0:0:0:0:
382,68,130888,1,2,1:2:0:0:
382,68,130979,1,0,1:0:0:0:
382,68,131069,6,0,L|351:63,3,31.4999990386963,0|0|0|0,1:0|1:0|1:0|1:0,0:0:0:0:
303,89,131430,2,0,P|272:96|241:98,1,62.9999980773926,2|2,1:2|1:2,0:0:0:0:
154,80,131792,1,8,3:0:0:0:
154,80,131882,1,8,3:0:0:0:
154,80,131973,2,0,P|151:64|154:31,4,31.4999990386963,8|8|4|8|8,3:0|3:0|3:0|3:0|3:0,0:0:0:0:
61,67,132515,6,0,B|41:77|19:106|19:106|12:152|57:197,1,146.999995513916,4|0,1:3|2:0,0:0:0:0:
47,187,133418,1,0,2:0:0:0:
51,191,133961,6,0,P|117:204|142:272,1,140,14|8,0:0|1:0,0:0:0:0:
74,350,134503,1,0,1:0:0:0:
74,350,134593,1,0,1:0:0:0:
74,350,134683,2,0,P|39:347|4:343,1,70,8|8,0:0|0:0,0:0:0:0:
143,265,135045,2,0,P|177:268|212:273,1,70,8|0,1:0|0:0,0:0:0:0:
273,357,135406,6,0,B|357:369|327:322|417:331,1,140,10|8,0:0|1:0,0:0:0:0:
500,347,135948,2,0,L|506:381,2,35,0|0|8,1:0|1:0|0:0,0:0:0:0:
512,240,136310,1,8,0:0:0:0:
410,191,136491,2,0,P|376:183|343:192,1,70,8|0,1:0|0:0,0:0:0:0:
245,249,136852,6,0,L|175:241,1,70,10|0,0:0|0:0,0:0:0:0:
89,190,137214,1,8,1:0:0:0:
4,241,137394,2,0,L|-1:276,2,35,0|0|8,1:0|1:0|0:0,0:0:0:0:
89,190,137756,1,8,0:0:0:0:
37,106,137936,2,0,P|27:68|20:36,1,70,8|0,1:0|0:0,0:0:0:0:
138,33,138298,5,10,0:0:0:0:
138,33,138479,1,0,0:0:0:0:
186,125,138659,2,0,P|194:158|202:193,1,70,8|0,1:0|1:0,0:0:0:0:
213,234,138930,1,0,1:0:0:0:
213,234,139021,1,8,0:0:0:0:
145,312,139202,1,8,0:0:0:0:
265,354,139382,2,0,P|321:350|367:325,1,105,8|0,1:0|0:0,0:0:0:0:
405,331,139744,6,0,P|401:269|438:187,1,140,14|8,0:0|1:0,0:0:0:0:
512,152,140286,1,0,1:0:0:0:
512,152,140376,1,0,1:0:0:0:
512,152,140467,2,0,P|521:110|503:63,1,70,8|8,0:0|0:0,0:0:0:0:
437,13,140828,1,8,1:0:0:0:
437,13,141009,1,0,0:0:0:0:
343,71,141189,6,0,P|308:77|273:78,1,70,10|0,0:0|0:0,0:0:0:0:
243,181,141551,2,0,P|277:176|312:175,1,70,8|0,1:0|1:0,0:0:0:0:
347,179,141822,1,0,1:0:0:0:
347,179,141912,1,8,0:0:0:0:
445,133,142093,1,8,0:0:0:0:
503,226,142274,2,0,P|498:260|493:295,1,70,8|0,1:0|0:0,0:0:0:0:
384,345,142635,6,0,P|348:308|260:313,1,140,10|8,0:0|1:0,0:0:0:0:
178,257,143177,1,0,1:0:0:0:
178,257,143268,1,0,1:0:0:0:
178,257,143358,2,0,P|125:300|58:291,1,140,8|8,0:0|1:0,0:0:0:0:
58,291,143900,1,8,0:0:0:0:
59,182,144081,6,0,P|55:147|48:112,1,70,8|8,1:0|0:0,0:0:0:0:
133,21,144442,1,8,1:0:0:0:
235,78,144623,1,0,1:0:0:0:
235,78,144714,1,0,1:0:0:0:
235,78,144804,2,0,L|283:84,3,35,2|0|0|0,1:0|1:0|1:1|1:0,0:0:0:0:
319,52,145165,2,0,L|367:58,3,35,2|0|0|0,1:1|1:0|1:1|1:0,0:0:0:0:
411,79,145527,6,0,P|365:130|362:198,1,140,14|8,0:0|1:0,0:0:0:0:
444,280,146069,1,0,1:0:0:0:
444,280,146159,1,0,1:0:0:0:
444,280,146250,2,0,P|477:288|513:287,1,70,8|8,0:0|0:0,0:0:0:0:
415,374,146611,2,0,P|381:365|345:366,1,70,8|0,1:0|0:0,0:0:0:0:
271,297,146973,6,0,P|238:292|204:278,2,70,10|0|8,0:0|0:0|1:0,0:0:0:0:
344,228,147515,1,0,1:0:0:0:
344,228,147605,1,0,1:0:0:0:
344,228,147695,2,0,P|345:158|282:119,1,140,8|8,0:0|1:0,0:0:0:0:
196,141,148238,1,0,0:0:0:0:
116,78,148418,6,0,P|119:43|122:8,1,70,10|0,0:0|0:0,0:0:0:0:
19,63,148780,1,8,1:0:0:0:
62,162,148961,2,0,P|67:178|69:195,2,35,0|0|8,1:0|1:0|0:0,0:0:0:0:
116,78,149322,1,8,0:0:0:0:
202,137,149503,2,0,P|217:175|216:209,1,70,8|0,1:0|0:0,0:0:0:0:
214,295,149864,6,0,B|240:319|275:319|275:319|308:278|369:293,1,140,10|8,0:0|1:0,0:0:0:0:
451,329,150406,1,0,1:0:0:0:
451,329,150497,1,0,1:0:0:0:
451,329,150587,2,0,P|456:295|460:260,1,70,8|8,0:0|0:0,0:0:0:0:
379,170,150948,2,0,P|374:136|370:101,1,70,8|8,1:0|3:0,0:0:0:0:
371,59,151220,1,8,3:0:0:0:
371,59,151310,6,0,B|292:73|322:17|208:45,1,140,14|8,0:0|1:0,0:0:0:0:
132,68,151852,2,0,P|114:65|97:62,2,35,0|0|8,1:0|1:0|0:0,0:0:0:0:
210,131,152214,1,8,0:0:0:0:
122,192,152394,2,0,P|88:197|55:186,1,70,8|8,1:0|3:0,0:0:0:0:
23,158,152665,1,8,3:0:0:0:
23,158,152756,6,0,P|60:223|41:302,1,140,10|8,0:0|1:0,0:0:0:0:
163,282,153298,1,0,1:0:0:0:
163,282,153388,1,0,1:0:0:0:
163,282,153479,2,0,P|198:277|231:288,1,70,8|8,0:0|0:0,0:0:0:0:
332,339,153840,1,8,1:0:0:0:
434,302,154021,1,8,3:0:0:0:
434,302,154111,1,8,3:0:0:0:
434,302,154202,6,0,P|425:230|426:151,1,140,14|8,0:0|1:0,0:0:0:0:
437,63,154744,1,8,3:0:0:0:
335,41,154924,2,0,P|317:43|300:47,3,35,14|0|0|0,1:2|1:0|1:0|1:0,0:0:0:0:
275,58,155286,1,8,1:0:0:0:
241,150,155467,1,8,3:0:0:0:
241,150,155557,1,8,3:0:0:0:
241,150,155647,6,0,P|243:188|255:218,1,70,8|10,1:0|0:0,0:0:0:0:
159,244,156009,1,8,1:0:0:0:
159,244,156189,1,8,1:0:0:0:
146,141,156370,2,0,P|134:108|113:80,1,70,8|0,1:1|1:0,0:0:0:0:
92,57,156641,1,0,1:0:0:0:
92,57,156732,1,0,1:1:0:0:
10,120,156912,1,0,1:1:0:0:
9,129,157003,1,0,1:0:0:0:
9,137,157093,6,0,P|23:198|69:243,1,125.999996154785,14|8,0:0|0:0,0:0:0:0:
66,241,157635,1,0,0:0:0:0:
131,318,157816,2,0,P|173:271|235:256,1,125.999996154785,10|8,0:0|0:0,0:0:0:0:
326,284,158358,5,8,3:0:0:0:
326,284,158448,1,8,3:0:0:0:
326,284,158539,2,0,L|340:357,1,62.9999980773926,10|0,0:0|1:0,0:0:0:0:
421,302,158900,2,0,L|432:240,1,62.9999980773926,8|8,0:0|3:0,0:0:0:0:
462,161,159262,2,0,P|427:103|353:108,1,125.999996154785,10|8,0:0|0:0,0:0:0:0:
304,148,159804,5,8,3:0:0:0:
304,148,159894,1,8,3:0:0:0:
304,148,159985,2,0,B|218:141|262:101|165:96,1,125.999996154785,10|8,0:0|0:0,0:0:0:0:
113,53,160527,2,0,B|27:60|71:100|-26:105,2,125.999996154785,2|2|0,0:0|0:0|1:0,0:0:0:0:
124,153,161430,6,0,L|119:185,2,31.4999990386963,8|8|8,0:0|0:0|3:0,0:0:0:0:
28,210,161792,2,0,L|33:241,2,31.4999990386963,12|8|4,3:0|3:0|3:0,0:0:0:0:
123,276,162153,1,8,0:0:0:0:
123,276,162334,1,8,3:0:0:0:
209,227,162515,2,0,P|240:221|278:222,1,62.9999980773926,8|0,0:0|1:0,0:0:0:0:
354,254,162876,6,0,P|414:242|443:187,1,125.999996154785,10|8,0:0|0:0,0:0:0:0:
365,120,163418,2,0,P|304:108|276:53,1,125.999996154785,2|0,0:0|1:0,0:0:0:0:
368,10,163961,1,8,0:0:0:0:
470,44,164141,5,8,3:0:0:0:
470,44,164232,1,8,3:0:0:0:
470,44,164322,2,0,P|476:74|478:106,1,62.9999980773926,10|0,0:0|1:0,0:0:0:0:
512,203,164683,2,0,P|449:203|389:227,1,125.999996154785,10|0,0:0|1:0,0:0:0:0:
390,226,165226,1,8,0:0:0:0:
315,282,165406,2,0,P|280:280|252:272,1,62.9999980773926,10|8,0:0|3:0,0:0:0:0:
212,257,165677,5,8,3:0:0:0:
212,257,165768,2,0,L|204:191,1,62.9999980773926,10|0,0:0|0:0,0:0:0:0:
239,106,166129,1,8,0:0:0:0:
159,54,166310,2,0,P|100:38|18:62,2,125.999996154785,0|8|10,1:0|3:0|0:0,0:0:0:0:
101,135,167214,6,0,P|88:163|92:213,1,62.9999980773926,10|0,0:0|1:0,0:0:0:0:
10,261,167575,2,0,P|27:286|73:307,1,62.9999980773926,8|8,3:0|3:0,0:0:0:0:
165,313,167936,1,8,0:0:0:0:
165,313,168117,1,8,3:0:0:0:
236,251,168298,2,0,P|264:237|295:237,1,62.9999980773926,8|8,3:0|3:0,0:0:0:0:
339,267,168569,5,8,3:0:0:0:
339,267,168659,2,0,B|370:288|401:276|401:276|413:244|454:238,1,125.999996154785,14|8,0:0|0:0,0:0:0:0:
505,164,169202,2,0,P|505:132|494:103,1,62.9999980773926,2|0,0:0|1:0,0:0:0:0:
399,111,169563,2,0,B|368:132|337:120|337:120|325:88|284:82,1,125.999996154785,2|2,0:0|0:0,0:0:0:0:
292,83,170105,1,8,0:0:0:0:
218,154,170286,6,0,B|197:197|197:197|222:284,1,125.999996154785,0|0,1:0|0:0,0:0:0:0:
109,239,170828,2,0,L|88:161,1,62.9999980773926,4|8,1:2|3:0,0:0:0:0:
86,152,171099,1,8,3:0:0:0:
86,152,171189,1,8,3:0:0:0:
0,220,171370,1,8,0:0:0:0:
30,317,171551,6,0,P|85:350|156:338,1,125.999996154785,14|8,0:0|0:0,0:0:0:0:
218,272,172093,2,0,P|244:328|298:357,2,125.999996154785,2|2|0,0:0|0:0|1:0,0:0:0:0:
232,179,172997,5,10,0:0:0:0:
232,179,173177,1,0,1:0:0:0:
333,200,173358,2,0,P|356:220|372:247,1,62.9999980773926,8|8,0:0|3:0,0:0:0:0:
394,285,173629,1,8,3:0:0:0:
394,285,173720,2,0,P|398:222|410:160,1,125.999996154785,8|8,3:0|0:0,0:0:0:0:
409,60,174262,5,0,1:0:0:0:
409,60,174352,1,0,1:0:0:0:
409,60,174442,2,0,B|328:53|361:103|267:92,1,125.999996154785,6|0,1:2|1:0,0:0:0:0:
206,65,174985,1,2,0:0:0:0:
206,65,175165,2,0,L|175:57,3,31.4999990386963,10|8|8|8,0:0|0:0|0:0|0:0,0:0:0:0:
126,75,175527,2,0,P|111:102|109:134,1,62.9999980773926,0|0,1:0|0:0,0:0:0:0:
159,218,175888,5,10,0:0:0:0:
252,197,176069,2,0,P|313:204|346:267,1,125.999996154785,2|2,0:0|0:0,0:0:0:0:
366,347,176611,2,0,L|396:339,3,31.4999990386963,10|8|8|8,0:0|0:0|0:0|0:0,0:0:0:0:
437,327,176973,2,0,P|451:299|455:268,1,62.9999980773926,0|0,1:0|0:0,0:0:0:0:
414,159,177334,6,0,P|422:79|458:47,1,125.999996154785,6|0,1:2|1:0,0:0:0:0:
336,39,177876,1,2,0:0:0:0:
336,39,178057,2,0,P|321:44|305:45,3,31.4999990386963,10|8|8|8,0:0|0:0|0:0|0:0,0:0:0:0:
266,50,178418,2,0,L|248:110,1,62.9999980773926,0|0,1:0|0:0,0:0:0:0:
276,213,178780,6,0,P|216:196|136:187,1,125.999996154785,2|2,1:2|1:2,0:0:0:0:
75,224,179322,1,2,1:2:0:0:
75,224,179412,1,0,1:0:0:0:
75,224,179503,2,0,L|67:260,3,31.4999990386963,0|0|2|0,1:0|1:0|1:2|1:0,0:0:0:0:
20,293,179864,2,0,L|27:329,3,31.4999990386963,2|0|2|0,1:2|1:0|1:0|1:0,0:0:0:0:
67,360,180226,6,0,P|138:352|225:349,1,140,14|8,0:0|1:0,0:0:0:0:
262,270,180768,1,8,3:0:0:0:
262,270,180858,1,8,3:0:0:0:
262,270,180948,2,0,P|257:233|236:205,1,70,2|8,3:1|0:0,0:0:0:0:
136,152,181310,2,0,P|141:115|161:87,1,70,10|0,1:0|0:0,0:0:0:0:
159,88,181671,5,10,0:0:0:0:
262,108,181852,2,2,L|331:117,1,70,2|8,0:1|1:0,0:1:0:0:
403,198,182214,1,8,3:0:0:0:
403,198,182304,1,8,3:0:0:0:
403,198,182394,2,0,P|410:232|425:263,1,70,2|8,0:1|0:0,0:0:0:0:
512,174,182756,2,2,P|504:139|489:108,1,70,10|0,1:0|0:0,0:1:0:0:
489,108,183117,5,10,0:0:0:0:
423,32,183298,2,0,L|354:23,1,70,2|8,0:1|1:0,0:0:0:0:
257,85,183659,1,8,3:0:0:0:
257,85,183750,1,8,3:0:0:0:
257,85,183840,2,0,P|244:124|238:166,1,70,10|2,0:0|3:1,0:0:0:0:
295,243,184202,2,0,L|331:250,3,35,8|2|0|2,1:0|0:1|0:0|0:1,0:0:0:0:
379,283,184563,6,2,B|323:296|323:296|302:328|302:328|237:344,1,140,2|8,3:1|1:0,0:1:0:0:
170,277,185105,1,2,3:1:0:0:
170,277,185195,1,8,3:0:0:0:
170,277,185286,2,0,L|101:265,1,70,8|8,3:0|0:0,0:0:0:0:
25,209,185647,2,0,P|20:191|19:174,3,35,8|0|2|0,1:0|1:0|1:1|1:0,0:0:0:0:
5,128,186009,6,2,B|101:105|72:171|165:140,1,140,14|8,0:0|1:0,0:1:0:0:
234,208,186551,1,8,3:0:0:0:
234,208,186641,1,8,3:0:0:0:
234,208,186732,2,0,P|254:179|266:146,1,70,2|8,3:1|0:0,0:0:0:0:
261,51,187093,1,10,1:0:0:0:
261,51,187274,1,0,0:0:0:0:
368,44,187455,6,0,P|411:58|448:84,1,70,14|8,0:0|0:0,0:0:0:0:
512,160,187816,2,0,P|477:160|443:168,1,70,10|8,1:0|3:0,0:0:0:0:
414,194,188087,1,8,3:0:0:0:
414,194,188177,1,2,3:1:0:0:
378,292,188358,1,8,0:0:0:0:
281,278,188539,2,2,L|266:202,1,70,10|8,1:0|0:0,0:1:0:0:
275,111,188900,5,12,1:1:0:0:
275,111,189081,1,0,0:0:0:0:
176,95,189262,2,0,P|137:87|95:76,1,70,8|0,0:1|0:0,0:0:0:0:
26,170,189623,1,8,1:1:0:0:
26,170,189804,1,0,0:0:0:0:
116,185,189985,2,0,P|155:193|197:204,1,70,8|0,0:1|0:0,0:0:0:0:
286,206,190346,6,0,P|278:172|280:138,2,70,14|0|10,0:1|0:0|1:1,0:0:0:0:
352,326,190888,1,0,1:1:0:0:
352,326,190979,1,0,1:1:0:0:
352,326,191069,2,0,L|341:379,8,35,0|0|0|0|0|0|0|0|0,1:1|1:1|1:1|1:1|1:1|1:1|1:1|1:1|1:1,0:0:0:0:
352,326,197575,6,0,P|297:320|256:283,1,112,14|8,0:0|0:0,0:0:0:0:
213,203,198117,2,0,P|223:168|227:129,1,56,8|8,3:0|0:0,0:0:0:0:
118,210,198479,2,0,P|109:236|105:264,1,56,8|8,3:0|0:0,0:0:0:0:
172,339,198840,5,2,0:0:0:0:
172,339,199021,1,10,0:0:0:0:
256,283,199202,1,8,3:0:0:0:
352,326,199382,2,0,P|420:318|457:277,1,112,8|8,0:0|0:0,0:0:0:0:
468,189,199924,1,8,3:0:0:0:
468,189,200105,1,10,0:0:0:0:
391,129,200286,1,0,1:0:0:0:
391,129,200376,1,0,1:0:0:0:
391,129,200467,6,0,P|392:97|396:66,2,62.9999980773926,14|0|2,1:2|0:0|1:2,0:0:0:0:
338,205,201009,1,0,1:0:0:0:
338,205,201099,1,0,1:0:0:0:
338,205,201189,2,0,L|303:211,3,31.4999990386963,0|0|8|8,1:0|1:0|3:0|3:0,0:0:0:0:
256,202,201551,2,0,L|186:180,1,62.9999980773926,8|4,3:0|3:0,0:0:0:0:
140,95,201912,2,0,L|79:113,1,62.9999980773926,0|2,1:0|1:2,0:0:0:0:
34,127,202183,1,0,1:0:0:0:
34,127,202274,6,0,P|26:96|28:65,2,62.9999980773926,2|4|2,1:2|3:0|1:2,0:0:0:0:
80,216,202816,2,0,P|78:230|72:248,2,31.4999990386963,8|8|2,3:0|3:0|1:2,0:0:0:0:
181,195,203177,1,2,1:2:0:0:
181,195,203268,1,0,1:0:0:0:
181,195,203358,6,0,L|212:200,3,31.4999990386963,0|0|0|0,1:0|1:0|1:0|1:0,0:0:0:0:
262,177,203720,2,0,P|293:170|324:168,1,62.9999980773926,2|2,1:2|1:2,0:0:0:0:
405,245,204081,1,8,3:0:0:0:
405,245,204171,1,8,3:0:0:0:
405,245,204262,2,0,P|410:261|412:294,4,31.4999990386963,8|8|4|8|8,3:0|3:0|3:0|3:0|3:0,0:0:0:0:
310,284,204804,6,0,B|223:296|243:253|151:271,1,146.999995513916,4|0,1:3|2:0,0:0:0:0:
166,268,205708,1,0,2:0:0:0:
170,272,206250,6,0,P|152:207|83:189,1,140,14|8,0:0|1:0,0:0:0:0:
173,110,206792,1,0,1:0:0:0:
173,110,206882,1,0,1:0:0:0:
173,110,206973,2,0,P|180:71|179:40,1,70,8|8,0:0|0:0,0:0:0:0:
274,108,207334,2,0,P|279:141|291:174,1,70,8|0,1:0|0:0,0:0:0:0:
385,165,207695,6,0,P|453:158|508:199,1,140,10|8,0:0|1:0,0:0:0:0:
512,295,208238,2,0,L|506:329,2,35,0|0|8,1:0|1:0|0:0,0:0:0:0:
508,199,208599,1,8,0:0:0:0:
412,257,208780,2,0,P|364:269|325:270,1,70,8|0,1:0|0:0,0:0:0:0:
250,253,209141,6,0,P|232:219|237:166,1,70,10|0,0:0|0:0,0:0:0:0:
298,125,209503,1,8,1:0:0:0:
227,63,209683,2,0,L|231:28,2,35,0|0|8,1:0|1:0|0:0,0:0:0:0:
298,125,210045,1,8,0:0:0:0:
381,93,210226,2,0,P|375:58|369:23,1,70,8|0,1:0|0:0,0:0:0:0:
489,52,210587,5,10,0:0:0:0:
489,52,210768,1,0,0:0:0:0:
474,146,210948,2,0,P|468:180|462:215,1,70,8|0,1:0|1:0,0:0:0:0:
457,248,211220,1,0,1:0:0:0:
457,248,211310,1,8,0:0:0:0:
358,216,211491,1,8,0:0:0:0:
345,304,211671,2,0,P|312:343|261:350,1,105,8|0,1:0|0:0,0:0:0:0:
222,329,212033,6,0,B|180:321|148:353|148:353|114:360|87:337,1,140,14|8,0:0|1:0,0:0:0:0:
19,277,212575,1,0,1:0:0:0:
19,277,212665,1,0,1:0:0:0:
19,277,212756,2,0,P|15:222|28:188,1,70,8|8,0:0|0:0,0:0:0:0:
103,143,213117,1,8,1:0:0:0:
103,143,213298,1,0,0:0:0:0:
202,168,213479,6,0,P|237:170|271:159,1,70,10|0,0:0|0:0,0:0:0:0:
347,241,213840,2,0,P|373:217|389:185,1,70,8|0,1:0|1:0,0:0:0:0:
402,155,214111,1,0,1:0:0:0:
402,155,214202,1,8,0:0:0:0:
489,108,214382,1,8,0:0:0:0:
418,43,214563,2,0,P|383:37|348:33,1,70,8|0,1:0|0:0,0:0:0:0:
251,47,214924,6,0,B|162:66|212:98|125:122,1,140,10|8,0:0|1:0,0:0:0:0:
25,170,215467,1,0,1:0:0:0:
25,170,215557,1,0,1:0:0:0:
25,170,215647,2,0,B|113:189|63:221|150:245,1,140,8|8,0:0|1:0,0:0:0:0:
140,242,216189,1,0,0:0:0:0:
247,231,216370,6,0,P|262:199|269:165,1,70,8|8,1:0|0:0,0:0:0:0:
269,68,216732,1,8,1:0:0:0:
381,42,216912,1,0,1:0:0:0:
381,42,217003,1,0,1:0:0:0:
381,42,217093,2,0,P|406:38|433:44,3,35,2|0|8|0,1:1|1:0|1:3|1:0,0:0:0:0:
457,76,217455,2,0,P|472:84|485:95,3,35,10|8|4|4,1:1|1:3|1:3|1:3,0:0:0:0:
491,152,217816,6,0,B|488:178|475:189|475:189|432:149|368:165,1,140,14|8,0:0|1:0,0:0:0:0:
301,218,218358,1,0,1:0:0:0:
301,218,218448,1,0,1:0:0:0:
301,218,218539,2,0,P|283:248|284:287,1,70,8|8,0:0|0:0,0:0:0:0:
182,224,218900,2,0,P|164:194|163:159,1,70,8|0,1:0|0:0,0:0:0:0:
202,73,219262,6,0,P|236:67|268:54,2,70,10|0|8,0:0|0:0|1:0,0:0:0:0:
96,65,219804,1,0,1:0:0:0:
96,65,219894,1,0,1:0:0:0:
96,65,219985,2,0,P|40:105|38:176,1,140,8|8,0:0|1:0,0:0:0:0:
77,257,220527,1,0,0:0:0:0:
171,272,220708,6,0,P|205:268|240:265,1,70,10|0,0:0|0:0,0:0:0:0:
283,176,221069,1,8,1:0:0:0:
203,136,221250,2,0,P|186:131|168:128,2,35,0|0|8,1:0|1:0|0:0,0:0:0:0:
279,88,221611,1,8,0:0:0:0:
368,110,221792,2,0,P|402:105|431:87,1,70,8|0,1:0|0:0,0:0:0:0:
502,19,222153,6,0,P|480:85|471:154,1,140,10|8,0:0|1:0,0:0:0:0:
490,250,222695,1,0,1:0:0:0:
490,250,222786,1,0,1:0:0:0:
490,250,222876,2,0,P|495:284|498:319,1,70,8|8,0:0|0:0,0:0:0:0:
404,339,223238,2,0,P|399:305|395:270,1,70,8|8,1:0|3:0,0:0:0:0:
350,238,223509,1,8,3:0:0:0:
350,238,223599,6,0,B|261:245|310:283|195:295,1,140,14|8,0:0|1:0,0:0:0:0:
143,257,224141,2,0,P|138:227|134:195,2,35,0|0|8,1:0|1:0|0:0,0:0:0:0:
86,325,224503,1,8,0:0:0:0:
10,252,224683,2,0,P|5:218|16:185,1,70,8|8,1:0|3:0,0:0:0:0:
0,141,224955,1,8,3:0:0:0:
0,141,225045,6,0,P|70:146|144:123,1,140,10|8,0:0|1:0,0:0:0:0:
207,48,225587,1,0,1:0:0:0:
207,48,225677,1,0,1:0:0:0:
207,48,225768,2,0,P|242:43|275:54,1,70,8|8,0:0|0:0,0:0:0:0:
353,121,226129,1,8,1:0:0:0:
311,215,226310,1,8,3:0:0:0:
311,215,226400,1,8,3:0:0:0:
311,215,226491,6,0,P|246:234|194:192,1,140,14|8,0:0|1:0,0:0:0:0:
166,98,227033,1,8,3:0:0:0:
80,155,227214,2,0,L|74:189,3,35,14|0|0|0,1:2|1:0|1:0|1:0,0:0:0:0:
49,218,227575,1,8,1:0:0:0:
99,313,227756,1,8,3:0:0:0:
99,313,227846,1,8,3:0:0:0:
99,313,227936,6,0,P|132:304|167:303,1,70,8|8,1:0|0:0,0:0:0:0:
266,332,228298,1,8,1:0:0:0:
266,332,228479,1,8,1:1:0:0:
355,272,228659,2,0,P|361:234|366:200,1,70,0|8,1:1|1:3,0:0:0:0:
375,169,228930,1,8,1:3:0:0:
375,169,229021,1,8,1:3:0:0:
442,88,229202,1,0,1:1:0:0:
435,79,229292,1,0,1:1:0:0:
425,72,229382,6,0,P|351:57|266:47,1,132.999996448517,14|0,0:0|1:0,0:0:0:0:
228,125,229924,1,2,0:0:0:0:
137,84,230105,2,0,L|122:19,1,66.4999982242585,8|8,0:0|0:0,0:0:0:0:
42,96,230467,2,0,L|56:160,1,66.4999982242585,0|0,1:0|0:0,0:0:0:0:
136,208,230828,6,0,P|168:207|199:196,2,66.4999982242585,10|8|0,0:0|0:0|1:0,0:0:0:0:
56,277,231370,2,0,L|23:284,2,33.2499991121292,0|0|8,3:0|3:0|0:0,0:0:0:0:
136,208,231732,1,8,0:0:0:0:
195,290,231912,2,0,P|204:330|190:374,1,66.4999982242585,0|0,1:0|0:0,0:0:0:0:
302,361,232274,6,0,B|387:354|349:308|451:306,1,132.999996448517,10|0,0:0|1:0,0:0:0:0:
505,261,232816,2,0,L|511:229,2,33.2499991121292,0|0|8,3:0|3:0|0:0,0:0:0:0:
419,192,233177,1,8,0:0:0:0:
333,248,233358,2,0,P|289:252|257:242,1,66.4999982242585,0|0,1:0|0:0,0:0:0:0:
164,227,233720,6,0,L|176:292,1,66.4999982242585,10|8,0:0|0:0,0:0:0:0:
69,245,234081,2,0,L|56:179,1,66.4999982242585,0|0,1:0|3:0,0:0:0:0:
61,137,234352,1,0,3:0:0:0:
61,137,234442,2,0,P|97:117|150:111,1,66.4999982242585,8|8,0:0|0:0,0:0:0:0:
156,22,234804,2,0,P|195:33|237:67,1,66.4999982242585,0|0,1:0|0:0,0:0:0:0:
304,115,235165,6,0,P|231:133|213:208,1,132.999996448517,14|0,0:0|1:0,0:0:0:0:
276,251,235708,2,0,L|309:255,2,33.2499991121292,0|0|8,3:0|3:0|0:0,0:0:0:0:
209,181,236069,1,8,0:0:0:0:
130,239,236250,2,0,P|115:269|122:305,1,66.4999982242585,0|8,1:0|0:0,0:0:0:0:
199,367,236611,5,2,1:2:0:0:
199,367,236792,1,8,0:0:0:0:
302,361,236973,2,0,L|371:356,1,66.4999982242585,14|8,1:2|3:3,0:0:0:0:
407,318,237244,1,8,3:0:0:0:
407,318,237334,2,0,L|473:313,1,66.4999982242585,8|8,3:0|0:0,0:0:0:0:
450,219,237695,1,8,3:0:0:0:
450,219,237876,1,8,0:0:0:0:
346,227,238057,5,14,0:0:0:0:
357,126,238238,2,0,L|366:59,1,66.4999982242585,2|0,1:1|1:0,0:0:0:0:
255,99,238599,2,0,P|183:116|130:78,1,132.999996448517,2|2,1:0|1:0,0:0:0:0:
0,275,239322,2,0,P|56:243|118:262,1,132.999996448517,2|2,1:0|1:1,0:0:0:0:
201,340,239864,1,2,1:2:0:0:
270,276,240045,2,0,L|267:242,2,33.2499991121292,0|0|2,1:0|1:0|1:2,0:0:0:0:
356,348,240406,1,4,3:0:0:0:
356,348,240497,1,4,3:0:0:0:
356,348,240587,1,4,3:0:0:0:
419,273,240768,6,0,B|489:172|439:84|439:84|389:100|374:138,1,280,14|0,0:0|0:0,0:0:0:0:
256,192,242394,12,0,245286,0:0:0:0:
