osu file format v14

[General]
AudioFilename: audio.mp3
AudioLeadIn: 0
PreviewTime: 47142
Countdown: 0
SampleSet: Soft
StackLeniency: 0.7
Mode: 0
LetterboxInBreaks: 0
WidescreenStoryboard: 1

[Editor]
Bookmarks: 2180,13278,35474,47786,70156,81255,103451,115763,128769,138133,144029,149232,160330,180966,181312,181486,181573,181746,181919,182093,182180,182353,182526,182700,182786,182960,183133,183307,183393,183567,183740,183914,184087,184260,184347,184521,184694,184867,185041,185127,185301,185474,185648,185734,185908,186081,186255,186341,186515,186688,186862,186948,187122,187295,187469,187555,187729,187902,188075,188249,188422,188596,188682,188856,189029,189203,189376,189549,189636,189810,189983,190156,190330,190503,190677,190763,190937,191110,191284,191457,191544,203162,204636,214260,225532,234896,239578
DistanceSpacing: 0.3
BeatDivisor: 4
GridSize: 16
TimelineZoom: 1.3

[Metadata]
Title:Strange Attractor
TitleUnicode:ストレンジアトラクター
Artist:yanaginagi
ArtistUnicode:やなぎなぎ
Creator:Shiyzo
Version:gentle
Source:
Tags:japanese rock エウアル jpop Euaru j-pop jpop pop yanagi nagi j-rock jrock kuuti yukic fix
BeatmapID:2943287
BeatmapSetID:1429764

[Difficulty]
HPDrainRate:6.5
CircleSize:4.3
OverallDifficulty:8.5
ApproachRate:9
SliderMultiplier:1.5
SliderTickRate:1

[Events]
//Background and Video events
0,0,"this is not a wallpaper.jpg",0,0
//Break Periods
2,181128,190891
//Storyboard Layer 0 (Background)
//Storyboard Layer 1 (Fail)
//Storyboard Layer 2 (Pass)
//Storyboard Layer 3 (Foreground)
//Storyboard Layer 4 (Overlay)
//Storyboard Sound Samples

[TimingPoints]
2142,346.820809248555,4,2,1,80,1,0
2142,-100,4,2,2,60,0,0
2228,-100,4,2,1,60,0,0
10465,-90.9090909090909,4,2,1,60,0,0
10985,-83.3333333333333,4,2,1,60,0,0
12546,-90.9090909090909,4,2,1,60,0,0
13240,-100,4,2,2,60,0,0
13326,-100,4,2,1,60,0,0
15321,-111.111111111111,4,2,1,60,0,0
16014,-76.9230769230769,4,2,1,60,0,0
16535,-90.9090909090909,4,2,1,60,0,0
17228,-111.111111111111,4,2,1,60,0,0
18962,-99.9999999999999,4,2,1,60,0,0
21217,-125,4,2,1,60,0,0
21563,-90.9090909090909,4,2,1,60,0,0
24165,-86.9565217391304,4,2,1,80,0,0
25205,-105.263157894737,4,2,1,80,0,0
26766,-95.2380952380954,4,2,1,80,0,0
27113,-83.3333333333333,4,2,1,80,0,0
30754,-90.9090909090909,4,2,1,80,0,0
32662,-83.3333333333333,4,2,1,80,0,0
33876,-100,4,2,1,80,0,0
35436,-100,4,2,1,60,0,0
40639,-83.3333333333333,4,2,1,80,0,0
43760,-90.9090909090909,4,2,1,80,0,0
44280,-83.3333333333333,4,2,1,80,0,0
46535,-142.857142857143,4,2,1,80,0,0
47228,-50,4,2,1,80,0,0
47402,-90.9090909090909,4,2,1,80,0,0
47748,-83.3333333333333,4,2,2,90,0,1
47835,-83.3333333333333,4,2,1,90,0,1
51043,-90.9090909090909,4,2,1,90,0,1
51390,-83.3333333333333,4,2,1,90,0,1
53124,-111.111111111111,4,2,1,90,0,1
53471,-83.3333333333333,4,2,1,90,0,1
54858,-90.9090909090909,4,2,1,90,0,1
56246,-83.3333333333333,4,2,1,90,0,1
58326,-50,4,2,1,90,0,0
58500,-90.9090909090909,4,2,1,90,0,0
58847,-83.3333333333333,4,2,2,90,0,1
58933,-83.3333333333333,4,2,1,90,0,1
64222,-111.111111111111,4,2,1,90,0,1
64569,-90.9090909090909,4,2,1,90,0,1
70118,-100,4,2,2,90,0,0
70205,-100,4,2,1,90,0,0
78442,-90.9090909090909,4,2,1,90,0,0
81217,-90.9090909090909,4,2,1,60,0,0
89540,-83.3333333333333,4,2,1,70,0,0
92142,-86.9565217391304,4,2,1,80,0,0
92662,-83.3333333333333,4,2,1,70,0,0
94396,-90.9090909090909,4,2,1,70,0,0
94743,-83.3333333333333,4,2,1,70,0,0
96303,-76.9230769230769,4,2,1,70,0,0
96824,-90.9090909090909,4,2,1,70,0,0
97517,-111.111111111111,4,2,1,70,0,0
97864,-90.9090909090909,4,2,1,70,0,0
99251,-83.3333333333333,4,2,1,70,0,0
100292,-100,4,2,1,70,0,0
100639,-83.3333333333333,4,2,1,70,0,0
103413,-100,4,2,1,60,0,0
108615,-111.111111111111,4,2,1,70,0,0
108962,-83.3333333333333,4,2,1,70,0,0
110870,-90.9090909090909,4,2,1,70,0,0
111390,-83.3333333333333,4,2,1,70,0,0
112431,-50,4,2,1,70,0,0
112951,-80,4,2,1,70,0,0
114511,-117.647058823529,4,2,1,90,0,0
115205,-50,4,2,1,90,0,0
115378,-100,4,2,1,90,0,0
115725,-76.9230769230769,4,2,2,90,0,1
115812,-76.9230769230769,4,2,1,90,0,1
119367,-83.3333333333333,4,2,1,90,0,1
121101,-90.9090909090909,4,2,1,90,0,1
121448,-83.3333333333333,4,2,1,90,0,1
126303,-50,4,2,1,90,0,0
126477,-100,4,2,1,90,0,0
126824,-76.9230769230769,4,2,2,90,0,1
126910,-76.9230769230769,4,2,1,90,0,1
132546,-83.3333333333333,4,2,1,90,0,1
135321,-76.9230769230769,4,2,1,90,0,1
135841,-90.9090909090909,4,2,1,90,0,1
136708,-76.9230769230769,4,2,1,90,0,1
138095,-90.9090909090909,4,2,1,80,0,0
146419,-90.9090909090909,4,2,1,90,0,0
149194,-83.3333333333333,4,2,1,90,0,1
159772,-83.3333333333333,4,2,1,90,0,0
160292,-90.9090909090909,4,2,1,80,0,1
168615,-86.9565217391304,4,2,1,90,0,0
180841,-90.9090909090909,4,2,1,90,0,0
192026,-100,4,2,1,60,0,0
200523,-90.9090909090909,4,2,1,90,0,0
201910,-125,4,2,1,90,0,0
202604,-50,4,2,1,90,0,0
202777,-100,4,2,1,90,0,0
203124,-76.9230769230769,4,2,2,90,0,1
203211,-76.9230769230769,4,2,1,90,0,1
208847,-83.3333333333333,4,2,1,90,0,1
213702,-50,4,2,1,90,0,0
213876,-100,4,2,1,90,0,0
214222,-76.9230769230769,4,2,2,90,0,1
214309,-76.9230769230769,4,2,1,90,0,1
219945,-83.3333333333333,4,2,1,90,0,1
225494,-100,4,2,2,60,0,0
225581,-100,4,2,1,90,0,0
239367,-100,4,2,1,5,0,0

[Colours]
Combo1 : 231,168,150
Combo2 : 220,208,160
Combo3 : 103,169,123
Combo4 : 174,188,78
Combo5 : 67,163,149

[HitObjects]
500,162,2142,6,0,P|460:168|422:209,1,75,6|0,0:2|0:0,0:0:0:0:
312,62,2488,1,0,0:0:0:0:
382,88,2662,1,2,0:0:0:0:
225,172,2835,2,0,P|235:208|243:244,1,75,0|0,0:0|0:0,0:0:0:0:
159,131,3182,5,2,0:0:0:0:
158,57,3355,1,0,0:0:0:0:
111,0,3529,1,0,0:0:0:0:
303,74,3702,2,0,P|340:69|377:66,1,75,2|0,0:0|0:0,0:0:0:0:
447,98,4049,1,0,0:0:0:0:
298,218,4222,6,0,P|289:259|302:301,1,75,2|0,0:0|0:0,0:0:0:0:
254,351,4569,2,0,L|179:340,1,75,2|0,0:0|0:0,0:0:0:0:
43,256,4829,1,0,0:0:0:0:
39,267,4916,6,0,B|27:286|27:286|152:266,1,150,2|0,0:0|0:0,0:0:0:0:
336,145,5436,1,2,0:0:0:0:
269,115,5610,1,0,0:0:0:0:
250,44,5783,1,0,0:0:0:0:
102,108,5957,2,0,P|83:68|47:54,1,75,2|0,0:0|0:0,0:0:0:0:
163,194,6303,1,0,0:0:0:0:
129,260,6477,1,2,0:0:0:0:
216,371,6650,6,0,L|129:376,1,75,2|0,0:0|0:0,0:0:0:0:
286,246,6997,1,2,0:0:0:0:
357,277,7170,2,0,P|365:242|351:205,1,75,0|2,1:0|0:0,0:0:0:0:
435,377,7517,1,0,1:0:0:0:
480,191,7691,6,0,B|451:125|507:108|472:38,1,150,6|0,1:2|0:0,0:0:0:0:
286,195,8211,2,0,P|343:202|368:185,1,75,2|0,0:0|0:0,0:0:0:0:
398,136,8558,1,0,0:0:0:0:
344,309,8731,2,0,L|357:390,1,75,2|0,0:0|0:0,0:0:0:0:
280,205,9078,1,0,0:0:0:0:
181,271,9251,6,0,L|267:280,1,75,2|0,0:0|0:0,0:0:0:0:
97,384,9598,1,0,0:0:0:0:
19,256,9772,2,0,P|18:293|40:324,1,75,2|0,0:0|0:0,0:0:0:0:
101,126,10118,2,0,P|126:161|128:200,1,75,2|0,0:0|0:0,0:0:0:0:
167,272,10378,1,0,0:0:0:0:
172,261,10465,6,0,B|178:251|178:251|211:249|269:244,1,82.5000025177003,2|0,0:0|0:0,0:0:0:0:
337,329,10812,1,0,0:0:0:0:
385,108,10985,6,0,B|368:170|382:250|472:256|486:178,1,224.999993133545,2|0,0:0|0:0,0:0:0:0:
499,112,11506,1,2,0:0:0:0:
366,208,11679,2,0,P|316:212|266:218,1,89.9999972534181,0|0,0:0|0:0,0:0:0:0:
120,55,12026,6,0,B|119:19|201:-32|265:79|150:138,1,224.999993133545,2|0,0:0|0:0,0:0:0:0:
97,181,12546,6,0,B|140:178|140:178|186:214,1,82.5000025177003,2|0,0:0|0:0,0:0:0:0:
349,91,12893,2,0,B|306:82|306:82|256:111,1,82.5000025177003,2|0,0:0|0:0,0:0:0:0:
341,309,13240,6,0,P|333:269|302:243,1,75,4|0,0:2|0:0,0:0:0:0:
223,382,13587,2,0,L|315:379,1,75,2|2,0:0|0:0,0:0:0:0:
353,313,13933,2,0,P|390:285|469:308,1,112.5,2|0,0:0|0:0,0:0:0:0:
504,354,14280,1,2,0:0:0:0:
510,174,14454,2,0,P|505:99|499:23,1,150,2|0,0:0|0:0,0:0:0:0:
456,105,15321,6,0,P|421:91|348:97,1,101.249996910095,2|0,0:0|0:0,0:0:0:0:
297,130,15668,1,2,0:0:0:0:
221,28,15841,1,0,1:0:0:0:
221,28,15928,1,0,0:3:0:0:
221,28,16014,6,0,P|208:84|180:114,1,97.4999955368044,2|0,1:2|0:0,0:0:0:0:
0,180,16361,1,2,0:0:0:0:
73,219,16535,2,0,L|70:128,1,82.5000025177003,2|0,1:2|0:0,0:0:0:0:
141,302,16881,2,0,L|135:384,1,82.5000025177003,2|0,0:0|0:0,0:0:0:0:
213,223,17228,2,0,B|240:176|322:135|372:225|297:261,1,202.499993820191,2|0,0:0|0:0,0:0:0:0:
307,254,18095,1,2,0:0:0:0:
315,265,18442,1,2,0:0:0:0:
434,384,18615,1,2,1:2:0:0:
439,374,18702,1,0,0:0:0:0:
444,364,18789,5,0,1:0:0:0:
419,234,18962,2,0,P|400:194|361:169,1,75,2|0,0:0|0:0,0:0:0:0:
249,295,19309,2,0,B|195:344|111:352|87:272|143:240,1,187.5,0|0,1:0|0:0,0:0:0:0:
120,262,19829,1,0,0:0:0:0:
0,108,20003,2,0,P|36:92|87:100,1,75,0|0,0:0|0:0,0:0:0:0:
277,22,20350,2,0,P|243:44|188:41,1,75,0|0,0:0|0:0,0:0:0:0:
117,0,20696,1,0,0:0:0:0:
165,208,20870,1,0,0:0:0:0:
232,175,21043,5,2,0:0:0:0:
302,198,21217,2,0,L|316:277,1,60,2|2,0:0|1:2,0:0:0:0:
404,376,21477,1,0,0:0:0:0:
394,371,21563,6,0,L|399:286,1,82.5000025177003,0|0,1:0|0:0,0:0:0:0:
404,214,21910,1,0,0:0:0:0:
512,66,22084,2,0,P|480:25|444:13,1,82.5000025177003,0|0,1:0|0:0,0:0:0:0:
345,152,22431,1,0,0:0:0:0:
293,79,22604,2,0,L|375:69,1,82.5000025177003,0|0,1:0|0:0,0:0:0:0:
164,0,22951,5,0,0:0:0:0:
186,191,23124,5,0,1:0:0:0:
262,149,23298,1,0,0:0:0:0:
37,90,23471,1,0,0:0:0:0:
70,353,23644,5,8,0:0:0:0:
70,353,23818,1,8,0:0:0:0:
70,353,24165,6,0,P|121:334|209:349,1,129.375002467632,4|0,1:2|0:0,0:0:0:0:
259,382,24511,1,0,1:0:0:0:
433,221,24685,2,0,P|385:221|343:220,1,86.2500016450882,10|2,0:0|0:0,0:0:0:0:
274,219,24945,1,8,0:0:0:0:
274,219,25032,1,2,1:2:0:0:
359,80,25205,2,0,P|385:49|454:47,1,106.87499714613,0|0,1:0|0:0,0:0:0:0:
501,102,25552,1,10,0:0:0:0:
501,102,25899,5,0,1:0:0:0:
420,197,26072,1,8,0:0:0:0:
482,308,26246,1,0,0:0:0:0:
475,317,26332,1,8,0:0:0:0:
467,321,26419,2,0,P|430:321|395:316,1,71.2499980974198,2|0,1:2|1:0,0:0:0:0:
138,279,26766,2,0,P|179:279|218:273,1,78.7499975967408,10|0,0:0|0:0,0:0:0:0:
293,222,27026,1,8,0:0:0:0:
293,222,27113,6,0,B|340:185|331:98|233:92|234:188,1,179.999994506836,2|10,1:2|0:0,0:0:0:0:
164,369,27633,1,2,0:0:0:0:
148,380,27720,1,8,0:0:0:0:
130,375,27806,1,0,1:0:0:0:
0,214,27980,1,2,1:2:0:0:
0,214,28326,1,10,0:0:0:0:
64,167,28673,5,0,1:0:0:0:
137,195,28847,1,8,0:0:0:0:
208,163,29020,1,0,0:0:0:0:
235,90,29194,1,2,1:2:0:0:
214,15,29367,1,0,1:0:0:0:
346,135,29540,1,10,0:0:0:0:
463,32,29714,1,0,0:0:0:0:
474,27,29800,1,8,0:0:0:0:
483,22,29887,6,0,P|486:127|484:171,1,134.999995880127,6|0,1:2|0:0,0:0:0:0:
467,230,30234,2,0,P|415:223|377:241,1,89.9999972534181,8|2,0:0|0:0,0:0:0:0:
335,296,30494,1,8,0:0:0:0:
335,296,30581,1,0,1:0:0:0:
236,142,30754,6,0,B|202:142|179:164|179:164|148:165|112:137,1,123.75000377655,0|0,1:0|0:0,0:0:0:0:
61,91,31101,2,0,P|23:75|59:101,1,123.75000377655,8|0,0:0|0:0,0:0:0:0:
122,144,31448,1,0,1:0:0:0:
194,0,31621,2,0,L|284:5,1,82.5000025177003,10|2,0:0|0:0,0:0:0:0:
351,14,31881,1,8,0:0:0:0:
351,14,31968,1,0,1:0:0:0:
332,108,32142,1,2,1:2:0:0:
512,78,32315,5,10,0:0:0:0:
433,203,32488,1,2,0:0:0:0:
444,211,32575,1,8,0:0:0:0:
448,224,32662,6,0,B|426:285|351:294|321:267|314:245,1,134.999995880127,4|0,1:2|0:0,0:0:0:0:
275,234,33009,1,8,0:0:0:0:
213,362,33182,1,0,0:0:0:0:
213,362,33269,1,8,0:0:0:0:
213,362,33355,2,0,L|200:269,1,89.9999972534181,0|0,1:0|1:0,0:0:0:0:
118,127,33702,1,10,0:0:0:0:
377,212,33876,2,0,P|320:215|264:219,1,112.5,6|0,1:2|0:0,0:0:0:0:
195,199,34222,1,0,1:0:0:0:
298,110,34396,5,8,0:0:0:0:
233,62,34569,1,0,1:0:0:0:
280,325,34743,5,8,0:0:0:0:
359,265,34916,1,0,3:0:0:0:
368,261,35003,1,0,3:0:0:0:
390,269,35089,5,0,3:0:0:0:
426,267,35175,1,0,3:0:0:0:
454,291,35262,1,0,3:0:0:0:
460,327,35349,1,0,3:0:0:0:
437,357,35436,6,0,B|400:297|474:269|417:192,1,150,6|0,1:2|1:0,0:0:0:0:
477,118,35957,2,0,P|443:102|406:107,1,75,0|0,0:0|1:0,0:0:0:0:
211,58,36303,1,0,3:0:0:0:
293,24,36477,1,0,1:0:0:0:
327,105,36650,1,0,3:0:0:0:
245,139,36824,1,0,1:0:0:0:
68,22,36997,2,0,P|103:33|138:23,1,75,0|0,0:0|1:0,0:0:0:0:
159,161,37344,1,0,3:0:0:0:
152,172,37431,1,0,3:0:0:0:
145,183,37517,5,0,1:0:0:0:
50,319,37691,2,0,L|32:236,1,75,0|0,0:0|1:0,0:0:0:0:
16,172,37951,1,0,3:0:0:0:
16,172,38037,1,0,3:0:0:0:
16,172,38124,1,0,3:0:0:0:
16,172,38211,6,0,L|25:64,1,75,6|0,1:2|0:0,0:0:0:0:
79,41,38558,2,0,P|117:54|171:24,1,75,0|8,1:0|0:0,0:0:0:0:
221,202,38905,1,0,1:0:0:0:
256,136,39078,1,0,3:0:0:0:
291,70,39251,1,0,1:0:0:0:
361,44,39425,1,0,3:0:0:0:
361,44,39511,1,0,3:0:0:0:
361,44,39598,6,0,B|344:71|353:107|353:107|351:71|391:26,1,150,0|0,1:0|1:0,0:0:0:0:
449,163,40118,1,0,3:0:0:0:
460,171,40205,1,0,3:0:0:0:
464,203,40292,5,0,1:0:0:0:
442,241,40378,1,0,3:0:0:0:
400,254,40465,1,0,3:0:0:0:
361,235,40552,1,0,3:0:0:0:
344,194,40639,2,0,B|323:175|323:175|291:170|247:188,1,89.9999972534181,4|8,1:2|0:0,0:0:0:0:
167,258,40899,1,8,0:0:0:0:
155,258,40985,6,0,P|135:212|151:159,1,89.9999972534181,4|0,1:2|0:0,0:0:0:0:
394,59,41332,2,0,L|294:52,1,89.9999972534181,10|2,0:0|0:0,0:0:0:0:
231,47,41592,1,8,0:0:0:0:
231,47,41679,1,0,1:0:0:0:
256,195,41852,1,0,1:0:0:0:
387,158,42026,1,2,0:0:0:0:
465,266,42199,6,0,P|407:255|374:269,1,89.9999972534181,10|0,0:0|0:0,0:0:0:0:
220,126,42546,1,2,1:2:0:0:
256,195,42720,1,0,1:0:0:0:
147,365,42893,2,0,P|191:360|231:379,1,89.9999972534181,8|2,0:0|0:0,0:0:0:0:
122,169,43240,1,0,1:0:0:0:
185,240,43413,2,0,L|94:255,1,89.9999972534181,8|0,0:0|0:0,0:0:0:0:
0,279,43673,1,8,0:0:0:0:
5,270,43760,6,0,P|-7:212|11:175,1,82.5000025177003,6|0,1:2|0:0,0:0:0:0:
235,38,44107,1,8,0:0:0:0:
160,0,44280,2,0,L|163:102,1,89.9999972534181,2|0,0:0|1:0,0:0:0:0:
242,301,44627,2,0,L|245:199,1,89.9999972534181,2|0,1:2|0:0,0:0:0:0:
353,56,44974,6,0,B|379:0|490:-33|552:75|436:91,1,224.999993133545,14|0,0:0|0:0,0:0:0:0:
406,122,45494,1,8,1:2:0:0:
493,171,45668,1,8,1:2:0:0:
331,226,45841,1,8,1:2:0:0:
512,320,46014,1,8,1:2:0:0:
357,380,46188,5,8,0:0:0:0:
365,375,46274,1,8,0:0:0:0:
355,345,46361,5,0,3:0:0:0:
321,324,46447,1,0,3:0:0:0:
280,320,46535,6,0,B|239:313|207:367|207:367|185:308|138:312,1,183.749994392395,4|0,1:2|0:0,0:0:0:0:
70,333,47228,6,0,B|63:310|70:293|70:293|56:312|64:327,1,75,10|0,0:0|0:0,0:0:0:0:
12,247,47402,2,0,L|-1:114,1,123.75000377655,2|0,1:2|0:0,0:0:0:0:
95,80,47748,6,0,P|132:49|271:38,1,179.999994506836,6|0,0:2|1:0,0:0:0:0:
360,259,48269,2,0,L|356:159,1,89.9999972534181,8|0,0:0|0:0,0:0:0:0:
351,94,48529,1,8,0:0:0:0:
351,94,48615,1,0,1:0:0:0:
235,201,48789,1,0,1:0:0:0:
151,119,48962,6,0,P|110:98|62:106,1,89.9999972534181,10|2,0:0|0:0,0:0:0:0:
0,143,49222,1,0,0:0:0:0:
5,152,49309,2,0,P|2:197|-2:241,1,89.9999972534181,0|0,1:0|0:0,0:0:0:0:
154,26,49656,2,0,P|157:71|161:115,1,89.9999972534181,10|0,0:0|0:0,0:0:0:0:
172,188,49916,1,8,0:0:0:0:
172,188,50003,5,2,1:2:0:0:
88,295,50176,1,2,1:2:0:0:
179,374,50350,2,0,P|209:330|249:313,1,89.9999972534181,8|2,0:0|0:0,0:0:0:0:
314,330,50610,1,8,0:0:0:0:
314,330,50696,5,0,1:0:0:0:
79,304,50870,1,2,0:0:0:0:
279,220,51043,2,0,P|318:198|341:160,1,82.5000025177003,10|0,0:0|0:0,0:0:0:0:
426,384,51390,2,0,L|436:326,1,44.999998626709,2|0,1:2|0:0,0:0:0:0:
504,362,51563,2,0,L|500:308,1,44.999998626709,2|0,1:2|0:0,0:0:0:0:
490,246,51737,1,8,0:0:0:0:
332,157,51910,6,0,L|433:164,1,89.9999972534181,2|0,1:2|0:0,0:0:0:0:
206,257,52257,1,2,1:2:0:0:
285,84,52431,2,0,L|386:77,1,89.9999972534181,10|0,0:0|0:0,0:0:0:0:
450,75,52691,1,8,0:0:0:0:
450,75,52777,1,0,1:0:0:0:
324,0,52951,1,0,1:0:0:0:
395,220,53124,2,0,P|344:224|298:255,1,101.249996910095,14|0,0:0|0:0,0:0:0:0:
283,344,53471,6,0,P|231:342|193:301,1,89.9999972534181,6|0,1:2|0:0,0:0:0:0:
78,165,53818,1,10,0:0:0:0:
152,225,53991,1,2,0:0:0:0:
152,225,54078,1,8,0:0:0:0:
152,225,54165,2,0,L|162:112,1,89.9999972534181,0|0,1:0|1:0,0:0:0:0:
261,0,54511,2,0,L|271:113,1,89.9999972534181,10|2,0:0|0:0,0:0:0:0:
334,162,54772,1,0,0:0:0:0:
328,173,54858,6,0,P|270:175|248:192,1,82.5000025177003,0|2,1:0|0:0,0:0:0:0:
486,52,55205,1,10,0:0:0:0:
427,0,55378,2,0,P|409:47|428:98,1,82.5000025177003,0|0,1:0|0:0,0:0:0:0:
446,301,55725,1,0,1:0:0:0:
512,260,55899,2,0,P|459:222|411:234,1,82.5000025177003,8|2,0:0|0:0,0:0:0:0:
259,384,56246,6,0,B|216:336|216:336|225:265,1,134.999995880127,2|0,1:2|0:0,0:0:0:0:
236,196,56592,2,0,P|188:177|144:180,1,89.9999972534181,10|2,0:0|0:0,0:0:0:0:
82,207,56852,1,8,0:0:0:0:
82,207,56939,5,0,1:0:0:0:
5,65,57113,1,2,1:2:0:0:
156,167,57286,5,8,0:0:0:0:
103,6,57459,1,2,1:2:0:0:
236,196,57633,5,12,0:0:0:0:
209,4,57806,1,2,1:2:0:0:
281,270,57980,5,14,0:0:0:0:
363,246,58153,1,0,1:0:0:0:
440,268,58326,6,0,B|447:245|440:228|440:228|454:247|446:262,1,75,14|0,0:0|0:0,0:0:0:0:
506,191,58500,2,0,L|513:58,1,123.75000377655,2|0,3:2|0:0,0:0:0:0:
415,32,58847,6,0,B|370:18|341:42|341:42|330:26|330:26|297:73|221:48,1,179.999994506836,6|0,0:2|1:0,0:0:0:0:
11,125,59367,2,0,L|113:142,1,89.9999972534181,8|0,0:0|0:0,0:0:0:0:
174,152,59627,1,8,0:0:0:0:
174,152,59714,1,0,1:0:0:0:
257,365,59887,1,0,1:0:0:0:
286,276,60061,6,0,L|184:259,1,89.9999972534181,10|2,0:0|0:0,0:0:0:0:
133,306,60321,1,8,0:0:0:0:
133,306,60407,2,0,P|76:314|35:283,1,89.9999972534181,0|0,1:0|0:0,0:0:0:0:
79,132,60754,2,0,P|136:124|177:155,1,89.9999972534181,10|0,0:0|0:0,0:0:0:0:
207,199,61014,1,8,0:0:0:0:
207,199,61101,5,2,1:2:0:0:
283,14,61274,1,2,1:2:0:0:
489,137,61448,2,0,L|399:131,1,89.9999972534181,8|2,0:0|0:0,0:0:0:0:
323,121,61708,1,8,0:0:0:0:
323,121,61795,5,0,1:0:0:0:
293,261,61968,1,2,0:0:0:0:
500,148,62142,2,0,L|505:237,1,89.9999972534181,10|0,0:0|0:0,0:0:0:0:
344,378,62488,2,0,P|320:366|298:360,1,44.999998626709,2|0,1:2|0:0,0:0:0:0:
401,338,62662,2,0,P|384:317|366:302,1,44.999998626709,2|0,1:2|0:0,0:0:0:0:
305,267,62835,1,8,0:0:0:0:
123,316,63009,6,0,P|119:269|111:203,1,89.9999972534181,2|0,1:2|0:0,0:0:0:0:
31,378,63355,1,2,1:2:0:0:
19,147,63529,2,0,P|58:120|104:120,1,89.9999972534181,10|0,0:0|0:0,0:0:0:0:
172,138,63789,1,8,0:0:0:0:
172,138,63876,1,0,1:0:0:0:
171,0,64049,1,0,1:0:0:0:
363,85,64222,2,0,P|327:73|282:82,1,67.4999979400635,10|10,0:0|0:0,0:0:0:0:
281,264,64569,6,0,B|312:283|344:262|344:262|383:274|394:313,1,123.75000377655,4|0,1:2|0:0,0:0:0:0:
445,359,64916,2,0,P|466:316|459:271,1,82.5000025177003,10|2,0:0|0:0,0:0:0:0:
432,212,65176,1,8,0:0:0:0:
432,212,65263,1,0,1:0:0:0:
503,91,65436,1,0,1:0:0:0:
296,50,65610,2,0,L|389:37,1,82.5000025177003,10|2,0:0|0:0,0:0:0:0:
193,126,65957,6,0,L|100:113,1,82.5000025177003,0|2,1:0|0:0,0:0:0:0:
32,162,66217,1,0,0:0:0:0:
32,162,66303,2,0,P|21:204|38:256,1,82.5000025177003,10|0,0:0|0:0,0:0:0:0:
56,312,66563,1,8,0:0:0:0:
56,312,66650,1,0,1:0:0:0:
202,141,66824,1,0,1:0:0:0:
268,199,66997,5,10,0:0:0:0:
228,274,67170,1,2,0:0:0:0:
406,58,67344,6,0,P|344:37|297:41,1,82.5000025177003,4|2,1:2|0:0,0:0:0:0:
192,134,67691,1,2,1:2:0:0:
458,123,67864,2,0,P|410:77|366:61,1,82.5000025177003,12|0,0:0|0:0,0:0:0:0:
202,141,68211,1,0,1:0:0:0:
485,212,68384,2,0,P|461:151|427:117,1,82.5000025177003,8|0,0:0|0:0,0:0:0:0:
395,70,68644,1,8,0:0:0:0:
384,63,68731,6,0,L|294:48,1,82.5000025177003,4|0,1:2|1:0,0:0:0:0:
222,104,68991,1,0,0:0:0:0:
210,101,69078,6,0,L|125:115,1,82.5000025177003,10|0,0:0|1:0,0:0:0:0:
431,154,69425,2,0,L|516:168,1,82.5000025177003,10|0,0:0|1:0,0:0:0:0:
220,372,69772,2,0,L|233:290,1,82.5000025177003,10|0,0:0|3:0,0:0:0:0:
434,72,70118,6,0,L|420:153,1,75,6|0,0:2|0:0,0:0:0:0:
461,324,70465,1,0,1:0:0:0:
425,254,70639,1,2,0:0:0:0:
222,354,70812,2,0,P|263:346|293:356,1,75,0|0,1:0|0:0,0:0:0:0:
223,261,71159,5,2,1:2:0:0:
278,212,71332,1,0,0:0:0:0:
273,138,71506,1,0,1:0:0:0:
105,45,71679,6,0,P|141:53|176:42,1,75,2|0,0:0|1:0,0:0:0:0:
38,100,72026,1,0,0:0:0:0:
73,281,72199,2,0,L|79:185,1,75,2|0,1:2|0:0,0:0:0:0:
4,350,72546,2,0,L|-2:254,1,75,2|8,1:2|0:0,0:0:0:0:
202,305,72893,5,6,1:2:0:0:
255,253,73067,1,0,0:0:0:0:
328,264,73240,1,0,1:0:0:0:
492,223,73413,2,0,L|408:240,1,75,2|0,0:0|1:0,0:0:0:0:
421,104,73760,1,0,0:0:0:0:
246,136,73933,2,0,L|330:153,1,75,2|0,1:2|3:0,0:0:0:0:
154,233,74280,5,0,1:0:0:0:
118,163,74454,1,10,0:0:0:0:
139,90,74627,5,0,1:0:0:0:
73,304,74800,1,0,3:0:0:0:
0,270,74974,5,2,1:2:0:0:
171,230,75147,1,0,3:0:0:0:
244,196,75321,5,2,1:2:0:0:
159,384,75494,1,0,1:0:0:0:
405,306,75668,6,0,P|364:284|316:283,1,75,6|0,1:2|0:0,0:0:0:0:
457,242,76014,1,0,1:0:0:0:
366,59,76188,2,0,L|375:154,1,75,2|0,0:0|1:0,0:0:0:0:
438,11,76535,1,0,0:0:0:0:
282,112,76708,2,0,P|238:96|190:103,1,75,2|8,1:2|0:0,0:0:0:0:
294,22,77055,1,0,1:0:0:0:
245,256,77228,2,0,L|236:161,1,75,2|0,0:0|1:0,0:0:0:0:
201,334,77575,5,0,0:0:0:0:
103,253,77748,1,2,1:2:0:0:
210,346,77922,1,8,0:0:0:0:
358,225,78095,1,10,1:2:0:0:
201,334,78269,1,8,0:0:0:0:
46,195,78442,6,0,P|69:153|146:128,1,123.75000377655,6|0,1:2|0:0,0:0:0:0:
213,133,78789,1,0,1:0:0:0:
22,20,78962,1,8,0:0:0:0:
22,20,79309,1,0,1:0:0:0:
132,44,79483,1,8,0:0:0:0:
169,28,79569,1,8,0:0:0:0:
210,28,79656,1,8,0:0:0:0:
248,45,79743,1,8,0:0:0:0:
258,83,79829,6,0,L|247:137,1,41.2500012588501,0|0,1:0|0:0,0:0:0:0:
213,276,80003,1,8,0:0:0:0:
213,276,80350,5,0,1:0:0:0:
324,341,80523,1,0,3:0:0:0:
340,337,80610,1,0,3:0:0:0:
356,333,80696,1,8,0:0:0:0:
372,329,80783,1,8,0:0:0:0:
396,337,80870,5,8,1:2:0:0:
410,299,80956,1,8,0:0:0:0:
446,280,81043,1,8,0:0:0:0:
485,289,81130,1,8,0:0:0:0:
501,331,81217,6,0,B|507:243|445:265|463:163,1,165.000005035401,4|10,1:2|0:0,0:0:0:0:
480,49,81737,1,2,0:0:0:0:
468,45,81824,1,8,0:0:0:0:
456,42,81910,2,0,P|415:37|354:64,1,82.5000025177003,2|0,1:2|0:0,0:0:0:0:
271,216,82257,1,2,0:0:0:0:
349,262,82431,2,0,L|343:164,1,82.5000025177003,10|0,0:0|0:0,0:0:0:0:
114,89,82777,6,0,P|153:77|218:94,1,82.5000025177003,0|8,1:0|0:0,0:0:0:0:
295,0,83124,1,0,0:0:0:0:
295,0,83211,1,8,0:0:0:0:
295,0,83298,2,0,L|289:98,1,82.5000025177003,2|0,1:2|1:0,0:0:0:0:
199,248,83644,2,0,B|191:253|185:261|185:261|143:238|91:274,1,82.5000025177003,10|0,0:0|0:0,0:0:0:0:
23,310,83905,1,8,0:0:0:0:
14,317,83991,6,0,P|24:263|2:212,1,82.5000025177003,2|0,1:2|0:0,0:0:0:0:
0,64,84338,2,0,L|96:44,1,82.5000025177003,10|2,0:0|0:0,0:0:0:0:
148,81,84598,1,8,0:0:0:0:
148,81,84685,1,0,1:0:0:0:
338,40,84858,2,0,P|285:19|243:23,1,82.5000025177003,2|0,1:2|0:0,0:0:0:0:
196,221,85205,2,0,P|232:239|273:241,1,82.5000025177003,10|0,0:0|0:0,0:0:0:0:
396,335,85552,5,0,1:0:0:0:
457,275,85725,1,8,0:0:0:0:
428,194,85899,1,0,0:0:0:0:
512,55,86072,2,0,L|431:71,1,82.5000025177003,2|0,1:2|1:0,0:0:0:0:
346,66,86419,2,0,L|265:49,1,82.5000025177003,10|2,0:0|0:0,0:0:0:0:
163,126,86679,1,8,0:0:0:0:
170,118,86766,6,0,P|188:156|167:222,1,82.5000025177003,6|2,1:2|0:0,0:0:0:0:
146,263,87026,1,0,0:0:0:0:
146,263,87113,1,8,0:0:0:0:
17,151,87286,1,0,0:0:0:0:
95,167,87459,1,0,1:0:0:0:
265,49,87633,1,0,1:0:0:0:
186,34,87806,1,0,0:0:0:0:
304,232,87980,6,0,B|322:244|322:244|416:226,1,82.5000025177003,8|0,0:0|0:0,0:0:0:0:
472,212,88326,1,0,1:0:0:0:
512,384,88500,2,0,P|475:357|429:354,1,82.5000025177003,8|0,0:0|0:0,0:0:0:0:
366,376,88760,1,8,0:0:0:0:
366,376,88847,1,0,1:0:0:0:
319,165,89020,1,2,1:2:0:0:
161,225,89194,2,0,P|201:245|247:241,1,82.5000025177003,10|2,0:0|0:0,0:0:0:0:
322,255,89454,1,8,0:0:0:0:
322,255,89540,6,0,L|319:142,1,89.9999972534181,6|0,1:2|0:0,0:0:0:0:
257,363,89887,1,0,1:0:0:0:
336,235,90061,2,0,L|303:127,1,89.9999972534181,2|0,3:2|0:0,0:0:0:0:
248,371,90407,1,0,1:0:0:0:
344,213,90581,2,0,L|285:117,1,89.9999972534181,14|0,0:0|0:0,0:0:0:0:
239,379,90928,1,0,1:0:0:0:
215,105,91101,5,10,0:0:0:0:
166,238,91274,1,0,0:0:0:0:
359,46,91448,5,0,1:0:0:0:
433,249,91621,1,8,0:0:0:0:
491,170,91795,1,0,1:0:0:0:
233,98,91968,1,8,0:0:0:0:
433,249,92142,6,0,B|399:205|320:175|281:290|367:287,1,172.500003290176,4|0,1:2|1:0,0:0:0:0:
506,209,92662,2,0,L|508:98,1,89.9999972534181,10|2,0:0|0:0,0:0:0:0:
510,44,92922,1,8,0:0:0:0:
510,44,93009,1,2,1:2:0:0:
342,91,93182,2,0,P|298:72|252:70,1,89.9999972534181,0|2,1:0|0:0,0:0:0:0:
119,234,93529,2,0,L|209:225,1,89.9999972534181,10|0,0:0|0:0,0:0:0:0:
40,170,93876,5,0,1:0:0:0:
71,36,94049,1,8,0:0:0:0:
113,215,94222,1,0,0:0:0:0:
190,101,94396,2,0,B|203:55|236:25|305:36|288:83,1,123.75000377655,2|0,1:2|0:0,0:0:0:0:
288,123,94743,2,0,P|291:156|278:187,3,44.999998626709,10|0|0|8,0:0|0:0|0:0|0:0,0:0:0:0:
367,17,95089,6,0,L|477:32,1,89.9999972534181,2|0,1:2|0:0,0:0:0:0:
282,52,95436,1,10,0:0:0:0:
167,3,95610,1,2,0:0:0:0:
167,3,95696,1,8,0:0:0:0:
167,3,95783,2,0,L|170:88,1,44.999998626709,0|0,1:0|0:0,0:0:0:0:
171,146,95957,1,2,1:2:0:0:
171,146,96303,6,0,B|130:103|68:68|35:155|70:184,1,146.249993305207,10|0,0:0|0:0,0:0:0:0:
67,217,96650,1,0,1:0:0:0:
239,362,96824,2,0,L|145:370,1,82.5000025177003,8|0,0:0|0:0,0:0:0:0:
81,373,97084,1,8,0:0:0:0:
81,373,97170,1,2,1:2:0:0:
157,292,97344,1,0,1:0:0:0:
314,384,97517,2,0,P|314:336|352:288,1,101.249996910095,10|8,0:0|0:0,0:0:0:0:
427,282,97864,6,0,P|405:237|336:211,1,123.75000377655,6|0,1:2|0:0,0:0:0:0:
266,230,98211,1,8,0:0:0:0:
338,79,98384,1,2,0:0:0:0:
349,86,98471,1,8,0:0:0:0:
361,94,98558,2,0,L|457:78,1,82.5000025177003,0|0,1:0|1:0,0:0:0:0:
237,41,98905,2,0,L|141:25,1,82.5000025177003,2|8,0:0|0:0,0:0:0:0:
270,252,99251,6,0,L|255:163,1,89.9999972534181,2|0,0:0|1:0,0:0:0:0:
131,211,99598,2,0,P|80:191|43:203,1,89.9999972534181,10|2,0:0|0:0,0:0:0:0:
0,257,99858,1,8,0:0:0:0:
0,257,99945,1,0,1:0:0:0:
167,135,100118,1,2,1:2:0:0:
186,381,100292,2,0,L|202:285,1,75,10|2,0:0|0:0,0:0:0:0:
264,242,100552,1,8,0:0:0:0:
271,250,100639,6,0,B|308:171|375:163|406:212|376:260,1,179.999994506836,4|8,1:2|0:0,0:0:0:0:
304,123,101159,1,0,0:0:0:0:
470,74,101332,1,8,0:0:0:0:
425,70,101418,1,8,0:0:0:0:
385,50,101505,1,0,3:0:0:0:
343,34,101592,1,0,1:0:0:0:
298,35,101679,2,0,P|271:42|251:50,1,44.999998626709,10|0,0:0|0:0,0:0:0:0:
112,106,101852,5,6,1:2:0:0:
112,106,102199,1,0,1:0:0:0:
161,235,102373,1,0,3:0:0:0:
129,371,102546,2,0,L|191:382,2,44.999998626709,8|8|8,0:0|0:0|0:0,0:0:0:0:
222,169,102893,5,0,1:0:0:0:
274,280,103066,1,0,3:0:0:0:
318,278,103152,1,0,1:0:0:0:
358,259,103239,1,0,3:0:0:0:
398,238,103326,1,0,3:0:0:0:
443,234,103413,6,0,B|479:183|498:74|408:15|274:79|370:141,1,300,6|0,1:2|0:0,0:0:0:0:
349,123,104454,2,0,B|247:112|260:218|133:189,2,225,2|2|2,0:0|0:0|1:2,0:0:0:0:
434,136,105668,1,8,0:0:0:0:
478,207,105841,1,8,0:0:0:0:
512,21,106014,1,10,0:0:0:0:
349,123,106188,6,0,B|421:196|379:302|379:302|398:205|338:187,1,300,4|0,1:2|0:0,0:0:0:0:
295,260,107055,1,2,3:2:0:0:
208,235,107228,1,4,3:0:0:0:
133,283,107402,1,8,3:0:0:0:
0,183,107575,2,0,P|47:173|114:159,1,112.5,2|0,0:0|0:0,0:0:0:0:
119,151,107922,5,8,0:0:0:0:
157,3,108095,2,0,L|237:18,1,75,2|0,1:2|3:0,0:0:0:0:
304,39,108355,1,8,0:0:0:0:
313,33,108441,1,8,0:0:0:0:
324,32,108528,1,0,1:0:0:0:
333,36,108615,2,0,B|305:91|305:91|312:125|350:144,1,101.249996910095,12|0,0:0|0:0,0:0:0:0:
454,226,108962,6,0,P|382:204|293:229,1,134.999995880127,4|0,1:2|0:0,0:0:0:0:
262,254,109309,1,10,0:0:0:0:
155,91,109569,1,8,0:0:0:0:
155,91,109656,2,0,L|159:214,1,89.9999972534181,0|2,1:0|1:2,0:0:0:0:
23,298,110003,1,2,0:0:0:0:
142,362,110176,6,0,L|19:366,1,89.9999972534181,10|0,0:0|0:0,0:0:0:0:
204,301,110523,2,0,P|246:268|291:263,1,89.9999972534181,2|8,1:2|0:0,0:0:0:0:
460,352,110870,2,0,B|444:355|439:367|439:367|410:268,1,123.75000377655,0|0,1:0|0:0,0:0:0:0:
387,206,111217,1,0,1:0:0:0:
512,80,111390,2,0,P|465:53|420:56,1,89.9999972534181,10|0,0:0|0:0,0:0:0:0:
356,108,111650,1,8,0:0:0:0:
362,102,111737,6,0,L|253:91,1,89.9999972534181,6|0,1:2|0:0,0:0:0:0:
423,277,112084,2,0,L|512:267,1,89.9999972534181,10|2,0:0|0:0,0:0:0:0:
255,242,112431,6,0,B|210:246|205:304|205:304|215:257|278:246,1,150,0|2,1:0|1:2,0:0:0:0:
255,242,112951,6,0,B|346:232|335:298|448:273,1,187.5,14|0,0:0|0:0,0:0:0:0:
276,323,113471,1,8,1:2:0:0:
336,213,113644,1,8,1:2:0:0:
145,277,113818,1,8,1:2:0:0:
345,203,113991,1,8,1:2:0:0:
61,187,114165,5,8,0:0:0:0:
69,141,114251,1,8,0:0:0:0:
55,97,114338,1,0,3:0:0:0:
61,51,114425,1,0,3:0:0:0:
68,9,114511,6,0,B|108:-8|217:10|209:126|132:171|123:112,1,223.125004255772,4|0,1:2|0:0,0:0:0:0:
208,78,115205,6,0,B|231:71|248:78|248:78|229:64|214:72,1,75,10|0,0:0|0:0,0:0:0:0:
317,2,115378,2,0,L|334:144,1,112.5,2|0,1:2|0:0,0:0:0:0:
434,169,115725,6,0,P|347:159|247:218,1,194.999991073609,6|0,0:2|1:0,0:0:0:0:
45,335,116246,2,0,L|154:343,1,97.4999955368044,8|0,0:0|0:0,0:0:0:0:
216,348,116506,1,8,0:0:0:0:
216,348,116592,1,0,1:0:0:0:
344,279,116766,1,0,1:0:0:0:
396,380,116939,1,10,0:0:0:0:
469,181,117113,6,0,L|461:290,2,97.4999955368044,2|0|0,0:0|1:0|0:0,0:0:0:0:
396,34,117633,2,0,P|320:19|266:36,1,97.4999955368044,10|0,0:0|0:0,0:0:0:0:
238,69,117893,1,8,0:0:0:0:
238,69,117980,1,2,1:2:0:0:
356,199,118153,1,2,1:2:0:0:
410,27,118326,1,8,0:0:0:0:
356,199,118500,6,0,B|261:196|265:287|171:268,1,194.999991073609,2|2,0:0|0:0,0:0:0:0:
18,172,119020,2,0,P|56:145|124:141,1,97.4999955368044,10|0,0:0|0:0,0:0:0:0:
171,280,119367,2,0,L|162:232,1,44.999998626709,2|0,1:2|0:0,0:0:0:0:
238,311,119540,2,0,L|250:263,1,44.999998626709,2|0,1:2|0:0,0:0:0:0:
272,195,119714,1,8,0:0:0:0:
371,363,119887,6,0,P|417:333|474:338,1,89.9999972534181,2|0,1:2|0:0,0:0:0:0:
249,267,120234,1,2,1:2:0:0:
469,252,120407,2,0,L|480:148,1,89.9999972534181,10|0,0:0|0:0,0:0:0:0:
489,86,120668,1,8,0:0:0:0:
489,86,120754,1,0,1:0:0:0:
372,36,120928,1,0,1:0:0:0:
325,176,121101,2,0,P|269:184|222:151,1,82.5000025177003,10|0,0:0|0:0,0:0:0:0:
95,14,121448,6,0,B|30:52|9:123|87:167|115:109,1,179.999994506836,6|10,1:2|0:0,0:0:0:0:
203,47,121968,1,2,0:0:0:0:
216,41,122055,1,8,0:0:0:0:
228,35,122142,2,0,L|321:45,1,89.9999972534181,0|0,1:0|1:0,0:0:0:0:
98,128,122488,2,0,L|5:138,1,89.9999972534181,10|2,0:0|0:0,0:0:0:0:
200,237,122835,6,0,P|249:263|292:244,1,89.9999972534181,0|2,1:0|0:0,0:0:0:0:
255,155,123182,1,10,0:0:0:0:
158,339,123355,2,0,P|109:365|66:346,1,89.9999972534181,0|0,1:0|0:0,0:0:0:0:
103,257,123702,1,0,1:0:0:0:
307,347,123876,1,8,0:0:0:0:
307,347,124222,6,0,L|411:357,1,89.9999972534181,2|0,1:2|0:0,0:0:0:0:
205,253,124569,2,0,L|101:263,1,89.9999972534181,10|2,0:0|0:0,0:0:0:0:
42,269,124829,1,8,0:0:0:0:
42,269,124916,1,0,1:0:0:0:
109,110,125089,2,0,P|91:72|47:48,1,89.9999972534181,2|8,1:2|0:0,0:0:0:0:
288,181,125436,6,0,L|291:80,1,89.9999972534181,2|12,1:2|0:0,0:0:0:0:
216,253,125783,1,2,1:2:0:0:
433,363,125957,1,14,0:0:0:0:
331,368,126130,1,0,1:0:0:0:
482,261,126303,6,0,B|489:238|482:221|482:221|496:239|488:255,1,75,14|0,0:0|0:0,0:0:0:0:
437,157,126477,2,0,L|311:148,1,112.5,10|0,1:2|0:0,0:0:0:0:
289,67,126824,6,0,P|231:66|140:171,1,194.999991073609,6|0,0:2|1:0,0:0:0:0:
89,384,127344,2,0,L|73:278,1,97.4999955368044,8|0,0:0|0:0,0:0:0:0:
60,214,127604,1,8,0:0:0:0:
60,214,127691,1,0,1:0:0:0:
106,60,127864,1,0,1:0:0:0:
171,251,128037,2,0,P|217:220|260:223,1,97.4999955368044,10|2,0:0|0:0,0:0:0:0:
376,152,128384,6,0,L|385:54,1,97.4999955368044,0|0,1:0|0:0,0:0:0:0:
261,332,128731,2,0,L|251:230,1,97.4999955368044,10|0,0:0|0:0,0:0:0:0:
241,162,128991,1,8,0:0:0:0:
241,162,129078,2,0,P|260:137|261:93,1,48.7499977684022,2|0,1:2|0:0,0:0:0:0:
169,146,129251,2,0,P|175:115|157:75,1,48.7499977684022,2|0,1:2|0:0,0:0:0:0:
130,36,129425,1,8,0:0:0:0:
33,195,129598,1,2,0:0:0:0:
176,295,129772,6,0,P|113:302|77:336,1,97.4999955368044,0|2,1:0|0:0,0:0:0:0:
11,375,130032,1,8,0:0:0:0:
11,375,130118,2,0,L|10:271,1,97.4999955368044,10|0,0:0|0:0,0:0:0:0:
154,187,130465,1,2,1:2:0:0:
109,105,130639,1,2,1:2:0:0:
295,0,130812,1,8,0:0:0:0:
303,215,130985,6,0,P|421:201|489:137,1,194.999991073609,2|2,1:2|1:2,0:0:0:0:
394,24,131506,2,0,P|378:79|397:135,1,97.4999955368044,10|0,0:0|0:0,0:0:0:0:
474,270,131766,1,8,0:0:0:0:
465,283,131852,2,0,L|355:278,1,97.4999955368044,0|0,1:0|1:0,0:0:0:0:
255,376,132199,5,10,0:0:0:0:
222,354,132285,1,0,3:0:0:0:
208,319,132372,1,2,3:2:0:0:
215,281,132459,1,0,3:0:0:0:
240,251,132546,6,0,P|213:207|155:196,1,89.9999972534181,4|0,1:2|0:0,0:0:0:0:
65,34,132893,1,10,0:0:0:0:
28,121,133066,2,0,L|127:112,2,89.9999972534181,2|0|0,0:0|1:0|1:0,0:0:0:0:
253,183,133587,1,10,0:0:0:0:
316,54,133760,2,0,L|325:153,1,89.9999972534181,2|0,0:0|1:0,0:0:0:0:
438,339,134107,5,2,0:0:0:0:
507,231,134280,1,10,0:0:0:0:
504,218,134367,1,8,0:0:0:0:
500,206,134454,1,0,3:0:0:0:
496,194,134540,1,8,0:0:0:0:
491,181,134627,2,0,P|446:163|389:171,1,89.9999972534181,0|0,1:0|1:0,0:0:0:0:
288,346,134974,5,10,0:0:0:0:
224,202,135147,1,2,0:0:0:0:
191,283,135321,2,0,P|135:301|83:290,1,97.4999955368044,4|2,1:2|0:0,0:0:0:0:
296,355,135668,1,2,1:2:0:0:
349,143,135841,2,0,P|358:229|370:312,1,165.000005035401,12|0,0:0|1:0,0:0:0:0:
266,156,136361,2,0,P|212:130|178:132,1,82.5000025177003,8|0,0:0|0:0,0:0:0:0:
100,188,136621,1,8,0:0:0:0:
90,178,136708,6,0,L|98:69,1,97.4999955368044,4|0,1:2|1:0,0:0:0:0:
0,268,136968,1,0,0:0:0:0:
10,257,137055,6,0,L|2:148,1,97.4999955368044,10|0,0:0|1:0,0:0:0:0:
109,363,137402,2,0,P|160:331|207:340,1,97.4999955368044,10|0,0:0|1:0,0:0:0:0:
351,200,137748,2,0,P|345:268|343:311,1,97.4999955368044,2|0,1:2|3:0,0:0:0:0:
280,106,138095,5,6,1:2:0:0:
365,73,138269,1,8,0:0:0:0:
448,109,138442,1,8,0:0:0:0:
272,119,138615,1,2,1:2:0:0:
272,119,139136,5,10,0:0:0:0:
305,204,139310,1,8,0:0:0:0:
269,287,139483,1,8,0:0:0:0:
259,111,139656,1,2,1:2:0:0:
259,111,140176,5,10,0:0:0:0:
247,107,140263,1,8,0:0:0:0:
235,103,140350,1,0,1:0:0:0:
129,15,140523,1,10,0:0:0:0:
116,99,140696,1,0,1:0:0:0:
196,250,140870,5,10,0:0:0:0:
211,341,141043,1,8,0:0:0:0:
120,356,141217,1,8,0:0:0:0:
105,265,141390,1,2,1:2:0:0:
421,179,141910,5,10,0:0:0:0:
406,270,142083,1,4,1:3:0:0:
497,285,142257,1,0,3:0:0:0:
512,194,142430,1,2,1:2:0:0:
512,194,142951,5,10,0:0:0:0:
508,183,143037,1,8,0:0:0:0:
504,172,143124,1,0,1:0:0:0:
512,2,143298,1,10,0:0:0:0:
490,21,143384,1,8,0:0:0:0:
461,23,143471,1,0,1:0:0:0:
276,88,143644,5,6,1:2:0:0:
366,103,143818,1,8,0:0:0:0:
113,160,143991,1,8,0:0:0:0:
203,145,144165,1,2,1:2:0:0:
203,145,144685,5,10,0:0:0:0:
113,160,144859,1,8,0:0:0:0:
366,103,145032,1,8,0:0:0:0:
276,88,145206,1,2,1:2:0:0:
276,88,145725,5,10,0:0:0:0:
271,80,145812,1,8,0:0:0:0:
266,72,145899,1,0,1:0:0:0:
172,220,146072,1,10,0:0:0:0:
200,213,146159,1,8,0:0:0:0:
227,222,146246,1,0,1:0:0:0:
372,297,146419,6,0,L|379:201,1,82.5000025177003,6|0,1:2|0:0,0:0:0:0:
292,348,146766,1,0,1:0:0:0:
459,254,146939,2,0,L|452:158,1,82.5000025177003,10|0,0:0|0:0,0:0:0:0:
292,348,147286,1,0,1:0:0:0:
382,137,147459,6,0,P|330:117|276:134,1,82.5000025177003,2|0,1:2|0:0,0:0:0:0:
292,348,147806,1,0,1:0:0:0:
248,69,147980,2,0,P|192:72|150:111,1,82.5000025177003,10|0,0:0|0:0,0:0:0:0:
292,348,148326,1,0,1:0:0:0:
320,253,148500,5,10,0:0:0:0:
320,253,148847,5,2,1:2:0:0:
357,236,148933,1,8,0:0:0:0:
398,237,149020,1,8,0:0:0:0:
434,256,149107,1,8,0:0:0:0:
439,277,149194,6,0,L|448:145,1,89.9999972534181,6|8,1:2|0:0,0:0:0:0:
453,112,149454,1,8,0:0:0:0:
453,112,149540,2,0,P|400:87|352:87,1,89.9999972534181,8|2,0:0|1:2,0:0:0:0:
220,199,149887,6,0,L|272:187,1,44.999998626709,0|8,3:0|0:0,0:0:0:0:
180,137,150061,2,0,L|222:104,1,44.999998626709,8|8,0:0|0:0,0:0:0:0:
123,91,150234,2,0,L|147:43,1,44.999998626709,6|0,1:2|0:0,0:0:0:0:
105,179,150407,5,0,1:0:0:0:
132,213,150493,1,8,0:0:0:0:
128,256,150581,2,0,P|180:254|227:287,1,89.9999972534181,8|2,0:0|1:2,0:0:0:0:
333,372,150928,1,8,0:0:0:0:
333,372,151014,1,8,0:0:0:0:
333,372,151101,1,8,0:0:0:0:
333,372,151188,1,8,0:0:0:0:
333,372,151274,6,0,L|230:387,1,89.9999972534181,2|8,1:2|0:0,0:0:0:0:
170,357,151535,1,8,0:0:0:0:
170,357,151621,1,10,0:0:0:0:
159,348,151708,1,8,0:0:0:0:
132,343,151795,1,0,3:0:0:0:
93,319,151881,1,0,3:0:0:0:
36,302,151968,6,0,L|28:191,1,89.9999972534181,6|0,1:2|1:0,0:0:0:0:
23,137,152228,1,0,3:0:0:0:
23,137,152315,2,0,P|53:103|129:98,1,89.9999972534181,8|2,0:0|1:2,0:0:0:0:
155,205,152662,5,8,0:0:0:0:
155,205,152748,1,8,0:0:0:0:
155,205,152835,2,0,L|213:197,1,44.999998626709,8|8,0:0|0:0,0:0:0:0:
332,153,153009,2,0,L|274:145,1,44.999998626709,6|0,1:2|0:0,0:0:0:0:
145,217,153182,2,0,L|203:209,1,44.999998626709,8|8,0:0|0:0,0:0:0:0:
342,144,153355,6,0,L|355:91,1,44.999998626709,8|8,0:0|0:0,0:0:0:0:
373,28,153529,1,2,1:2:0:0:
373,28,153702,5,8,0:0:0:0:
390,25,153789,1,0,3:0:0:0:
406,32,153876,1,0,1:0:0:0:
416,46,153962,1,0,1:0:0:0:
415,64,154049,6,0,L|438:128,1,44.999998626709,2|8,1:2|0:0,0:0:0:0:
512,298,154396,2,0,L|468:309,1,44.999998626709,10|8,0:0|0:0,0:0:0:0:
399,341,154569,1,0,1:0:0:0:
390,338,154656,1,0,1:0:0:0:
368,340,154743,5,6,1:2:0:0:
368,318,154830,1,0,0:0:0:0:
363,297,154916,1,8,0:0:0:0:
354,277,155003,1,8,0:0:0:0:
340,258,155089,2,0,L|254:274,1,44.999998626709,8|8,0:0|0:0,0:0:0:0:
182,291,155263,1,2,1:2:0:0:
182,291,155610,1,8,0:0:0:0:
208,152,155783,5,6,1:2:0:0:
168,130,155869,1,8,0:0:0:0:
124,128,155956,1,8,0:0:0:0:
83,145,156043,1,8,0:0:0:0:
54,179,156130,2,0,L|71:228,1,44.999998626709,8|8,0:0|0:0,0:0:0:0:
0,97,156303,2,0,L|17:48,1,44.999998626709,2|0,1:2|0:0,0:0:0:0:
14,54,156650,5,8,0:0:0:0:
115,27,156824,6,0,L|175:42,2,44.999998626709,2|0|8,1:2|0:0|0:0,0:0:0:0:
342,95,157170,2,0,L|282:110,2,44.999998626709,10|8|8,0:0|0:0|0:0,0:0:0:0:
219,180,157517,6,0,P|157:144|89:162,1,134.999995880127,6|0,1:2|0:0,0:0:0:0:
38,198,157864,1,8,0:0:0:0:
277,230,158037,6,0,P|332:184|402:191,1,134.999995880127,6|0,1:2|0:0,0:0:0:0:
459,218,158384,1,8,0:0:0:0:
213,270,158558,6,0,P|142:254|83:293,1,134.999995880127,6|0,1:2|0:0,0:0:0:0:
46,343,158905,1,8,0:0:0:0:
283,308,159078,6,0,P|306:268|274:170,1,134.999995880127,6|0,1:2|0:0,0:0:0:0:
236,130,159425,1,8,0:0:0:0:
25,282,159598,5,2,1:2:0:0:
25,282,159772,1,2,1:2:0:0:
25,282,160292,6,0,P|77:258|99:259,1,55.0000016784668,6|2,1:2|0:0,0:0:0:0:
153,266,160523,1,2,0:0:0:0:
39,215,160639,6,0,P|96:215|115:225,1,55.0000016784668,10|2,0:0|0:0,0:0:0:0:
161,254,160870,1,10,0:0:0:0:
75,156,160985,6,0,P|126:180|140:197,1,55.0000016784668,2|2,1:2|0:0,0:0:0:0:
169,242,161216,1,2,1:2:0:0:
129,113,161332,6,0,P|165:157|170:178,1,55.0000016784668,10|2,0:0|0:0,0:0:0:0:
177,230,161563,1,2,0:0:0:0:
251,286,161679,6,0,L|326:277,1,55.0000016784668,2|2,1:2|0:0,0:0:0:0:
383,270,161910,1,2,0:0:0:0:
289,211,162026,6,0,L|364:202,1,55.0000016784668,10|2,0:0|0:0,0:0:0:0:
421,195,162257,1,10,0:0:0:0:
327,136,162373,6,0,L|402:127,1,55.0000016784668,2|2,1:2|0:0,0:0:0:0:
459,120,162604,1,2,1:2:0:0:
365,61,162720,6,0,L|440:52,1,55.0000016784668,10|2,0:0|0:0,0:0:0:0:
497,45,162951,1,2,0:0:0:0:
509,198,163066,6,0,P|514:226|508:268,1,55.0000016784668,2|2,1:2|0:0,0:0:0:0:
445,143,163298,1,2,0:0:0:0:
478,225,163413,6,0,P|475:253|458:292,1,55.0000016784668,10|2,0:0|0:2,0:0:0:0:
430,155,163645,1,10,0:0:0:0:
445,250,163760,6,0,P|432:281|401:322,1,82.5000025177003,2|0,1:2|1:0,0:0:0:0:
325,375,164107,1,10,0:0:0:0:
262,310,164454,2,0,B|247:241|323:235|297:136,1,165.000005035401,2|8,1:2|0:0,0:0:0:0:
282,67,164974,1,2,0:0:0:0:
266,61,165061,1,8,0:0:0:0:
251,54,165147,1,0,1:0:0:0:
164,140,165321,1,0,1:0:0:0:
24,6,165494,2,0,L|35:129,1,123.75000377655,14|0,0:0|0:0,0:0:0:0:
44,206,165841,6,0,P|27:239|30:280,2,55.0000016784668,6|2|2,1:2|0:0|0:0,0:0:0:0:
156,157,166188,6,0,P|185:134|199:95,2,55.0000016784668,10|2|10,0:0|0:0|0:0,0:0:0:0:
58,99,166535,6,0,P|25:82|-16:85,2,55.0000016784668,2|2|2,1:2|0:2|1:2,0:0:0:0:
130,252,166881,1,10,0:0:0:0:
192,286,166997,1,2,0:0:0:0:
262,272,167113,1,2,0:0:0:0:
300,211,167228,6,0,P|305:142|343:107,1,110.000003356934,2|2,1:2|0:0,0:0:0:0:
391,51,167575,1,10,0:0:0:0:
406,120,167691,1,2,0:0:0:0:
376,184,167806,1,10,0:0:0:0:
392,253,167922,5,2,1:2:0:0:
494,160,168095,1,0,1:0:0:0:
512,351,168269,2,0,P|464:333|422:348,1,82.5000025177003,14|0,0:0|0:0,0:0:0:0:
260,243,168615,6,0,P|258:177|252:111,1,129.375002467632,6|0,1:2|0:0,0:0:0:0:
245,40,168962,1,8,0:0:0:0:
244,254,169136,2,0,P|212:200|143:170,1,129.375002467632,6|0,1:2|0:0,0:0:0:0:
79,177,169483,1,0,1:0:0:0:
260,243,169656,6,0,P|300:215|375:213,1,86.2500016450882,4|0,1:2|0:0,0:0:0:0:
499,256,170003,1,8,0:0:0:0:
499,256,170089,1,8,1:3:0:0:
499,256,170176,5,4,1:3:0:0:
437,161,170350,1,2,1:2:0:0:
480,67,170523,1,2,1:2:0:0:
336,207,170696,5,2,1:2:0:0:
427,346,170870,1,10,0:0:0:0:
414,349,170957,1,8,0:0:0:0:
401,350,171043,2,0,P|330:337|302:347,1,86.2500016450882,8|2,0:0|3:2,0:0:0:0:
226,379,171303,1,0,3:0:0:0:
236,374,171390,6,0,L|230:275,1,86.2500016450882,6|0,1:2|0:0,0:0:0:0:
153,82,171737,2,0,L|147:181,1,86.2500016450882,10|2,0:0|0:0,0:0:0:0:
141,243,171997,1,8,0:0:0:0:
141,243,172084,1,0,1:0:0:0:
164,73,172257,1,2,1:2:0:0:
230,287,172431,1,8,0:0:0:0:
312,144,172604,1,2,0:0:0:0:
453,158,172777,6,0,P|390:157|316:153,1,129.375002467632,0|0,1:0|0:0,0:0:0:0:
248,146,173124,2,0,P|239:198|258:242,1,86.2500016450882,8|0,0:0|0:0,0:0:0:0:
298,287,173384,1,8,0:0:0:0:
298,287,173471,2,0,L|391:301,1,86.2500016450882,0|0,1:0|1:0,0:0:0:0:
198,357,173818,1,10,0:0:0:0:
109,381,173991,1,2,0:0:0:0:
67,182,174165,5,2,1:2:0:0:
14,295,174338,1,2,0:0:0:0:
14,295,174685,1,10,0:0:0:0:
185,126,174858,1,2,0:0:0:0:
185,126,175205,1,14,0:0:0:0:
211,366,175378,1,2,1:2:0:0:
211,366,175725,1,10,0:0:0:0:
351,236,175899,2,0,P|336:188|301:152,1,86.2500016450882,10|0,0:0|1:0,0:0:0:0:
371,337,176246,6,0,B|380:343|384:353|384:353|472:355,1,86.2500016450882,10|0,0:0|1:0,0:0:0:0:
240,287,176592,1,10,0:0:0:0:
240,287,176679,1,8,0:0:0:0:
240,287,176766,1,8,1:2:0:0:
352,237,176939,6,0,L|340:142,1,86.2500016450882,6|0,1:2|0:0,0:0:0:0:
322,37,177286,1,0,1:0:0:0:
489,196,177459,1,10,0:0:0:0:
489,196,177806,1,0,1:0:0:0:
381,332,177980,6,0,P|328:305|285:306,1,86.2500016450882,14|0,0:0|0:0,0:0:0:0:
148,365,178326,1,0,1:0:0:0:
202,168,178500,1,10,0:0:0:0:
202,168,178847,1,0,1:0:0:0:
96,83,179020,6,0,P|149:56|192:57,1,86.2500016450882,2|8,3:2|0:0,0:0:0:0:
325,232,179367,2,0,P|268:250|226:242,1,86.2500016450882,10|0,0:0|3:0,0:0:0:0:
418,88,179714,2,0,B|458:41|527:79|492:195,1,172.500003290176,6|2,1:2|0:0,0:0:0:0:
482,244,180407,5,10,0:0:0:0:
236,336,180581,1,2,1:2:0:0:
236,336,180928,5,6,1:2:0:0:
482,244,191506,5,2,0:0:0:0:
236,336,191680,1,2,0:0:0:0:
236,336,192026,5,14,0:0:0:0:
174,262,192199,2,0,P|224:223|317:210,2,150,0|0|0,1:0|1:0|1:0,0:0:0:0:
100,330,193240,1,2,1:2:0:0:
33,189,193413,2,0,L|16:281,1,75,2|0,0:0|1:0,0:0:0:0:
0,112,193760,1,0,0:0:0:0:
81,50,193933,2,0,P|116:30|160:32,1,75,2|0,1:2|0:0,0:0:0:0:
192,166,194280,2,0,P|157:186|113:184,1,75,2|2,1:2|0:0,0:0:0:0:
254,260,194627,1,0,1:0:0:0:
302,113,194800,1,2,0:0:0:0:
455,174,194974,6,0,L|350:182,1,75,0|2,1:0|0:0,0:0:0:0:
381,25,195321,2,0,L|455:30,1,75,2|0,1:2|0:0,0:0:0:0:
302,113,195668,1,2,1:2:0:0:
239,14,195841,2,0,P|205:42|191:76,1,75,2|0,0:0|1:0,0:0:0:0:
109,182,196188,2,0,L|103:107,1,75,2|0,0:0|1:0,0:0:0:0:
95,0,196535,1,2,0:0:0:0:
195,206,196708,2,0,P|234:187|271:188,1,75,2|0,1:2|0:0,0:0:0:0:
396,126,197055,2,0,P|404:199|413:295,1,150,0|2,1:0|1:2,0:0:0:0:
411,275,197748,6,0,P|357:260|308:278,1,75,0|0,1:0|0:0,0:0:0:0:
253,320,198095,2,0,L|176:329,1,75,2|2,1:2|0:0,0:0:0:0:
103,338,198355,1,2,0:0:0:0:
103,338,198442,1,0,1:0:0:0:
54,117,198789,5,2,1:2:0:0:
34,227,198962,1,2,0:0:0:0:
166,143,199136,2,0,P|200:118|235:113,1,75,0|2,1:0|0:0,0:0:0:0:
345,224,199483,2,0,L|255:209,1,75,2|0,1:2|0:0,0:0:0:0:
427,111,199829,6,0,B|410:188|479:188|451:288,2,150,0|2|0,1:0|1:2|1:0,0:0:0:0:
458,27,200870,2,0,L|364:23,1,82.5000025177003,2|8,1:2|0:0,0:0:0:0:
240,102,201217,1,0,1:0:0:0:
259,180,201390,1,0,3:0:0:0:
278,258,201563,1,0,1:0:0:0:
368,37,201737,1,0,3:0:0:0:
121,96,201910,6,0,B|86:70|33:63|-10:139|51:212,1,210,12|0,0:0|0:0,0:0:0:0:
100,283,202604,6,0,B|123:290|140:283|140:283|121:297|106:289,1,75,10|0,0:0|0:0,0:0:0:0:
218,284,202777,2,0,L|224:149,1,112.5,2|0,1:2|0:0,0:0:0:0:
253,84,203124,6,0,P|287:46|447:52,1,194.999991073609,6|0,0:2|1:0,0:0:0:0:
462,269,203644,2,0,L|468:170,1,97.4999955368044,8|0,0:0|0:0,0:0:0:0:
473,97,203905,1,8,0:0:0:0:
473,97,203991,1,0,1:0:0:0:
350,111,204165,1,0,1:0:0:0:
453,280,204338,2,0,P|400:261|349:270,1,97.4999955368044,10|2,0:0|0:0,0:0:0:0:
162,125,204685,2,0,P|206:143|254:139,1,97.4999955368044,0|0,1:0|0:0,0:0:0:0:
76,250,205032,6,0,P|70:195|36:148,1,97.4999955368044,10|0,0:0|0:0,0:0:0:0:
0,100,205292,1,8,0:0:0:0:
0,100,205378,1,2,1:2:0:0:
168,12,205552,1,10,0:0:0:0:
254,139,205725,1,0,3:0:0:0:
301,59,205899,1,10,0:0:0:0:
301,59,205985,1,8,0:0:0:0:
301,59,206072,5,0,1:0:0:0:
333,266,206246,1,2,0:0:0:0:
406,20,206419,2,0,B|449:33|458:69|458:69|459:161,1,146.249993305207,10|8,0:0|0:0,0:0:0:0:
445,219,206766,1,2,1:2:0:0:
254,139,206939,1,2,1:2:0:0:
406,20,207113,1,8,0:0:0:0:
358,278,207286,6,0,B|262:257|276:349|176:327,1,194.999991073609,2|2,1:2|1:2,0:0:0:0:
0,231,207806,2,0,P|39:195|117:194,1,97.4999955368044,10|0,0:0|0:0,0:0:0:0:
154,215,208066,1,8,0:0:0:0:
156,200,208153,1,0,1:0:0:0:
158,185,208240,1,8,0:0:0:0:
160,170,208326,1,0,1:0:0:0:
260,30,208500,5,2,3:2:0:0:
307,23,208586,1,8,0:0:0:0:
353,40,208673,1,8,0:0:0:0:
384,76,208760,1,8,0:0:0:0:
380,121,208847,6,0,P|348:192|284:124,1,179.999994506836,6|10,1:2|0:0,0:0:0:0:
262,296,209367,2,0,L|363:312,1,89.9999972534181,2|0,0:0|1:0,0:0:0:0:
176,353,209714,1,0,1:0:0:0:
179,219,209887,2,0,P|151:163|122:146,1,89.9999972534181,10|2,0:0|0:0,0:0:0:0:
57,123,210147,1,8,0:0:0:0:
57,123,210234,1,0,1:0:0:0:
267,82,210407,1,2,0:0:0:0:
175,50,210581,1,10,0:0:0:0:
311,217,210754,2,0,P|348:184|428:189,1,89.9999972534181,0|0,1:0|0:0,0:0:0:0:
512,275,211101,5,0,1:0:0:0:
307,338,211274,1,8,0:0:0:0:
385,384,211448,1,2,0:0:0:0:
304,229,211621,6,0,P|250:223|189:217,1,89.9999972534181,2|0,1:2|0:0,0:0:0:0:
0,322,211968,2,0,P|54:316|115:310,1,89.9999972534181,10|2,0:0|0:0,0:0:0:0:
161,304,212228,1,8,0:0:0:0:
161,304,212315,1,0,1:0:0:0:
110,151,212488,2,0,P|84:101|39:78,1,89.9999972534181,2|8,1:2|0:0,0:0:0:0:
209,11,212835,1,2,1:2:0:0:
222,236,213009,6,0,P|255:194|308:176,1,89.9999972534181,8|2,0:0|1:2,0:0:0:0:
423,305,213355,1,2,3:2:0:0:
479,122,213529,1,0,1:0:0:0:
402,210,213702,6,0,B|379:203|362:210|362:210|381:196|396:204,1,75,10|8,0:0|0:0,0:0:0:0:
385,56,213876,2,0,P|358:23|286:64,1,112.5,2|0,1:2|0:0,0:0:0:0:
279,161,214222,6,0,B|257:186|225:185|225:185|163:154|171:69|171:69,1,194.999991073609,6|0,0:2|1:0,0:0:0:0:
130,246,214743,1,8,0:0:0:0:
93,146,214916,1,0,0:0:0:0:
291,46,215089,1,8,0:0:0:0:
279,161,215263,1,0,1:0:0:0:
478,119,215436,2,0,P|450:142|440:166,1,48.7499977684022,10|0,0:0|0:0,0:0:0:0:
436,228,215610,6,0,B|469:248|470:298|397:327|352:305|307:260,1,194.999991073609,2|0,1:2|0:0,0:0:0:0:
170,384,216130,2,0,B|188:311|118:306|147:209,1,146.249993305207,10|0,0:0|0:0,0:0:0:0:
157,167,216477,1,10,0:0:0:0:
60,101,216650,1,2,1:2:0:0:
281,29,216824,1,8,0:0:0:0:
308,147,216997,1,2,1:2:0:0:
485,224,217170,6,0,B|476:230|473:237|473:237|374:241,1,97.4999955368044,8|2,0:0|0:0,0:0:0:0:
208,194,217517,1,10,0:0:0:0:
244,281,217691,1,0,0:0:0:0:
38,116,217864,1,10,0:0:0:0:
1,211,218037,2,0,B|105:192,1,97.4999955368044,2|8,1:2|0:0,0:0:0:0:
257,0,218384,2,0,P|244:29|239:56,1,48.7499977684022,2|0,1:2|0:0,0:0:0:0:
309,91,218558,6,0,B|362:162|277:211|335:285,1,194.999991073609,8|10,0:0|0:0,0:0:0:0:
445,203,219078,1,8,0:0:0:0:
471,192,219165,1,8,0:0:0:0:
493,182,219251,2,0,B|507:214|496:246|496:246|492:224|479:214,1,97.4999955368044,8|0,0:0|1:0,0:0:0:0:
216,67,219598,2,0,P|185:53|148:58,1,48.7499977684022,8|8,0:0|0:0,0:0:0:0:
89,156,219772,1,8,0:0:0:0:
89,156,219858,1,8,0:0:0:0:
89,156,219945,6,0,B|41:180|17:153|-1:121|2:62|46:19|73:26,1,179.999994506836,4|8,1:2|0:0,0:0:0:0:
216,67,220465,2,0,L|234:179,1,89.9999972534181,2|0,0:0|1:0,0:0:0:0:
240,257,220812,1,0,1:0:0:0:
106,314,220985,1,10,0:0:0:0:
214,384,221159,1,2,0:0:0:0:
44,380,221332,6,0,P|71:345|111:326,1,89.9999972534181,0|2,1:0|0:0,0:0:0:0:
333,374,221679,1,10,0:0:0:0:
319,183,221852,1,0,0:0:0:0:
319,183,221939,1,8,0:0:0:0:
319,183,222026,1,0,1:0:0:0:
240,257,222199,1,0,1:0:0:0:
470,291,222373,2,0,P|407:280|367:327,1,89.9999972534181,10|2,0:0|0:0,0:0:0:0:
496,375,222720,6,0,B|462:294|543:272|506:181,1,179.999994506836,4|2,1:2|1:2,0:0:0:0:
421,48,223240,2,0,P|360:16|393:75,1,179.999994506836,12|0,0:0|1:0,0:0:0:0:
382,231,223760,5,10,0:0:0:0:
337,230,223846,1,2,0:0:0:0:
298,252,223933,1,2,0:0:0:0:
257,270,224020,1,8,0:0:0:0:
213,266,224107,6,0,L|104:284,1,89.9999972534181,4|8,1:2|0:0,0:0:0:0:
14,212,224367,1,0,0:0:0:0:
24,200,224454,6,0,L|133:182,1,89.9999972534181,2|8,1:2|1:2,0:0:0:0:
230,68,224714,1,0,0:0:0:0:
220,80,224801,6,0,L|111:98,1,89.9999972534181,2|8,1:2|0:0,0:0:0:0:
272,185,225061,5,8,0:0:0:0:
276,141,225147,1,2,0:3:0:0:
312,116,225234,1,8,0:0:0:0:
354,127,225321,1,8,0:0:0:0:
374,166,225407,1,8,0:0:0:0:
358,206,225494,6,0,P|328:259|401:282,1,150,6|0,0:2|1:0,0:0:0:0:
271,334,226014,1,2,3:2:0:0:
195,311,226188,1,0,1:0:0:0:
135,364,226361,1,0,0:0:0:0:
62,196,226535,2,0,L|51:286,1,75,2|0,1:2|0:0,0:0:0:0:
9,110,226881,1,0,1:0:0:0:
154,50,227055,1,2,3:2:0:0:
216,125,227228,6,0,P|264:101|285:103,1,75,0|0,1:0|0:0,0:0:0:0:
426,7,227575,1,2,1:2:0:0:
446,85,227748,1,0,0:0:0:0:
466,163,227922,1,2,1:2:0:0:
346,48,228095,1,8,0:0:0:0:
318,222,228269,6,0,P|268:252|232:252,1,75,2|0,1:2|0:0,0:0:0:0:
385,278,228615,1,0,1:0:0:0:
455,156,228789,1,2,3:2:0:0:
494,334,228962,2,0,L|505:243,1,75,0|0,1:0|0:0,0:0:0:0:
304,301,229309,2,0,L|378:291,1,75,2|0,1:2|3:0,0:0:0:0:
188,183,229656,1,0,1:0:0:0:
160,277,229830,1,10,0:0:0:0:
309,212,230003,5,0,1:0:0:0:
281,118,230177,1,0,3:0:0:0:
349,36,230350,2,0,L|274:26,1,75,2|0,1:2|3:0,0:0:0:0:
69,140,230696,1,2,1:2:0:0:
80,0,230870,1,0,1:0:0:0:
75,14,230957,1,0,1:0:0:0:
69,27,231043,5,6,1:2:0:0:
1,91,231217,2,0,P|55:130|55:161,1,75,0|0,0:0|1:0,0:0:0:0:
17,265,231563,2,0,L|-3:178,1,75,2|0,3:2|1:0,0:0:0:0:
107,316,231910,1,0,0:0:0:0:
177,287,232084,1,2,1:2:0:0:
241,328,232257,1,8,0:0:0:0:
290,183,232431,5,0,1:0:0:0:
331,252,232604,2,0,P|381:245|407:257,1,75,2|0,3:2|1:0,0:0:0:0:
486,361,232951,1,0,0:0:0:0:
494,194,233124,2,0,L|515:283,1,75,2|8,1:2|0:0,0:0:0:0:
512,92,233471,1,2,1:2:0:0:
372,55,233644,1,8,0:0:0:0:
257,132,233818,6,0,B|204:153|171:101|170:64|193:23|225:82,1,150,6|2,1:2|1:2,0:0:0:0:
57,167,234338,2,0,B|104:174|141:134|141:134|116:190|141:223,1,187.5,6|8,1:2|0:0,0:0:0:0:
186,285,234858,5,6,1:2:0:0:
256,192,234945,12,0,239367,0:0:0:0:
