osu file format v14

[General]
AudioFilename: audio.mp3
AudioLeadIn: 0
PreviewTime: 151961
Countdown: 0
SampleSet: Soft
StackLeniency: 0.7
Mode: 0
LetterboxInBreaks: 0
WidescreenStoryboard: 1

[Editor]
Bookmarks: 36564,104197,139106,179430,227359,255268,285770,311197,363566,394992,422158,454269,495062
DistanceSpacing: 2.8
BeatDivisor: 8
GridSize: 4
TimelineZoom: 2.199999

[Metadata]
Title:Songs Compilation
TitleUnicode:Songs Compilation
Artist:yanaginagi
ArtistUnicode:やなぎなぎ
Creator:Kibbleru
Version:Tranquil
Source:
Tags:kocari winnie impurepug hokichi chaos 忘れない為に Wasurenai tame ni mnemonic 逆転スペクトル Gyakuten supekutoru 泡沫花火 Utakata hanabi 三つ葉の結びめ Mitsuba no musubi-me Esse Rainy Veil 砂糖玉の月 Satou-dama no tsuki ピードロ模様 Vidro moyou ユキトキ Yukitoki 春擬き Haru modoki Supercell Naruto Shippuuden やはり俺の青春ラブコメはまちがっている。 続 Oregairu My teenage romantic comedy SNAFU 凪のあすから Nagi no Asukara Nagiasu グリザイアの果実 Grisaia no kajitsu le fruit de la あの夏で待ってる Ano Natsu de Matteru ブラック・ブレット Black bullet Kuro no juugan
BeatmapID:1662269
BeatmapSetID:792487

[Difficulty]
HPDrainRate:5
CircleSize:4
OverallDifficulty:7
ApproachRate:8.5
SliderMultiplier:3
SliderTickRate:1

[Events]
//Background and Video events
0,0,"68874698_p0.png",0,0
//Break Periods
//Storyboard Layer 0 (Background)
//Storyboard Layer 1 (Fail)
//Storyboard Layer 2 (Pass)
//Storyboard Layer 3 (Foreground)
//Storyboard Sound Samples

[TimingPoints]
36564,705.882352941176,3,2,1,20,1,0
36564,-250,3,2,1,20,0,0
53505,-125,3,2,1,30,0,0
72564,-100,3,2,1,50,0,0
101858,-250,3,2,1,30,0,0
102589,535.714285714286,4,2,1,25,1,0
102589,-285.714285714286,4,2,1,25,0,0
103392,-222.222222222222,4,2,1,30,0,0
104197,545.454545454546,4,2,1,40,1,0
104197,-200,4,2,1,40,0,0
106378,-181.818181818182,4,2,1,40,0,0
139106,454.545454545455,4,2,1,30,1,0
139106,-200,4,2,1,30,0,0
139560,419.58041958042,4,2,1,30,1,0
139933,413.793103448276,4,2,1,30,1,0
139933,-200,4,2,1,30,0,0
140761,400,4,2,1,50,1,0
140761,-200,4,2,1,50,0,0
150761,-142.857142857143,4,2,1,50,0,0
152361,-166.666666666667,4,2,1,50,0,0
152961,-166.666666666667,4,2,1,35,0,0
153061,-166.666666666667,4,2,1,50,0,0
153761,-166.666666666667,4,2,1,35,0,0
153861,-166.666666666667,4,2,1,50,0,0
154561,-166.666666666667,4,2,1,35,0,0
154661,-166.666666666667,4,2,1,50,0,0
156161,-166.666666666667,4,2,1,35,0,0
156261,-166.666666666667,4,2,1,50,0,0
156961,-166.666666666667,4,2,1,35,0,0
157061,-166.666666666667,4,2,1,50,0,0
157761,-166.666666666667,4,2,1,35,0,0
157861,-166.666666666667,4,2,1,50,0,0
159361,-166.666666666667,4,2,1,35,0,0
159461,-166.666666666667,4,2,1,50,0,0
160161,-166.666666666667,4,2,1,35,0,0
160261,-166.666666666667,4,2,1,50,0,0
160961,-166.666666666667,4,2,1,35,0,0
161061,-166.666666666667,4,2,1,50,0,0
162561,-166.666666666667,4,2,1,35,0,0
162661,-166.666666666667,4,2,1,50,0,0
163961,-142.857142857143,4,2,1,50,0,0
164761,-166.666666666667,4,2,1,50,0,0
165761,-166.666666666667,4,2,1,35,0,0
165861,-166.666666666667,4,2,1,50,0,0
166561,-166.666666666667,4,2,1,35,0,0
166661,-166.666666666667,4,2,1,50,0,0
167361,-166.666666666667,4,2,1,35,0,0
167461,-166.666666666667,4,2,1,50,0,0
168961,-166.666666666667,4,2,1,35,0,0
169061,-166.666666666667,4,2,1,50,0,0
169761,-166.666666666667,4,2,1,35,0,0
169861,-166.666666666667,4,2,1,50,0,0
170561,-166.666666666667,4,2,1,35,0,0
170661,-166.666666666667,4,2,1,50,0,0
172161,-166.666666666667,4,2,1,35,0,0
172261,-166.666666666667,4,2,1,50,0,0
172961,-166.666666666667,4,2,1,35,0,0
173061,-166.666666666667,4,2,1,50,0,0
173761,-166.666666666667,4,2,1,35,0,0
173861,-166.666666666667,4,2,1,50,0,0
174561,-166.666666666667,4,2,1,35,0,0
174661,-166.666666666667,4,2,1,50,0,0
176361,-200,4,2,1,50,0,0
176661,-200,4,2,1,30,0,0
176761,-200,4,2,1,40,0,0
177161,-333.333333333334,4,2,1,30,0,0
178017,705.882352941176,4,2,1,50,1,0
178017,-333.333333333333,4,2,1,50,0,0
179430,714.285714285714,4,2,1,50,1,0
179430,-166.666666666667,4,2,1,50,0,0
181572,731.707317073171,4,2,1,50,1,0
181572,-166.666666666667,4,2,1,50,0,0
182303,714.285714285714,4,2,1,50,1,0
182303,-166.666666666667,4,2,1,50,0,0
188731,731.707317073171,4,2,1,50,1,0
188731,-166.666666666667,4,2,1,50,0,0
189828,714.285714285714,4,2,1,50,1,0
190890,714.285714285714,4,2,1,50,1,0
190890,-166.666666666667,4,2,1,50,0,0
201247,779.220779220779,4,2,1,50,1,0
201636,689.655172413793,4,2,1,50,1,0
201636,-166.666666666667,4,2,1,50,0,0
202325,714.285714285714,4,2,1,50,1,0
202325,-166.666666666667,4,2,1,50,0,0
205182,-200,4,2,1,50,0,0
208039,-166.666666666667,4,2,1,50,0,0
213753,-166.666666666667,4,2,1,25,0,0
214467,689.655172413793,4,2,1,25,1,0
215901,715.137067938021,4,2,1,25,1,0
216617,-166.666666666667,4,2,1,30,0,0
218047,769.230769230769,4,2,1,50,1,0
218047,-166.666666666667,4,2,1,50,0,0
219737,750,4,2,1,50,1,0
219737,-166.666666666667,4,2,1,50,0,0
220112,-166.666666666667,4,2,1,40,0,0
221799,689.655172413793,4,2,1,40,1,0
221799,-166.666666666667,4,2,1,40,0,0
222661,731.707317073171,4,2,1,35,1,0
222661,-200,4,2,1,35,0,0
224067,722.89156626506,4,2,1,35,1,0
224067,-200,4,2,1,35,0,0
226457,902.255639097744,4,2,1,25,1,0
226457,-166.666666666667,4,2,1,25,0,0
227359,902.255639097744,4,2,1,30,1,0
228486,-100,4,2,1,35,0,0
229163,-100,4,2,1,60,0,0
229276,-100,4,2,1,40,0,0
230065,-100,4,2,1,60,0,0
230178,-100,4,2,1,40,0,0
231870,-100,4,2,1,60,0,0
231983,-100,4,2,1,40,0,0
232772,-100,4,2,1,60,0,0
232885,-100,4,2,1,40,0,0
233674,-100,4,2,1,60,0,0
233787,-100,4,2,1,40,0,0
235479,-100,4,2,1,60,0,0
235592,-100,4,2,1,40,0,0
236381,-100,4,2,1,60,0,0
236494,-100,4,2,1,40,0,0
237283,-100,4,2,1,60,0,0
237396,-100,4,2,1,40,0,0
239088,-100,4,2,1,60,0,0
239201,-100,4,2,1,40,0,0
239765,-125,4,2,1,40,0,0
241795,-100,4,2,1,40,0,0
242697,-100,4,2,1,60,0,0
242810,-100,4,2,1,40,0,0
243599,-100,4,2,1,60,0,0
243712,-100,4,2,1,40,0,0
244501,-100,4,2,1,60,0,0
244614,-100,4,2,1,40,0,0
246306,-100,4,2,1,60,0,0
246419,-100,4,2,1,40,0,0
248110,-100,4,2,1,60,0,0
248223,-100,4,2,1,40,0,0
249013,-100,4,2,1,60,0,0
249126,-100,4,2,1,40,0,0
249915,-100,4,2,1,60,0,0
250028,-100,4,2,1,40,0,0
250817,-100,4,2,1,60,0,0
250930,-100,4,2,1,40,0,0
251719,-100,4,2,1,60,0,0
251832,-100,4,2,1,40,0,0
252396,-100,4,2,1,30,0,0
254201,697.674418604651,4,2,1,40,1,0
254201,-125,4,2,1,40,0,0
254606,875.912408759124,4,2,1,40,1,0
254606,-125,4,2,1,40,0,0
255262,875.912408759124,4,2,1,40,1,0
255262,-66.6666666666667,4,2,1,40,0,0
256137,-100,4,2,1,40,0,0
257013,-66.6666666666667,4,2,1,40,0,0
257889,-100,4,2,1,40,0,0
270152,-66.6666666666667,4,2,1,40,0,0
271028,-100,4,2,1,40,0,0
281539,-142.857142857143,4,2,1,40,0,0
283291,674.157303370787,4,2,1,25,1,0
283291,-200,4,2,1,25,0,0
285081,689.655172413793,4,2,1,40,1,0
285770,689.655172413793,4,2,1,50,1,0
285770,-90.9090909090909,4,2,1,50,0,0
289821,-90.9090909090909,4,2,1,30,0,0
289907,-90.9090909090909,4,2,1,50,0,0
295425,-90.9090909090909,4,2,1,30,0,0
295770,-90.9090909090909,4,2,1,50,0,0
300856,-90.9090909090909,4,2,1,30,0,0
300942,-90.9090909090909,4,2,1,50,0,0
306287,-111.111111111111,4,2,1,50,0,0
307149,-249.999999999999,4,2,1,50,0,0
308873,-499.999999999997,4,2,1,50,0,0
310367,-66.6666666666667,4,2,1,25,0,0
310597,600,4,2,1,25,1,0
310597,-142.857142857143,4,2,1,25,0,0
311197,606.060606060606,3,1,1,35,1,0
311197,-111.111111111111,3,1,1,35,0,0
318469,-111.111111111111,3,1,1,40,0,0
322106,-100,3,1,1,45,0,0
323924,-90.9090909090909,3,1,1,45,0,0
325742,-125,3,1,1,50,0,0
326348,-90.9090909090909,3,1,1,50,0,0
327560,-125,3,1,1,50,0,0
328166,-90.9090909090909,3,1,1,50,0,0
329378,-125,3,1,1,50,0,0
329984,-90.9090909090909,3,1,1,50,0,0
331197,-125,3,1,1,50,0,0
331803,-90.9090909090909,3,1,1,50,0,0
333015,-125,3,1,1,50,0,0
333621,-90.9090909090909,3,1,1,50,0,0
334833,-125,3,1,1,50,0,0
335439,-90.9090909090909,3,1,1,50,0,0
349378,-111.111111111111,3,1,1,50,0,0
351197,-90.9090909090909,3,1,1,50,0,0
354833,-100,3,1,1,50,0,0
358469,-142.857142857143,3,2,1,40,0,0
359378,-200,3,2,1,40,0,0
360287,-153.846153846154,3,2,1,40,0,0
363566,937.5,4,2,1,30,1,0
363566,-125,4,2,1,30,0,0
364269,-111.111111111111,4,2,1,32,0,0
365441,-100,4,2,1,35,0,0
389112,-142.857142857143,4,2,1,35,0,0
389816,-111.111111111111,4,2,1,35,0,0
391222,-166.666666666667,4,2,1,35,0,0
391931,1111.11111111111,4,2,1,30,1,0
392486,1224.48979591837,4,2,1,30,1,0
393098,882.352941176471,4,2,1,30,1,0
393539,357.142857142857,4,2,1,40,1,0
393539,-285.714285714286,4,2,1,40,0,0
394074,-250,4,2,1,40,0,0
394992,375,4,2,1,50,1,0
394992,-166.666666666667,4,2,1,50,0,0
418992,-200,4,2,1,40,0,0
419742,-222.222222222222,4,2,1,30,0,0
420117,-250,4,2,1,25,0,0
420492,833.333333333333,4,2,15,40,1,0
420492,-100,4,2,15,40,0,0
420908,-100,4,2,25,30,0,0
421325,-100,4,2,26,35,0,0
422158,849.85835694051,4,2,10,45,1,0
422158,-200,4,2,10,45,0,0
423432,-200,4,2,19,45,0,0
423857,-200,4,2,17,45,0,0
424282,-200,4,2,17,30,0,0
424707,-200,4,2,17,30,0,0
425132,-200,4,2,25,35,0,0
425557,-200,4,2,19,45,0,0
425982,-200,4,2,19,25,0,0
426407,817.438692098093,4,2,18,30,1,0
426815,-200,4,2,10,45,0,0
427224,849.85835694051,4,2,10,45,1,0
427224,-200,4,2,10,45,0,0
427650,-200,4,2,17,40,0,0
428073,-200,4,2,18,40,0,0
428496,-200,4,2,19,40,0,0
428905,845.070422535211,4,2,20,45,1,0
428905,-200,4,2,20,45,0,0
429327,-200,4,2,19,25,0,0
429750,-200,4,2,21,40,0,0
430172,-200,4,2,20,45,0,0
430608,845.070422535211,4,2,10,45,1,0
430608,-200,4,2,10,45,0,0
431031,-200,4,2,19,30,0,0
431453,831.024930747922,4,2,17,45,1,0
431453,-200,4,2,17,45,0,0
431868,-200,4,2,10,40,0,0
432284,-166.666666666667,4,2,36,60,0,0
432906,-166.666666666667,4,2,37,60,0,0
433560,831.024930747922,4,2,38,70,1,0
433560,-166.666666666667,4,2,38,70,0,0
433975,-166.666666666667,4,2,38,45,0,0
434415,831.024930747922,4,2,38,45,1,0
434622,-125,4,2,1,45,0,0
434830,-125,4,2,39,55,0,0
435038,-125,4,2,39,45,0,0
435679,845.070422535211,4,2,18,45,1,0
435679,-200,4,2,18,45,0,0
436524,-200,4,2,10,45,0,0
436946,-200,4,2,16,45,0,0
437369,-200,4,2,17,45,0,0
438214,-200,4,2,27,45,0,0
438636,-200,4,2,26,45,0,0
439481,-200,4,2,25,45,0,0
439904,-200,4,2,20,45,0,0
440327,909.090909090909,4,2,18,45,1,0
440327,-200,4,2,18,45,0,0
440781,-200,4,2,10,45,0,0
441210,800,4,2,28,45,1,0
441646,750,4,2,18,45,1,0
441833,-200,4,2,19,45,0,0
442021,-200,4,2,29,45,0,0
442433,833.333333333333,4,2,18,45,1,0
442433,-200,4,2,18,45,0,0
443683,-200,4,2,19,45,0,0
444099,851.063829787234,4,2,17,45,1,0
444099,-200,4,2,17,45,0,0
444524,-200,4,2,18,45,0,0
444950,882.352941176471,4,2,17,45,1,0
445391,-200,4,2,19,45,0,0
445819,845.070422535211,4,2,30,45,1,0
445819,-200,4,2,30,45,0,0
446241,-200,4,2,29,45,0,0
446664,-200,4,2,19,45,0,0
447086,-200,4,2,29,45,0,0
447509,-200,4,2,17,45,0,0
447931,-200,4,2,10,45,0,0
448354,-200,4,2,25,45,0,0
448565,-200,4,2,26,45,0,0
448776,-200,4,2,25,45,0,0
449199,810.810810810811,4,2,18,45,1,0
449199,-125,4,2,18,45,0,0
450212,-125,4,2,19,45,0,0
450448,810.810810810811,4,2,27,45,1,0
450889,845.070422535211,4,2,27,45,1,0
450889,-125,4,2,27,45,0,0
451734,-125,4,2,20,45,0,0
451945,-125,4,2,26,45,0,0
452156,-125,4,2,27,45,0,0
452579,-125,4,2,31,45,0,0
453424,-125,4,2,18,45,0,0
453846,-125,4,2,19,45,0,0
454903,-125,4,2,20,45,0,0
455114,-125,4,2,28,45,0,0
455325,-125,4,2,18,45,0,0
455536,-125,4,2,19,45,0,0
455959,-125,4,2,10,45,0,0
456381,-125,4,2,32,45,0,0
456804,-125,4,2,29,45,0,0
457227,-125,4,2,19,45,0,0
457649,-125,4,2,33,45,0,0
458072,-125,4,2,17,45,0,0
458494,-125,4,2,27,45,0,0
458917,-125,4,2,19,45,0,0
460184,-125,4,2,29,45,0,0
460607,-125,4,2,19,45,0,0
461029,-125,4,2,10,45,0,0
461874,-125,4,2,25,45,0,0
462297,-125,4,2,10,45,0,0
462719,-125,4,2,18,45,0,0
463353,-125,4,2,20,45,0,0
463565,-125,4,2,18,45,0,0
463776,-125,4,2,29,45,0,0
463987,-125,4,2,18,45,0,0
464410,-125,4,2,26,45,0,0
465255,-125,4,2,17,45,0,0
465677,-125,4,2,26,45,0,0
466100,-125,4,2,31,45,0,0
466945,-125,4,2,20,45,0,0
467367,-125,4,2,31,45,0,0
467790,-125,4,2,26,45,0,0
468635,-125,4,2,17,45,0,0
469058,-125,4,2,18,45,0,0
469480,-125,4,2,21,45,0,0
469691,-125,4,2,21,25,0,0
469903,-125,4,2,21,45,0,0
470325,-125,4,2,29,45,0,0
470748,-125,4,2,19,45,0,0
471170,-125,4,2,34,45,0,0
471381,-125,4,2,34,25,0,0
471593,-125,4,2,34,45,0,0
472015,-125,4,2,27,45,0,0
472438,-125,4,2,19,45,0,0
472860,-125,4,2,21,45,0,0
473283,-125,4,2,32,45,0,0
473705,-125,4,2,29,45,0,0
474128,-125,4,2,19,45,0,0
474552,895.522388059701,4,2,26,45,1,0
474552,-200,4,2,26,45,0,0
475447,-250,4,2,25,45,0,0
475895,-200,4,2,26,45,0,0
476374,923.076923076923,4,2,19,45,1,0
476835,-100,4,2,10,45,0,0
477297,1034.48275862069,4,2,28,45,1,0
477814,-100,4,2,27,45,0,0
478331,1111.11111111111,4,2,19,45,1,0
478886,1304.34782608696,4,2,26,45,1,0
479538,1538.46153846154,4,2,18,45,1,0
480307,1818.18181818182,4,2,17,45,1,0
481216,923.076923076923,4,2,10,45,1,0
481216,-76.9230769230769,4,2,10,45,0,0
481292,-76.9230769230769,4,2,10,15,0,0
481369,-76.9230769230769,4,2,40,20,0,0
481446,-76.9230769230769,4,2,41,35,0,0
481523,-76.9230769230769,4,2,42,40,0,0
481600,-76.9230769230769,4,2,35,45,0,0
481677,-76.9230769230769,4,1,44,5,0,0

[Colours]
Combo1 : 126,254,197
Combo2 : 255,153,197
Combo3 : 98,169,255
Combo4 : 255,163,79

[HitObjects]
0,150,36564,6,0,P|74:149|145:142,1,120,2|2,0:0|0:0,0:0:0:0:
219,121,37622,1,0,0:0:0:0:
146,49,37975,1,0,0:0:0:0:
193,217,38328,2,0,P|196:254|196:288,1,60,0|2,0:0|0:0,0:0:0:0:
399,300,39387,2,0,P|392:240|387:180,1,120,2|0,0:0|0:0,0:0:0:0:
333,104,40446,1,0,0:0:0:0:
412,50,40799,6,0,L|488:38,1,60,2|0,0:0|0:0,0:0:0:0:
312,122,41505,2,0,P|253:126|177:135,1,120,2|0,0:0|0:0,0:0:0:0:
54,317,42916,2,0,P|83:311|113:307,1,60,2|0,0:0|0:0,0:0:0:0:
204,348,43622,1,2,0:0:0:0:
138,55,45034,5,2,0:0:0:0:
138,55,45740,2,0,P|145:114|148:174,1,120,2|0,0:0|0:0,0:0:0:0:
104,287,47152,2,0,P|162:271|221:264,1,120,2|2,0:0|0:0,0:0:0:0:
310,322,48563,1,0,0:0:0:0:
481,149,49269,6,0,L|415:157,1,60,2|0,0:0|0:0,0:0:0:0:
328,209,49975,2,0,P|335:149|338:89,1,120,2|0,0:0|0:0,0:0:0:0:
259,31,51034,1,0,0:0:0:0:
177,84,51387,2,0,P|173:113|170:143,1,60,2|0,0:0|0:0,0:0:0:0:
173,237,52093,1,2,0:0:0:0:
173,237,53505,5,2,0:0:0:0:
173,237,53858,2,0,L|253:228,1,60,2|0,0:0|0:0,0:0:0:0:
317,261,54211,2,0,L|312:185,1,60,2|0,0:0|0:0,0:0:0:0:
412,177,54563,2,0,P|403:236|398:296,2,120,2|2|2,0:0|0:0|0:0,0:0:0:0:
239,34,55622,6,0,P|243:63|246:93,1,60,2|0,0:0|0:0,0:0:0:0:
284,178,55975,2,0,L|209:187,1,60,2|0,0:0|0:0,0:0:0:0:
133,199,56328,1,2,0:0:0:0:
133,199,57387,1,0,0:0:0:0:
133,199,57740,6,0,P|129:169|124:139,1,60,2|0,0:0|0:0,0:0:0:0:
192,21,58093,2,0,P|195:50|200:80,1,60,2|0,0:0|0:0,0:0:0:0:
282,141,58446,1,2,0:0:0:0:
282,141,58799,2,0,P|352:139|420:105,2,120,2|0|0,0:0|0:0|0:0,0:0:0:0:
76,323,59858,6,0,P|105:315|135:312,1,60,2|0,0:0|0:0,0:0:0:0:
225,360,60211,2,0,L|233:284,1,60,2|0,0:0|0:0,0:0:0:0:
169,169,60563,2,0,L|162:228,1,60,2|0,0:0|0:0,0:0:0:0:
311,246,60916,2,0,P|381:251|440:294,1,120,2|2,0:0|0:0,0:0:0:0:
189,72,61622,1,2,0:0:0:0:
257,13,61799,1,2,0:0:0:0:
279,107,61975,5,2,0:0:0:0:
279,107,62328,2,0,L|268:192,1,60,2|0,0:0|0:0,0:0:0:0:
328,332,62681,2,0,L|335:272,1,60,2|0,0:0|0:0,0:0:0:0:
276,195,63034,2,0,P|334:182|394:177,2,120,2|2|2,0:0|0:0|0:0,0:0:0:0:
23,96,64093,6,0,P|53:90|82:83,1,60,2|0,0:0|0:0,0:0:0:0:
174,55,64446,2,0,L|165:136,1,60,2|0,0:0|0:0,0:0:0:0:
156,201,64799,1,2,0:0:0:0:
156,201,65152,1,0,0:0:0:0:
453,159,65505,2,0,P|393:158|336:139,1,120,2|0,0:0|0:0,0:0:0:0:
274,66,66034,1,2,0:0:0:0:
201,125,66211,6,0,P|195:154|193:184,1,60,2|0,0:0|0:0,0:0:0:0:
137,317,66563,2,0,P|134:287|129:257,1,60,2|0,0:0|0:0,0:0:0:0:
46,207,66916,1,2,0:0:0:0:
228,277,67269,2,0,P|298:271|355:234,2,120,2|0|2,0:0|0:0|0:0,0:0:0:0:
47,80,68328,6,0,P|75:90|104:97,1,60,2|0,0:0|0:0,0:0:0:0:
184,134,68681,2,0,L|197:56,1,60,2|0,0:0|0:0,0:0:0:0:
282,55,69034,2,0,L|272:135,1,60,2|0,0:0|0:0,0:0:0:0:
372,263,69387,1,2,0:0:0:0:
368,155,69740,1,2,0:0:0:0:
273,214,70093,1,2,0:0:0:0:
372,263,70446,1,2,0:0:0:0:
425,28,70799,6,2,B|328:21|370:94|261:83,1,180,0|2,0:0|0:0,0:0:0:0:
162,35,71505,2,0,P|164:84|174:159,1,120,2|2,0:0|0:0,0:0:0:0:
221,244,72034,1,2,0:0:0:0:
275,154,72211,1,2,0:0:0:0:
119,238,72387,1,0,0:0:0:0:
277,327,72563,5,4,3:2:0:0:
277,327,72916,2,0,P|314:321|351:317,1,75,2|0,0:0|3:2,0:0:0:0:
193,228,73269,2,0,P|155:233|118:237,1,75,2|0,0:0|0:0,0:0:0:0:
298,78,73622,2,0,P|318:150|295:220,1,150,2|8,0:0|0:0,0:0:0:0:
206,35,74328,1,2,0:0:0:0:
85,120,74681,6,0,P|123:126|160:127,1,75,2|0,3:2|0:0,0:0:0:0:
277,110,75034,1,2,0:0:0:0:
206,35,75211,1,0,3:2:0:0:
233,204,75387,1,2,0:0:0:0:
233,204,75740,2,0,L|241:363,1,150,2|8,3:2|0:0,0:0:0:0:
400,251,76446,2,0,P|362:248|326:239,1,75,2|0,0:0|0:0,0:0:0:0:
16,200,76799,6,0,P|94:210|139:288,1,150,2|2,3:2|0:0,0:0:0:0:
46,289,77328,1,0,3:2:0:0:
158,139,77505,2,0,P|155:101|148:64,1,75,2|0,0:0|0:0,0:0:0:0:
262,161,77858,2,0,P|285:131|305:100,1,75,2|0,3:2|0:0,0:0:0:0:
266,262,78211,2,0,B|383:239|334:337|472:317,1,225,8|0,0:0|0:0,0:0:0:0:
481,101,78916,6,0,L|402:127,1,75,2|0,3:2|0:0,0:0:0:0:
325,168,79269,2,0,P|319:130|317:93,1,75,2|0,0:0|3:2,0:0:0:0:
106,53,79622,2,0,P|115:123|123:216,1,150,2|4,0:0|3:2,0:0:0:0:
106,53,80328,1,10,0:0:0:0:
27,135,80505,1,8,0:3:0:0:
213,105,80681,2,0,P|249:97|285:87,1,75,4|0,0:3|0:0,0:0:0:0:
428,265,81034,6,0,P|373:215|299:213,1,150,4|2,3:2|0:0,0:0:0:0:
300,212,81563,2,0,P|295:247|285:302,1,75,0|2,3:2|0:0,0:0:0:0:
223,132,82093,1,2,3:2:0:0:
47,248,82446,2,0,B|131:266|116:217|192:232,1,150,8|0,0:0|0:0,0:0:0:0:
415,43,83152,6,0,P|360:90|287:85,1,150,2|0,3:2|0:0,0:0:0:0:
214,26,83681,1,0,3:2:0:0:
137,80,83858,2,0,P|130:116|128:154,1,75,2|0,0:0|0:0,0:0:0:0:
191,232,84211,1,0,3:2:0:0:
191,232,84563,2,0,L|79:250,2,112.5,8|2|2,0:0|0:0|0:0,0:0:0:0:
269,173,85269,6,0,P|331:183|383:268,1,150,2|0,3:2|0:0,0:0:0:0:
472,139,85799,1,0,3:2:0:0:
408,66,85975,2,0,P|373:79|336:87,1,75,2|0,0:0|0:0,0:0:0:0:
269,173,86328,1,0,3:2:0:0:
269,173,86681,2,0,L|281:269,1,75,8|0,0:0|0:0,0:0:0:0:
163,143,87034,2,0,L|153:68,1,75,2|0,0:0|0:0,0:0:0:0:
157,47,87299,1,2,0:0:0:0:
157,46,87387,6,0,P|121:57|74:61,1,75,2|0,3:2|0:0,0:0:0:0:
182,156,87740,2,0,P|165:189|139:223,1,75,10|0,0:0|0:0,0:0:0:0:
397,202,88093,1,10,0:0:0:0:
393,295,88269,1,8,0:0:0:0:
307,245,88446,2,0,P|297:208|290:171,1,75,2|0,0:0|0:0,0:0:0:0:
289,156,88711,1,8,3:2:0:0:
292,141,88799,1,8,0:0:0:0:
354,82,88975,2,0,P|282:103|208:119,1,150,8|4,0:3|0:3,0:0:0:0:
42,280,89505,5,4,3:2:0:0:
42,280,89858,2,0,P|78:271|115:265,1,75,2|0,0:0|3:2,0:0:0:0:
213,241,90211,2,0,L|204:324,1,75,2|0,0:0|0:0,0:0:0:0:
311,361,90563,2,0,P|313:303|328:208,1,150,2|8,3:2|0:0,0:0:0:0:
311,361,91269,1,2,0:0:0:0:
480,290,91622,6,0,P|442:286|406:277,1,75,2|0,3:2|0:0,0:0:0:0:
331,187,91975,1,2,0:0:0:0:
228,321,92152,1,0,3:2:0:0:
155,263,92328,1,2,0:0:0:0:
155,263,92681,2,0,P|231:269|317:284,1,150,0|8,3:2|0:0,0:0:0:0:
432,99,93387,2,0,P|433:136|439:173,1,75,2|0,0:0|0:0,0:0:0:0:
280,296,93740,6,0,P|317:232|301:151,1,150,2|2,3:2|0:0,0:0:0:0:
217,89,94269,1,0,3:2:0:0:
217,89,94446,2,0,P|180:78|146:64,1,75,2|0,0:0|0:0,0:0:0:0:
208,198,94799,2,0,P|178:220|145:238,1,75,0|0,3:2|0:0,0:0:0:0:
305,159,95152,2,0,B|432:139|372:241|504:231,1,225,8|0,0:0|0:0,0:0:0:0:
326,334,95858,6,0,P|335:279|336:239,1,75,2|0,3:2|0:0,0:0:0:0:
480,138,96211,2,0,P|443:146|406:152,1,75,2|0,0:0|3:2,0:0:0:0:
205,298,96563,2,0,P|242:261|346:266,1,150,2|0,0:0|3:2,0:0:0:0:
205,298,97269,1,8,0:0:0:0:
293,345,97446,1,0,0:0:0:0:
255,213,97622,2,0,L|248:118,1,75,4|0,0:0|0:0,0:0:0:0:
121,46,97975,6,0,P|127:103|135:206,1,150,4|0,3:2|0:0,0:0:0:0:
134,195,98505,2,0,L|46:214,1,75,0|2,3:2|0:0,0:0:0:0:
225,48,99034,1,0,3:2:0:0:
249,138,99387,2,0,B|336:141|303:185|386:189,1,150,8|0,0:0|0:0,0:0:0:0:
380,94,99916,1,2,0:0:0:0:
258,232,100093,6,0,L|266:309,1,75,2|0,3:2|0:0,0:0:0:0:
265,306,100446,2,0,L|372:320,1,75,2|0,0:0|3:2,0:0:0:0:
169,196,100799,2,0,P|109:188|40:255,1,150,2|0,0:0|3:2,0:0:0:0:
169,196,101505,6,0,L|159:113,1,75,8|0,0:0|0:0,0:0:0:0:
256,100,101858,2,0,L|266:28,1,60,4|0,3:2|3:2,0:0:0:0:
336,180,102589,6,0,L|398:189,2,52.4999983978272,0|2|0,3:2|0:0|0:0,0:0:0:0:
168,237,103392,2,0,L|87:253,2,67.4999979400635,0|8|0,3:2|0:1|3:2,0:0:0:0:
234,135,104197,6,0,P|254:219|256:300,1,150,2|8,3:2|0:1,0:0:0:0:
347,342,105015,1,0,3:2:0:0:
466,189,105287,2,0,P|410:191|360:167,1,112.5,2|2,3:2|0:0,0:0:0:0:
360,167,105833,2,0,L|352:256,1,75,8|0,0:1|0:0,0:0:0:0:
99,213,106378,6,0,L|247:197,1,123.75000377655,2|2,3:2|0:0,0:0:0:0:
244,196,106924,1,8,0:1:0:0:
286,70,107197,1,0,3:2:0:0:
197,17,107469,2,0,P|192:57|190:99,1,82.5000025177003,2|2,3:2|0:0,0:0:0:0:
340,314,108015,2,0,P|345:273|347:231,1,82.5000025177003,8|0,0:1|0:0,0:0:0:0:
337,210,108424,1,2,0:0:0:0:
337,210,108560,6,0,P|406:202|477:279,1,165.000005035401,0|8,3:2|0:1,0:0:0:0:
342,55,109378,1,2,3:2:0:0:
422,109,109651,2,0,L|516:90,1,82.5000025177003,2|2,3:2|0:0,0:0:0:0:
379,214,110197,2,0,P|372:254|368:295,1,82.5000025177003,8|2,0:1|0:0,0:0:0:0:
162,209,110742,6,0,P|228:212|296:137,1,165.000005035401,2|8,3:2|0:1,0:0:0:0:
285,46,111560,1,2,3:2:0:0:
285,46,111833,2,0,L|192:29,1,82.5000025177003,0|2,3:2|0:0,0:0:0:0:
151,127,112378,2,0,P|157:167|161:208,1,82.5000025177003,8|0,0:1|0:0,0:0:0:0:
407,196,112924,5,2,3:2:0:0:
407,196,113197,2,0,P|400:236|396:277,1,82.5000025177003,2|8,0:0|0:1,0:0:0:0:
327,134,113742,1,2,3:2:0:0:
327,134,114015,1,0,3:2:0:0:
491,253,114287,1,2,0:0:0:0:
304,236,114560,2,0,L|209:251,1,82.5000025177003,8|0,0:1|0:0,0:0:0:0:
206,263,114969,1,2,0:0:0:0:
206,263,115106,6,0,L|188:181,1,82.5000025177003,2|0,3:2|0:0,0:0:0:0:
381,122,115651,1,8,0:1:0:0:
295,68,115924,2,0,L|286:162,1,82.5000025177003,2|0,3:2|3:2,0:0:0:0:
185,87,116469,1,2,0:0:0:0:
293,248,116742,2,0,L|395:236,1,82.5000025177003,8|0,0:1|0:0,0:0:0:0:
401,232,117151,1,2,0:0:0:0:
401,232,117287,6,0,P|366:272|364:383,1,165.000005035401,2|8,3:2|0:1,0:0:0:0:
489,261,118106,1,0,3:2:0:0:
266,263,118378,2,0,P|225:256|185:246,1,82.5000025177003,0|2,3:2|0:0,0:0:0:0:
93,215,118924,1,8,0:1:0:0:
93,215,119197,1,2,0:0:0:0:
49,118,119469,5,2,3:2:0:0:
123,306,119742,1,0,0:0:0:0:
219,168,120015,1,8,0:1:0:0:
305,260,120287,1,2,3:2:0:0:
305,260,120560,2,0,L|441:273,2,123.75000377655,0|2|2,3:2|3:2|3:2,0:0:0:0:
200,190,121651,6,0,P|212:266|220:366,1,165.000005035401,2|8,3:2|0:1,0:0:0:0:
200,190,122469,1,0,3:2:0:0:
43,302,122742,2,0,P|82:294|130:282,1,82.5000025177003,2|2,3:2|0:0,0:0:0:0:
312,180,123287,2,0,P|316:220|317:262,1,82.5000025177003,8|2,0:1|0:0,0:0:0:0:
221,377,123833,6,0,L|213:247,1,123.75000377655,2|2,3:2|0:0,0:0:0:0:
212,233,124378,1,8,0:1:0:0:
29,161,124651,1,0,3:2:0:0:
108,113,124924,2,0,P|113:153|115:195,1,82.5000025177003,2|2,3:2|0:2,0:2:0:0:
318,314,125469,2,0,P|312:273|310:231,1,82.5000025177003,8|0,0:1|0:0,0:0:0:0:
317,210,125878,1,2,0:0:0:0:
317,210,126015,6,0,B|412:219|368:266|461:280,1,165.000005035401,2|8,3:2|0:1,0:0:0:0:
324,98,126833,1,2,3:2:0:0:
485,116,127106,2,0,P|445:128|405:137,1,82.5000025177003,0|2,3:2|0:0,0:0:0:0:
188,215,127651,2,0,P|193:174|197:133,1,82.5000025177003,8|2,0:1|0:0,0:0:0:0:
287,23,128197,6,0,L|295:187,1,165.000005035401,2|8,3:2|0:1,0:0:0:0:
300,281,129015,1,2,3:2:0:0:
300,281,129287,1,0,3:2:0:0:
380,97,129560,1,2,0:0:0:0:
194,192,129833,2,0,P|152:190|112:183,1,82.5000025177003,8|2,0:1|0:0,0:0:0:0:
300,281,130378,6,0,P|382:285|442:355,1,165.000005035401,2|8,3:2|0:1,0:0:0:0:
486,237,131197,1,2,3:2:0:0:
398,183,131469,2,0,P|402:127|414:79,1,82.5000025177003,0|2,3:2|0:0,0:0:0:0:
204,38,132015,2,0,P|211:78|213:119,1,82.5000025177003,8|0,0:1|0:0,0:0:0:0:
211,139,132424,1,0,0:0:0:0:
211,139,132560,6,0,L|325:123,1,82.5000025177003,0|0,3:2|0:0,0:0:0:0:
374,271,133106,1,8,0:1:0:0:
389,93,133378,2,0,L|379:190,1,82.5000025177003,0|0,3:2|3:2,0:0:0:0:
211,139,133924,1,2,0:0:0:0:
262,330,134197,2,0,L|270:247,1,82.5000025177003,8|0,0:1|0:0,0:0:0:0:
283,226,134606,1,0,0:0:0:0:
283,226,134742,6,0,B|196:229|232:279|132:284,1,165.000005035401,0|8,3:2|0:1,0:0:0:0:
14,92,135560,1,2,3:2:0:0:
57,169,135833,2,0,P|97:179|138:187,1,82.5000025177003,0|2,3:2|0:0,0:0:0:0:
274,308,136378,2,0,P|276:266|282:225,1,82.5000025177003,8|0,0:1|0:0,0:0:0:0:
181,107,136924,6,0,P|174:189|165:271,1,165.000005035401,2|8,3:2|0:1,0:0:0:0:
181,107,137742,1,2,3:2:0:0:
368,198,138015,2,0,P|327:190|290:173,1,82.5000025177003,0|2,3:2|3:2,0:0:0:0:
276,159,138424,1,0,3:2:0:0:
276,159,138560,2,0,L|268:257,1,82.5000025177003,8|0,0:1|3:2,0:0:0:0:
39,235,139106,6,0,P|107:247|173:185,1,150,4|0,3:2|3:2,0:0:0:0:
183,86,139769,1,8,0:0:0:0:
97,33,139933,2,0,P|86:83|85:132,1,75,0|2,3:2|0:0,0:0:0:0:
167,199,140347,2,0,P|204:203|240:210,1,75,0|2,0:0|3:2,0:0:0:0:
394,113,140761,6,0,P|356:108|318:100,1,75,2|0,3:2|0:0,0:0:0:0:
223,73,141161,1,2,0:0:0:0:
224,87,141261,1,8,0:0:0:0:
226,101,141361,1,8,0:0:0:0:
27,236,141561,2,0,P|84:231|127:196,1,112.5
126,199,141961,2,0,L|119:118,1,75,2|0,0:0|0:0,0:0:0:0:
231,207,142361,6,0,B|315:212|276:255|367:263,1,150,2|0,3:2|0:0,0:0:0:0:
364,109,142961,2,0,P|327:117|290:123,1,75,10|0,0:0|3:2,0:0:0:0:
354,337,143361,2,0,P|364:276|365:245,1,75
290,122,143761,1,2,0:0:0:0:
464,65,143961,6,0,L|445:189,1,112.5,2|0,3:2|0:0,0:0:0:0:
446,176,144361,2,0,L|522:215,1,75,2|8,0:0|0:0,0:0:0:0:
368,243,144761,2,0,P|295:236|232:294,1,150,0|2,3:2|0:0,0:0:0:0:
9,82,145561,6,0,L|104:74,1,75,2|0,3:2|0:0,0:0:0:0:
160,21,145961,1,2,3:2:0:0:
217,97,146161,2,0,P|216:134|211:171,1,75,8|0,0:0|0:0,0:0:0:0:
154,258,146561,1,0,0:0:0:0:
309,144,146761,1,2,0:0:0:0:
116,119,146961,1,0,3:2:0:0:
286,237,147161,6,0,L|384:256,1,75,2|0,3:2|0:0,0:0:0:0:
116,119,147561,1,2,0:0:0:0:
118,133,147661,1,8,0:0:0:0:
120,147,147761,1,8,0:0:0:0:
154,258,147961,2,0,L|60:273,1,75
269,102,148361,2,0,P|324:107|368:140,1,112.5,4|0,0:0|0:0,0:0:0:0:
368,140,148761,6,0,P|368:174|374:235,1,75,2|0,3:2|0:0,0:0:0:0:
190,294,149161,1,0,0:0:0:0:
288,365,149361,2,0,P|283:280|277:210,1,150,10|0,0:0|3:2,0:0:0:0:
87,321,149961,2,0,P|142:322|189:293,1,112.5,12|0,0:0|0:0,0:0:0:0:
189,293,150361,6,0,L|173:202,1,75,10|0,0:0|3:2,0:0:0:0:
412,49,150761,2,0,B|360:65|360:65|348:170,1,157.499995193482,12|0,0:0|0:0,0:0:0:0:
347,188,151161,1,4,0:3:0:0:
242,134,151361,1,4,0:3:0:0:
184,195,151561,1,4,0:3:0:0:
79,141,151761,1,4,0:3:0:0:
107,61,151961,6,0,P|104:124|97:219,1,157.499995193482,4|0,3:1|0:0,0:0:0:0:
97,218,152361,2,0,P|139:203|183:196,1,89.9999972534181,10|0,0:0|0:0,0:0:0:0:
449,109,152761,1,2,3:2:0:0:
480,193,152961,1,4,3:2:0:0:
408,247,153161,2,0,P|345:248|290:134,1,179.999994506836,8|2,0:0|3:2,0:0:0:0:
310,62,153761,6,0,P|311:39|314:17,2,44.999998626709,4|0|8,0:0|0:0|0:0,0:0:0:0:
190,108,154161,2,0,P|157:79|126:46,1,89.9999972534181,2|0,0:0|3:2,0:0:0:0:
177,220,154561,2,0,P|130:228|78:242,1,89.9999972534181,4|8,3:2|0:0,0:0:0:0:
158,319,154961,1,0,0:0:0:0:
288,169,155161,6,0,P|354:176|401:223,1,134.999995880127,2|0,3:2|0:0,0:0:0:0:
401,223,155561,2,0,P|393:267|388:312,1,89.9999972534181,10|0,0:0|0:0,0:0:0:0:
233,335,155961,1,2,3:2:0:0:
195,243,156161,1,4,3:2:0:0:
131,319,156361,2,0,B|231:338|191:253|295:270,1,179.999994506836,8|2,0:0|3:2,0:0:0:0:
249,125,156961,6,0,L|253:173,2,44.999998626709,4|0|8,0:0|0:0|0:0,0:0:0:0:
353,184,157361,2,0,P|361:139|373:96,1,89.9999972534181,2|0,0:0|3:2,0:0:0:0:
148,199,157761,2,0,P|139:154|127:111,1,89.9999972534181,4|8,3:2|0:0,0:0:0:0:
42,69,158161,1,0,0:0:0:0:
76,249,158361,6,0,P|142:243|199:280,1,134.999995880127,2|0,3:2|0:0,0:0:0:0:
198,279,158761,2,0,L|301:294,1,89.9999972534181,10|0,0:0|0:0,0:0:0:0:
406,253,159161,1,2,3:2:0:0:
416,342,159361,1,4,3:2:0:0:
330,371,159561,2,0,L|312:181,1,179.999994506836,8|2,0:0|3:2,0:0:0:0:
362,101,160161,6,0,L|381:59,2,44.999998626709,4|0|8,0:0|0:0|0:0,0:0:0:0:
255,105,160561,2,0,L|208:-4,1,89.9999972534181,2|0,0:0|3:2,0:0:0:0:
210,194,160961,2,0,L|104:206,1,89.9999972534181,4|8,3:2|0:0,0:0:0:0:
43,144,161361,1,0,0:0:0:0:
184,298,161561,6,0,P|271:295|330:359,1,179.999994506836,2|8,3:2|0:0,0:0:0:0:
429,311,162161,2,0,P|444:252|444:214,1,89.9999972534181,2|0,0:0|3:2,0:0:0:0:
253,95,162561,2,0,P|238:154|238:192,1,89.9999972534181,4|8,3:2|0:0,0:0:0:0:
334,29,162961,5,2,0:0:0:0:
334,29,163061,1,2,0:0:0:0:
334,29,163161,1,0,3:2:0:0:
248,203,163361,1,8,0:3:0:0:
136,92,163561,1,12,0:0:0:0:
79,178,163761,1,8,0:0:0:0:
247,108,163961,6,0,L|327:122,1,52.4999983978272,8|8,0:0|0:0,0:0:0:0:
505,187,164161,2,0,L|517:106,1,52.4999983978272,8|8,0:0|0:0,0:0:0:0:
397,103,164361,1,8,0:3:0:0:
398,129,164461,1,8,0:3:0:0:
400,155,164561,1,4,0:3:0:0:
402,181,164661,1,4,0:3:0:0:
409,212,164761,6,0,P|332:212|284:258,1,134.999995880127,4|0,3:1|0:0,0:0:0:0:
291,248,165161,2,0,P|296:285|301:337,1,89.9999972534181,10|0,0:0|0:0,0:0:0:0:
23,69,165561,1,2,3:2:0:0:
4,156,165761,1,4,3:2:0:0:
76,208,165961,2,0,P|163:210|216:132,1,179.999994506836,8|2,0:0|3:2,0:0:0:0:
166,56,166561,6,0,L|115:26,2,44.999998626709,4|0|8,0:0|0:0|0:0,0:0:0:0:
365,27,166961,2,0,P|320:48|282:62,1,89.9999972534181,2|0,0:0|3:2,0:0:0:0:
209,251,167361,2,8,P|212:202|219:161,1,89.9999972534181,4|8,3:2|0:0,0:0:0:0:
166,340,167761,1,0,0:0:0:0:
440,240,167961,6,0,P|373:247|313:212,1,134.999995880127,2|0,3:2|0:0,0:0:0:0:
316,214,168361,2,0,L|228:239,1,89.9999972534181,10|0,0:0|0:0,0:0:0:0:
169,64,168761,1,2,3:2:0:0:
132,155,168961,1,4,3:2:0:0:
67,79,169161,2,0,B|161:68|125:139|232:129,1,179.999994506836,8|2,0:0|3:2,0:0:0:0:
336,90,169761,6,0,L|337:135,2,44.999998626709,4|0|8,0:0|0:0|0:0,0:0:0:0:
242,217,170161,2,0,P|238:173|232:128,1,89.9999972534181,2|0,0:0|3:2,0:0:0:0:
443,72,170561,2,0,P|437:116|433:161,1,89.9999972534181,4|8,3:2|0:0,0:0:0:0:
485,242,170961,1,0,0:0:0:0:
351,349,171161,6,0,P|349:277|337:201,1,134.999995880127,4|0,3:1|0:0,0:0:0:0:
340,214,171561,2,0,L|226:198,1,89.9999972534181,10|0,0:0|0:0,0:0:0:0:
35,10,171961,1,2,3:2:0:0:
0,92,172161,1,4,3:2:0:0:
56,161,172361,2,0,P|149:161|198:75,1,179.999994506836,8|2,0:0|3:2,0:0:0:0:
144,268,172961,6,0,P|138:294|127:327,2,44.999998626709,4|0|8,0:0|0:0|0:0,0:0:0:0:
250,239,173361,2,0,P|275:266|313:314,1,89.9999972534181,2|0,0:0|3:2,0:0:0:0:
295,135,173761,2,0,P|338:133|408:126,1,89.9999972534181,4|8,3:2|0:0,0:0:0:0:
212,83,174161,1,0,0:0:0:0:
355,222,174361,5,2,3:2:0:0:
317,30,174561,1,4,0:0:0:0:
227,202,174761,1,8,0:0:0:0:
401,114,174961,2,0,L|501:93,1,89.9999972534181,2|0,0:0|3:2,0:0:0:0:
212,83,175361,2,0,L|112:62,1,89.9999972534181,2|8,3:2|0:0,0:0:0:0:
53,279,175761,6,0,P|114:217|200:226,1,179.999994506836,4|0,3:2|3:2,0:0:0:0:
276,160,176361,2,0,P|294:213|293:268,1,112.5,8|8,0:0|0:0,0:0:0:0:
293,268,176761,2,0,L|372:288,1,75,8|8,0:0|0:3,0:0:0:0:
383,185,177161,2,0,L|475:169,1,89.9999972534181,4|4,0:3|3:2,0:0:0:0:
270,40,178017,6,0,P|283:74|288:137,1,89.9999972534181,2|2,0:0|0:0,0:0:0:0:
46,158,179430,6,0,P|103:93|189:103,1,179.999994506836,4|8,3:1|0:0,0:0:0:0:
240,188,180501,1,2,0:0:0:0:
309,117,180858,2,0,P|353:109|397:100,1,89.9999972534181,2|0,3:2|0:0,0:0:0:0:
240,188,181572,2,0,L|231:293,1,89.9999972534181,8|2,0:0|3:2,0:0:0:0:
317,320,182120,1,0,0:0:0:0:
325,227,182303,6,0,P|235:236|147:253,1,179.999994506836,2|8,3:2|0:0,0:0:0:0:
51,221,183374,2,0,P|45:172|45:126,1,89.9999972534181,2|2,0:0|3:2,0:0:0:0:
212,29,184088,2,0,P|218:78|218:124,1,89.9999972534181,2|8,0:0|0:0,0:0:0:0:
279,197,184803,1,2,3:2:0:0:
279,197,185160,6,0,P|365:200|414:124,1,179.999994506836,2|8,3:2|0:0,0:0:0:0:
319,114,186231,1,0,0:0:0:0:
279,197,186588,2,0,L|288:301,1,89.9999972534181,2|0,3:2|0:0,0:0:0:0:
119,342,187303,2,0,L|111:252,1,89.9999972534181,10|2,0:0|3:2,0:0:0:0:
142,162,187838,1,0,0:0:0:0:
35,90,188017,6,0,P|33:134|41:179,1,89.9999972534181,2|0,3:2|0:0,0:0:0:0:
241,290,188731,2,0,P|243:245|235:200,1,89.9999972534181,12|2,0:0|0:0,0:0:0:0:
305,50,189462,5,4,3:2:0:0:
158,146,189828,1,8,0:3:0:0:
366,306,190185,5,10,0:0:0:0:
335,212,190363,1,8,0:3:0:0:
269,285,190542,1,4,0:3:0:0:
421,186,190890,6,0,P|375:197|329:216,1,89.9999972534181,4|0,3:1|0:0,0:0:0:0:
150,305,191604,2,0,P|140:260|137:216,1,89.9999972534181,8|2,0:0|0:0,0:0:0:0:
147,27,192140,1,0,0:0:0:0:
237,49,192318,2,0,P|246:93|249:137,1,89.9999972534181,2|2,3:2|0:0,0:0:0:0:
50,141,193032,2,8,P|94:133|137:118,1,89.9999972534181,8|2,0:0|3:2,0:0:0:0:
237,49,193568,1,0,0:0:0:0:
366,172,193747,6,0,P|307:155|218:226,1,179.999994506836,2|8,3:2|0:0,0:0:0:0:
219,222,194818,2,0,P|224:261|230:330,1,89.9999972534181,2|2,0:0|3:2,0:0:0:0:
49,110,195532,2,0,P|92:124|137:133,1,89.9999972534181,2|8,0:0|0:0,0:0:0:0:
247,105,196247,1,2,3:2:0:0:
247,105,196604,6,0,B|347:93|302:170|409:162,1,179.999994506836,2|8,3:2|0:0,0:0:0:0:
393,73,197675,1,0,0:0:0:0:
246,283,198032,2,0,P|255:238|261:194,1,89.9999972534181,0|2,3:2|0:0,0:0:0:0:
393,73,198747,2,0,P|399:117|408:161,1,89.9999972534181,10|0,0:0|3:2,0:0:0:0:
145,168,199461,6,0,P|233:173|286:96,1,179.999994506836,2|12,3:2|0:0,0:0:0:0:
284,105,200532,2,0,P|273:56|269:17,2,89.9999972534181,2|0|0,0:0|3:2|0:0,0:0:0:0:
373,151,201441,1,8,0:3:0:0:
456,70,201636,2,0,P|411:66|367:54,1,89.9999972534181,4|0,0:3|3:2,0:0:0:0:
177,122,202153,1,0,0:0:0:0:
177,122,202325,6,0,L|165:211,1,89.9999972534181,4|0,3:1|0:0,0:0:0:0:
308,220,203039,2,0,L|320:309,1,89.9999972534181
195,103,203753,2,0,L|390:81,1,179.999994506836,2|0,0:0|0:0,0:0:0:0:
491,116,204825,1,0,0:0:0:0:
403,187,205003,1,0,0:0:0:0:
423,18,205182,6,0,P|408:77|394:173,1,150,2|0,0:0|0:0,0:0:0:0:
321,242,206253,1,2,0:0:0:0:
403,187,206610,2,0,P|410:223|414:260,1,75,2|0,0:0|0:0,0:0:0:0:
159,213,207325,2,0,B|245:202|205:258|299:250,1,150,0|12,0:0|0:2,0:0:0:0:
403,187,208396,5,8,0:0:0:0:
437,86,208753,2,0,L|348:100,1,89.9999972534181,0|8,3:2|0:0,0:0:0:0:
242,58,209467,2,0,P|250:102|254:147,1,89.9999972534181,0|8,3:2|0:0,0:0:0:0:
340,299,210182,2,0,P|344:254|351:209,1,89.9999972534181,0|8,3:2|0:0,0:0:0:0:
434,264,210717,1,0,0:0:0:0:
243,245,210896,6,0,L|146:254,1,89.9999972534181,0|8,3:2|0:0,0:0:0:0:
41,106,211610,2,0,L|53:199,1,89.9999972534181,0|8,3:2|0:0,0:0:0:0:
142,58,212325,2,0,L|154:151,1,89.9999972534181,0|8,3:2|0:0,0:0:0:0:
136,343,213039,1,0,3:2:0:0:
136,343,213396,6,0,L|147:253,1,89.9999972534181,12|2,0:0|0:0,0:0:0:0:
71,189,213932,1,2,0:0:0:0:
163,155,214110,1,2,0:0:0:0:
170,145,214467,5,2,0:0:0:0:
58,186,214639,1,2,0:0:0:0:
150,264,214811,1,2,0:0:0:0:
170,145,214984,1,2,0:0:0:0:
390,74,216080,5,2,0:0:0:0:
328,148,216259,1,2,0:0:0:0:
426,165,216438,1,2,0:0:0:0:
398,50,216617,6,0,L|353:56,1,44.999998626709,2|0,0:0|0:0,0:0:0:0:
227,61,216974,1,2,0:0:0:0:
227,61,217332,6,0,L|236:117,1,44.999998626709,2|0,0:0|0:0,0:0:0:0:
253,215,217689,1,2,0:0:0:0:
253,215,218047,6,0,P|329:221|395:243,2,134.999995880127,4|4|4,3:2|3:2|3:2,0:0:0:0:
163,289,219737,1,4,3:2:0:0:
163,289,220112,5,2,0:0:0:0:
162,288,220299,2,0,P|149:246|145:201,2,89.9999972534181,0|2|2,0:0|0:0|0:0,0:0:0:0:
356,105,221799,2,0,L|349:149,2,44.999998626709,2|0|2,0:0|0:0|0:0,0:0:0:0:
366,80,222661,6,0,P|297:104|219:113,1,150,0|2,0:0|0:0,0:0:0:0:
47,302,224067,2,0,P|116:278|194:269,1,150,0|2,0:0|0:0,0:0:0:0:
275,327,224970,1,0,0:0:0:0:
367,300,225151,2,0,P|381:242|381:217,1,75,0|4,0:0|0:1,0:0:0:0:
118,85,226457,6,0,P|122:105|128:144,1,44.999998626709,0|2,0:0|0:0,0:0:0:0:
106,43,227359,6,0,P|164:93|238:90,1,150,8|0,0:3|0:0,0:0:0:0:
464,219,228261,1,2,0:3:0:0:
394,157,228486,2,0,P|356:161|320:171,1,75,8|0,0:3|0:0,0:0:0:0:
272,275,228937,1,4,0:3:0:0:
260,107,229163,6,0,P|276:180|283:262,1,150,2|0,0:3|0:0,0:0:0:0:
62,301,230065,1,2,0:3:0:0:
96,217,230291,2,0,P|133:211|169:202,1,75,8|0,0:3|0:0,0:0:0:0:
491,106,230968,5,8,0:3:0:0:
420,159,231193,2,0,P|383:153|347:144,1,75,0|2,0:3|0:0,0:0:0:0:
107,127,231870,2,0,P|118:162|126:199,1,75,2|0,0:3|0:0,0:0:0:0:
152,298,232321,1,0,0:0:0:0:
152,297,232546,6,0,P|186:283|222:272,1,75,4|2,0:3|0:3,0:0:0:0:
302,135,232998,2,0,P|267:148|231:159,1,75
140,133,233449,1,2,0:0:0:0:
338,236,233674,1,2,0:3:0:0:
212,62,233900,1,0,0:0:0:0:
163,233,234125,2,0,P|167:270|168:307,1,75,2|0,0:0|0:0,0:0:0:0:
212,62,234577,6,0,P|292:57|360:141,1,150,8|0,0:3|0:0,0:0:0:0:
398,182,235253,2,0,P|362:188|326:201,1,75,2|2,0:0|0:3,0:0:0:0:
223,255,235704,2,0,P|229:217|230:180,1,75,8|0,0:3|0:0,0:0:0:0:
116,20,236155,2,0,P|110:57|109:94,1,75,4|2,0:3|0:3,0:0:0:0:
419,153,236607,5,0,0:0:0:0:
310,65,236832,1,0,0:0:0:0:
248,151,237058,2,0,L|156:172,1,75,2|2,0:0|0:3,0:0:0:0:
410,60,237509,5,0,0:0:0:0:
324,216,237734,1,0,0:0:0:0:
486,262,237960,1,2,0:0:0:0:
311,40,238186,6,0,P|323:113|329:188,1,150,8|0,0:3|0:0,0:0:0:0:
486,262,238862,2,0,P|478:225|473:188,1,75,0|2,0:0|0:3,0:0:0:0:
459,75,239313,1,8,0:3:0:0:
459,75,239539,1,0,0:0:0:0:
387,266,239765,6,0,B|284:261|337:331|215:318,1,180,2|2,3:2|0:0,0:0:0:0:
331,105,240892,2,0,L|337:165,1,60,2|0,0:3|0:0,0:0:0:0:
155,239,241231,1,0,0:0:0:0:
147,223,241343,2,0,L|153:149,1,60,2|0,0:0|0:0,0:0:0:0:
229,69,241795,6,0,P|241:143|248:222,1,150,8|0,0:3|0:0,0:0:0:0:
291,342,242471,1,0,0:0:0:0:
333,161,242697,1,2,0:3:0:0:
201,303,242922,2,0,P|259:254|334:257,1,150,8|4,0:3|0:3,0:0:0:0:
491,188,243599,6,0,P|453:179|418:165,1,75,2|0,0:3|0:0,0:0:0:0:
330,84,244050,2,0,P|322:158|322:233,1,150,2|2,0:0|0:3,0:0:0:0:
76,171,244727,2,0,P|150:178|206:127,1,150,2|0,0:0|0:0,0:0:0:0:
204,131,245404,6,0,L|209:218,1,75,8|0,0:3|0:0,0:0:0:0:
220,303,245855,1,0,0:0:0:0:
125,271,246080,1,2,0:0:0:0:
308,243,246306,2,0,P|344:249|380:259,1,75,2|8,0:3|0:3,0:0:0:0:
475,208,246757,2,0,P|480:170|483:133,1,75,2|4,0:0|0:3,0:0:0:0:
373,21,247208,6,0,P|382:95|388:170,1,150,8|0,0:3|0:0,0:0:0:0:
173,203,247885,1,2,0:0:0:0:
217,121,248110,2,0,P|253:111|287:97,1,75,2|0,0:3|0:0,0:0:0:0:
411,117,248561,1,2,0:0:0:0:
284,222,248787,1,4,0:3:0:0:
441,251,249013,6,0,P|369:202|306:205,1,150,2|0,0:3|0:0,0:0:0:0:
223,288,249689,2,0,P|232:324|238:361,1,75,2|2,0:0|0:3,0:0:0:0:
67,304,250140,2,0,P|97:281|123:255,1,75,8|0,0:3|0:0,0:0:0:0:
111,153,250592,2,0,P|75:141|41:125,1,75,2|2,0:0|0:3,0:0:0:0:
308,55,251043,5,0,0:0:0:0:
207,191,251268,1,0,0:0:0:0:
320,245,251494,2,0,L|330:339,1,75,2|2,0:0|0:3,0:0:0:0:
385,172,251945,5,0,0:0:0:0:
287,143,252171,2,0,P|249:154|196:165,2,75,2|0|2,0:0|3:2|0:0,0:0:0:0:
92,344,254201,6,0,P|85:314|74:282,1,60
9,205,254606,2,0,B|118:208|60:263|183:269,1,180,2|4,0:0|3:1,0:0:0:0:
303,273,255480,6,0,L|308:235,6,37.5000014305115,2|0|2|0|2|0|0,0:0|0:0|0:0|0:0|0:0|0:0|0:0,0:0:0:0:
207,187,256137,2,0,L|220:336,1,150,2|0,0:0|0:0,0:0:0:0:
448,215,256794,1,2,0:0:0:0:
345,243,257013,6,0,L|308:235,6,37.5000014305115,2|0|2|0|2|0|0,0:0|0:0|0:0|0:0|0:0|0:0|0:0,0:0:0:0:
430,318,257670,1,0,0:0:0:0:
341,72,257889,2,0,P|350:108|356:145,1,75,2|0,0:0|0:0,0:0:0:0:
430,318,258327,2,0,P|394:329|359:342,1,75,2|0,0:0|0:0,0:0:0:0:
205,369,258765,5,2,0:0:0:0:
357,146,258984,1,0,0:0:0:0:
261,233,259203,2,0,P|268:268|274:329,1,75,2|0,0:0|0:0,0:0:0:0:
186,179,259641,2,0,B|312:153|255:256|392:234,1,225,2|0,0:0|0:0,0:0:0:0:
452,60,260517,6,0,L|357:78,1,75,2|0,0:0|0:0,0:0:0:0:
279,28,260955,2,0,P|291:101|297:176,1,150,0|0,3:2|0:0,0:0:0:0:
197,157,261612,2,0,P|190:120|180:84,1,75,2|0,0:0|0:0,0:0:0:0:
129,234,262050,1,0,0:0:0:0:
20,160,262269,6,0,P|57:154|92:142,1,75,2|0,3:2|0:0,0:0:0:0:
137,251,262707,2,0,P|174:256|209:268,1,75,2|0,0:0|0:0,0:0:0:0:
292,199,263146,2,0,P|362:194|397:92,1,150,2|0,0:0|0:0,0:0:0:0:
292,199,263802,1,0,0:0:0:0:
359,290,264021,6,0,L|371:370,1,75,2|0,0:0|0:0,0:0:0:0:
202,149,264459,2,0,L|190:228,1,75,2|0,0:0|0:0,0:0:0:0:
128,291,264897,2,0,L|50:303,2,75,2|0|0,0:0|0:0|0:0,0:0:0:0:
245,350,265553,1,0,0:0:0:0:
357,290,265772,6,0,P|365:253|365:215,1,75,2|0,3:2|0:0,0:0:0:0:
311,21,266210,2,0,P|302:57|302:95,1,75,2|0,0:0|0:0,0:0:0:0:
431,163,266648,2,0,L|254:188,1,150,2|0,0:0|0:0,0:0:0:0:
213,125,267305,1,0,0:0:0:0:
431,163,267524,6,0,L|444:249,1,75,2|0,0:0|0:0,0:0:0:0:
346,367,267962,2,0,P|340:292|329:218,1,150,2|2,3:2|0:0,0:0:0:0:
227,63,268619,1,2,0:0:0:0:
168,138,268838,2,0,P|204:146|240:158,1,75,2|0,0:0|0:0,0:0:0:0:
431,25,269276,6,0,P|406:93|338:120,1,150,2|0,3:2|0:0,0:0:0:0:
227,63,269933,1,0,0:0:0:0:
168,138,270152,2,0,L|109:148,6,37.5000014305115,2|0|2|0|2|0|0,0:0|0:0|0:0|0:0|0:0|0:0|0:0,0:0:0:0:
235,224,270809,1,0,0:0:0:0:
227,63,271028,6,0,L|208:219,1,150,2|0,0:0|0:0,0:0:0:0:
320,320,271685,2,0,L|338:171,1,150,2|0,0:0|0:0,0:0:0:0:
447,121,272342,2,0,P|441:158|438:204,1,75,2|0,0:0|0:0,0:0:0:0:
161,239,272780,6,0,P|198:234|234:223,1,75,2|0,0:0|0:0,0:0:0:0:
491,299,273218,2,0,P|455:288|417:283,1,75,2|0,0:0|0:0,0:0:0:0:
280,306,273656,2,0,P|327:248|314:171,1,150,2|0,0:0|0:0,0:0:0:0:
215,213,274313,1,0,0:0:0:0:
280,306,274532,6,0,L|292:379,1,75,2|0,0:0|0:0,0:0:0:0:
447,140,274970,2,0,L|434:213,1,75,0|0,3:2|0:0,0:0:0:0:
421,303,275407,2,0,L|491:329,2,75,2|0|2,0:0|0:0|0:0,0:0:0:0:
58,161,276283,6,0,P|95:156|131:147,1,75,2|0,3:2|0:0,0:0:0:0:
275,24,276721,2,0,P|279:61|281:98,1,75,2|0,0:0|0:0,0:0:0:0:
164,226,277159,2,0,P|176:147|187:60,1,150,2|0,0:0|0:0,0:0:0:0:
164,226,277816,1,0,0:0:0:0:
278,174,278035,6,0,L|365:196,1,75,2|0,0:0|0:0,0:0:0:0:
248,268,278473,2,0,P|175:265|122:315,2,150,2|2|2,0:0|0:0|0:0,0:0:0:0:
512,282,279568,1,0,0:0:0:0:
427,331,279787,6,0,L|420:245,1,75,2|0,3:2|0:0,0:0:0:0:
318,107,280225,1,0,0:0:0:0:
331,310,280444,1,0,0:0:0:0:
439,170,280663,2,0,B|360:161|380:205|292:195,1,150,2|0,0:0|0:0,0:0:0:0:
210,178,281320,1,0,0:0:0:0:
170,98,281539,6,0,P|70:89|12:171,1,209.999993591309,2|0,3:2|0:0,0:0:0:0:
12,171,282853,2,0,P|17:211|20:266,1,78.7499975967408,2|0,0:0|0:0,0:0:0:0:
17,270,283291,6,0,L|104:280,1,75,2|0,3:2|3:2,0:0:0:0:
328,96,285081,1,2,3:2:0:0:
274,169,285253,1,0,0:0:0:0:
367,183,285425,1,2,3:2:0:0:
333,65,285770,6,0,P|283:122|184:122,1,165.000005035401,4|0,3:2|0:0,0:0:0:0:
111,161,286287,2,0,P|97:126|94:75,1,82.5000025177003,0|2,0:0|0:0,0:0:0:0:
27,296,286804,1,2,0:0:0:0:
27,296,287149,6,0,B|123:277|82:340|183:325,1,165.000005035401,2|0,3:2|0:0,0:0:0:0:
427,176,287838,2,0,P|385:172|345:163,1,82.5000025177003,2|0,0:0|0:0,0:0:0:0:
267,218,288183,2,0,P|268:259|276:299,1,82.5000025177003,2|0,0:0|0:0,0:0:0:0:
374,255,288528,6,0,L|362:81,1,165.000005035401,2|0,0:0|0:0,0:0:0:0:
468,10,289045,2,0,B|478:49|478:49|466:88,1,82.5000025177003,0|2,0:0|0:0,0:0:0:0:
267,193,289563,1,0,0:0:0:0:
97,106,289821,1,2,0:0:0:0:
97,106,289907,6,0,P|137:100|177:90,1,82.5000025177003,2|0,0:0|0:0,0:0:0:0:
355,148,290252,2,0,P|314:153|274:163,1,82.5000025177003,2|0,0:0|0:0,0:0:0:0:
110,290,290597,2,0,P|150:284|190:274,1,82.5000025177003,2|0,0:0|0:0,0:0:0:0:
267,329,290942,1,0,0:0:0:0:
335,259,291114,1,0,0:0:0:0:
437,321,291287,6,0,B|483:284|483:284|467:161,1,165.000005035401,2|0,3:2|0:0,0:0:0:0:
340,67,291804,2,0,P|351:98|354:154,1,82.5000025177003,0|2,0:0|0:0,0:0:0:0:
267,329,292321,1,0,0:0:0:0:
144,167,292666,6,0,P|207:166|260:124,1,123.75000377655,2|0,3:2|0:0,0:0:0:0:
254,131,293011,2,0,L|241:230,1,82.5000025177003,2|0,3:2|0:0,0:0:0:0:
421,343,293356,1,2,0:0:0:0:
421,343,293701,2,0,L|431:261,1,82.5000025177003
351,115,294045,6,0,P|341:196|334:279,1,165.000005035401,2|0,3:2|0:0,0:0:0:0:
236,372,294563,2,0,P|235:330|230:285,1,82.5000025177003,0|2,0:0|0:0,0:0:0:0:
151,156,294907,2,0,B|240:147|209:204|305:197,1,165.000005035401
404,49,295425,5,2,0:0:0:0:
290,105,295597,1,2,0:0:0:0:
412,232,295770,1,2,0:0:0:0:
404,49,296114,2,0,L|391:156,1,82.5000025177003
258,310,296459,2,0,L|267:228,1,82.5000025177003,2|0,0:0|0:0,0:0:0:0:
36,170,296804,6,0,P|115:179|160:249,1,165.000005035401,2|0,3:2|0:0,0:0:0:0:
258,310,297321,2,0,P|299:300|338:293,1,82.5000025177003,0|2,0:0|0:0,0:0:0:0:
382,77,297838,1,0,0:0:0:0:
382,77,298183,6,0,B|292:70|327:128|224:119,1,165.000005035401,2|0,3:2|0:0,0:0:0:0:
5,67,298873,2,0,P|45:61|86:52,1,82.5000025177003
50,231,299218,2,0,P|57:190|60:149,1,82.5000025177003,2|0,0:0|0:0,0:0:0:0:
134,279,299563,6,0,P|66:272|-5:368,1,165.000005035401,2|0,0:0|0:0,0:0:0:0:
184,362,300080,2,0,P|221:353|265:348,1,82.5000025177003,0|2,0:0|0:0,0:0:0:0:
313,185,300597,1,0,0:0:0:0:
382,383,300856,1,2,0:0:0:0:
382,383,300942,6,0,L|391:301,1,82.5000025177003,2|0,0:0|0:0,0:0:0:0:
322,103,301287,2,0,L|312:184,1,82.5000025177003,2|0,0:0|0:0,0:0:0:0:
184,362,301632,2,0,L|193:280,1,82.5000025177003,2|0,0:0|0:0,0:0:0:0:
119,195,301976,1,0,0:0:0:0:
191,111,302149,1,0,0:0:0:0:
76,23,302321,6,0,B|171:33|127:80|219:94,1,165.000005035401,2|0,3:2|0:0,0:0:0:0:
391,17,302838,2,0,P|399:57|403:102,1,82.5000025177003,0|2,0:0|0:0,0:0:0:0:
291,205,303356,1,2,0:0:0:0:
291,205,303701,6,0,L|301:67,1,123.75000377655,2|0,3:2|0:0,0:0:0:0:
300,82,304045,2,0,L|218:94,1,82.5000025177003,2|0,3:2|0:0,0:0:0:0:
98,59,304390,1,2,0:0:0:0:
98,59,304735,2,0,P|102:102|110:154,1,82.5000025177003
292,206,305080,6,0,P|246:195|156:291,1,165.000005035401,2|0,0:0|0:0,0:0:0:0:
387,229,305597,2,0,P|403:172|399:127,1,82.5000025177003,0|2,0:0|0:0,0:0:0:0:
281,380,305942,1,0,0:0:0:0:
474,262,306114,1,0,0:0:0:0:
253,294,306287,6,0,B|369:279|320:358|440:343,1,202.499993820191,2|0,0:0|0:0,0:0:0:0:
464,122,307149,2,0,L|338:149,1,120,2|2,0:0|0:0,0:0:0:0:
346,147,308183,5,0,0:0:0:0:
268,102,308356,2,0,L|275:34,1,60,2|0,0:0|0:0,0:0:0:0:
142,180,308873,2,0,L|130:91,1,90,2|0,0:0|0:0,0:0:0:0:
57,261,310367,2,0,L|48:207,3,37.5000014305115,2|2|2|0,0:0|0:0|0:0|0:0,0:0:0:0:
50,281,310597,2,0,P|94:283|159:299,1,104.999996795654,4|0,0:0|0:0,0:0:0:0:
242,242,311197,6,0,P|316:256|371:211,1,134.999995880127,4|0,0:0|0:0,0:0:0:0:
465,214,311651,2,0,P|454:179|452:147,1,67.4999979400635
399,71,311954,1,0,0:0:0:0:
318,122,312106,2,0,L|241:111,1,67.4999979400635
88,73,312409,1,0,0:0:0:0:
140,154,312560,1,0,0:0:0:0:
32,160,312712,1,0,0:0:0:0:
87,54,312863,1,0,0:0:0:0:
158,168,313015,6,0,L|148:244,1,67.4999979400635,2|0,0:2|0:0,0:0:0:0:
174,338,313318,1,0,0:0:0:0:
174,338,313469,2,0,P|229:291|305:300,1,134.999995880127,2|0,0:2|0:0,0:0:0:0:
367,346,313924,1,0,0:0:0:0:
257,195,314227,1,2,0:2:0:0:
436,49,314530,1,0,0:0:0:0:
497,115,314681,1,0,0:0:0:0:
406,132,314833,6,0,L|297:113,1,67.4999979400635,2|0,0:2|0:0,0:0:0:0:
290,212,315136,1,0,0:0:0:0:
284,55,315287,2,0,P|296:128|302:201,1,134.999995880127
108,256,315742,2,0,P|115:217|119:171,1,67.4999979400635
66,123,316045,2,0,P|130:142|206:159,1,134.999995880127,2|0,0:2|0:0,0:0:0:0:
223,253,316500,1,0,0:0:0:0:
301,188,316651,6,0,P|373:187|419:133,1,134.999995880127,2|0,0:2|0:0,0:0:0:0:
503,154,317106,2,0,P|501:116|489:81,1,67.4999979400635,2|0,0:2|0:0,0:0:0:0:
432,25,317409,1,0,0:0:0:0:
348,74,317560,2,0,L|276:64,1,67.4999979400635,2|0,0:2|0:0,0:0:0:0:
220,12,317863,2,0,P|238:84|245:157,1,134.999995880127,2|2,0:2|0:2,0:0:0:0:
220,12,318318,1,0,0:0:0:0:
33,156,318469,6,0,P|82:105|167:121,1,134.999995880127,2|0,0:2|0:0,0:0:0:0:
162,341,319075,2,0,P|170:304|176:269,1,67.4999979400635
120,215,319378,2,0,P|192:233|265:245,1,134.999995880127,2|0,0:2|0:0,0:0:0:0:
394,223,319833,1,0,0:0:0:0:
353,306,319984,1,0,0:0:0:0:
454,307,320136,1,0,0:0:0:0:
380,201,320287,6,0,L|370:123,1,67.4999979400635,2|0,0:2|0:0,0:0:0:0:
199,82,320590,1,0,0:0:0:0:
289,29,320742,2,0,P|286:103|278:171,1,134.999995880127,2|0,0:2|0:0,0:0:0:0:
114,101,321197,2,0,P|152:98|210:83,1,67.4999979400635,2|0,0:2|0:0,0:0:0:0:
336,355,321500,2,0,P|341:317|349:280,3,67.4999979400635,2|0|0|0,0:2|0:0|0:0|0:0,0:0:0:0:
382,206,322106,6,0,P|332:252|244:249,1,150,2|0,0:2|0:0,0:0:0:0:
98,262,322560,2,0,L|81:161,1,75,2|0,0:2|0:0,0:0:0:0:
98,262,322863,1,0,0:0:0:0:
209,176,323015,2,0,L|194:325,1,150,2|0,0:2|0:0,0:0:0:0:
512,191,323621,1,0,0:0:0:0:
466,295,323772,1,0,0:0:0:0:
393,229,323924,6,0,B|311:211|331:276|231:256,1,165.000005035401,0|0,3:2|0:0,0:0:0:0:
164,193,324378,1,8,0:2:0:0:
89,303,324530,1,8,0:2:0:0:
29,151,324681,1,0,0:0:0:0:
92,328,324833,2,0,L|203:341,1,82.5000025177003,4|0,0:2|0:0,0:0:0:0:
368,330,325136,2,0,P|374:294|376:250,1,82.5000025177003,0|8,0:0|0:3,0:0:0:0:
195,87,325439,2,0,P|188:123|187:167,1,82.5000025177003,4|0,0:3|0:0,0:0:0:0:
452,216,325742,6,0,P|364:221|305:153,1,180,4|8,3:1|0:2,0:0:0:0:
306,157,326348,2,0,L|324:67,1,82.5000025177003
15,93,326651,2,0,B|80:103|80:103|107:135|107:135|169:145,1,165.000005035401,2|8,3:2|0:2,0:0:0:0:
194,52,327106,2,0,P|206:133|211:215,1,165.000005035401
349,341,327560,6,0,B|412:305|412:305|395:180,1,180,2|8,3:2|0:2,0:0:0:0:
378,106,328166,2,0,P|336:103|295:98,1,82.5000025177003
80,214,328469,2,0,L|243:193,1,165.000005035401,0|8,3:2|0:2,0:0:0:0:
90,110,328924,1,0,0:0:0:0:
155,311,329075,1,8,0:2:0:0:
267,207,329227,1,0,0:0:0:0:
348,312,329378,6,0,P|435:307|479:211,1,180,2|8,3:2|0:2,0:0:0:0:
403,163,329984,1,0,0:0:0:0:
472,89,330136,2,0,L|488:8,1,82.5000025177003,0|0,0:0|3:2,0:0:0:0:
305,228,330590,2,0,P|265:215|225:207,1,82.5000025177003,10|0,0:2|0:0,0:0:0:0:
403,163,330893,2,0,P|442:175|482:183,1,82.5000025177003,0|0,0:2|0:0,0:0:0:0:
470,293,331197,6,0,B|374:283|417:354|306:344,1,180,2|8,3:2|0:2,0:0:0:0:
95,269,331803,2,0,P|175:269|227:197,1,165.000005035401,0|2,0:0|3:2,0:0:0:0:
164,36,332409,2,0,P|172:76|177:117,1,82.5000025177003,8|0,0:2|0:0,0:0:0:0:
333,242,332712,2,0,P|337:201|346:160,1,82.5000025177003
433,79,333015,6,0,B|384:131|384:131|274:104,1,180,4|8,3:1|0:2,0:0:0:0:
202,46,333621,2,0,L|98:61,1,82.5000025177003
21,41,333924,2,0,P|29:77|37:139,1,82.5000025177003,0|0,3:2|0:0,0:0:0:0:
168,150,334227,1,10,0:2:0:0:
168,150,334378,1,0,0:0:0:0:
101,311,334530,2,0,P|106:270|115:229,1,82.5000025177003
27,238,334833,6,0,B|126:225|101:291|194:288,1,180,2|8,3:2|0:2,0:0:0:0:
274,236,335439,1,0,0:0:0:0:
321,346,335590,1,0,0:0:0:0:
413,305,335742,2,0,P|458:238|445:159,1,165.000005035401,0|8,3:2|0:2,0:0:0:0:
132,42,336348,2,0,P|172:36|213:29,1,82.5000025177003
358,212,336651,5,2,3:2:0:0:
302,126,336803,2,0,P|261:131|220:138,1,82.5000025177003
88,190,337106,1,2,3:2:0:0:
158,72,337257,2,0,P|178:152|189:234,1,165.000005035401,8|0,0:2|0:0,0:0:0:0:
474,350,337863,1,8,0:2:0:0:
474,350,338015,1,0,0:0:0:0:
474,350,338166,2,0,P|466:309|460:268,1,82.5000025177003
466,169,338469,6,0,B|410:179|410:179|385:214|385:214|309:229,1,165.000005035401,4|0,3:1|0:0,0:0:0:0:
190,148,338924,2,0,P|197:107|210:68,2,82.5000025177003,8|0|0,0:2|0:0|0:0,0:0:0:0:
280,310,339378,2,0,P|285:222|295:120,1,165.000005035401,0|8,3:2|0:2,0:0:0:0:
326,61,339833,1,0,0:0:0:0:
195,165,339984,1,0,0:0:0:0:
380,253,340136,1,0,0:0:0:0:
144,318,340287,6,0,P|224:323|281:267,1,165.000005035401,4|0,3:1|0:0,0:0:0:0:
487,274,340742,2,0,P|476:234|472:189,2,82.5000025177003,8|0|0,0:2|0:0|0:0,0:0:0:0:
271,163,341197,1,8,0:2:0:0:
380,253,341348,1,0,0:0:0:0:
382,67,341500,2,0,L|375:162,1,82.5000025177003,2|0,0:2|3:2,0:0:0:0:
274,349,341803,2,0,L|280:266,1,82.5000025177003,8|0,0:2|0:0,0:0:0:0:
271,163,342106,6,0,B|185:146|205:208|113:192,1,165.000005035401,2|0,3:2|0:0,0:0:0:0:
29,258,342560,2,0,P|26:216|20:175,1,82.5000025177003,8|0,0:2|0:0,0:0:0:0:
4,81,342863,1,0,3:2:0:0:
144,109,343015,2,0,L|158:273,1,165.000005035401,10|0,0:2|0:0,0:0:0:0:
24,280,343469,1,0,3:2:0:0:
144,109,343621,1,8,0:2:0:0:
397,224,343924,6,0,P|320:241|246:188,1,165.000005035401,2|0,3:2|0:0,0:0:0:0:
149,355,344378,2,0,P|155:312|157:271,1,82.5000025177003,8|0,0:2|0:0,0:0:0:0:
90,88,344681,1,0,3:2:0:0:
58,183,344833,2,0,L|139:171,1,82.5000025177003,10|0,0:2|0:0,0:0:0:0:
332,46,345136,1,0,3:2:0:0:
235,111,345287,1,8,0:2:0:0:
345,219,345439,1,0,0:0:0:0:
332,46,345742,5,4,3:1:0:0:
387,126,345893,2,0,P|427:137|468:144,1,82.5000025177003,0|0,3:2|0:0,0:0:0:0:
345,219,346197,2,0,B|245:197|245:197|191:265,1,165.000005035401,10|0,0:2|0:0,0:0:0:0:
123,301,346651,2,0,P|113:261|108:220,1,82.5000025177003
86,48,346954,1,8,0:2:0:0:
152,130,347106,1,8,0:3:0:0:
12,237,347257,1,4,0:3:0:0:
86,48,347560,6,0,P|152:93|241:80,1,165.000005035401,4|0,3:1|0:0,0:0:0:0:
327,49,348015,2,0,P|327:89|321:131,1,82.5000025177003,8|0,0:2|0:0,0:0:0:0:
246,196,348318,1,0,0:0:0:0:
424,101,348469,1,2,3:2:0:0:
151,93,348772,2,0,P|192:91|232:84,1,82.5000025177003,8|0,0:2|0:0,0:0:0:0:
412,278,349075,2,0,P|371:271|330:269,1,82.5000025177003
273,208,349378,6,0,P|278:276|286:342,1,134.999995880127,2|0,3:2|0:0,0:0:0:0:
113,353,349833,2,0,P|111:319|108:285,1,67.4999979400635,0|0,3:2|0:0,0:0:0:0:
124,154,350136,1,0,0:0:0:0:
176,223,350287,2,0,B|105:186|105:186|41:218,2,134.999995880127,2|8|0,3:2|0:2|0:0,0:0:0:0:
199,36,351045,1,0,0:0:0:0:
239,120,351197,6,0,B|323:108|294:168|393:154,1,165.000005035401,2|0,3:2|0:0,0:0:0:0:
472,102,351651,2,0,P|480:142|484:183,1,82.5000025177003,8|0,0:2|0:0,0:0:0:0:
399,248,351954,1,0,0:0:0:0:
362,62,352106,1,2,3:2:0:0:
122,220,352409,2,0,P|159:215|207:204,1,82.5000025177003,8|0,0:2|0:0,0:0:0:0:
314,161,352712,2,0,P|304:201|298:241,1,82.5000025177003
180,292,353015,6,0,P|177:209|164:125,1,165.000005035401,2|0,3:2|0:0,0:0:0:0:
100,57,353469,1,8,0:2:0:0:
271,162,353621,2,0,P|311:156|352:147,1,82.5000025177003
449,326,353924,2,0,P|368:271|298:275,1,165.000005035401,2|8,3:2|0:2,0:0:0:0:
304,273,354378,1,4,0:3:0:0:
388,65,354530,1,8,0:2:0:0:
443,146,354681,1,8,0:2:0:0:
352,147,354833,6,0,L|277:135,1,75,2|0,3:2|0:0,0:0:0:0:
220,238,355136,1,0,0:0:0:0:
218,66,355287,2,0,P|232:139|233:214,1,150,10|0,0:2|0:0,0:0:0:0:
16,201,355742,2,0,P|105:198|143:132,1,150,2|8,3:2|0:2,0:0:0:0:
16,201,356197,1,0,0:0:0:0:
106,295,356348,2,0,P|112:330|117:374,1,75
373,340,356651,6,0,P|366:304|362:261,1,75,2|0,3:2|0:0,0:0:0:0:
252,324,356954,1,0,0:0:0:0:
235,149,357106,2,0,L|251:298,1,150,10|0,0:2|0:0,0:0:0:0:
15,224,357560,2,0,P|85:212|157:280,1,150,2|8,3:2|0:2,0:0:0:0:
15,224,358015,1,8,0:2:0:0:
137,132,358166,1,8,0:3:0:0:
199,340,358318,1,0,0:0:0:0:
274,237,358469,6,0,L|329:231,2,52.4999983978272,4|0|0,3:2|0:0|0:0,0:0:0:0:
119,147,358924,2,0,L|66:141,2,52.4999983978272,2|0|0,0:0|0:0|0:0,0:0:0:0:
288,70,359378,2,0,L|389:51,2,75,2|0|2,0:0|0:0|0:0,0:0:0:0:
166,213,360287,6,0,P|158:135|136:61,2,146.249993305207,2|2|2,0:0|0:0|0:0,0:0:0:0:
361,232,363566,6,0,P|353:269|351:305,2,60,0|0|2,0:0|0:0|0:0,0:0:0:0:
397,153,364269,2,0,P|336:200|239:190,1,134.999995880127
112,121,364972,1,2,0:0:0:0:
195,73,365206,1,0,0:0:0:0:
191,166,365441,6,0,P|187:202|181:240,1,75,2|0,0:0|0:0,0:0:0:0:
471,321,365909,1,0,0:0:0:0:
397,272,366144,1,0,0:0:0:0:
307,334,366378,2,0,P|312:259|322:184,1,150,2|0,0:0|0:0,0:0:0:0:
333,49,367081,1,0,0:0:0:0:
409,104,367316,6,0,P|446:98|482:89,2,75,2|0|0,0:0|0:0|0:0,0:0:0:0:
244,96,368019,1,0,0:0:0:0:
306,165,368253,2,0,P|222:126|146:134,1,150,2|0,0:0|0:0,0:0:0:0:
95,191,368956,1,0,0:0:0:0:
95,191,369191,6,0,P|90:229|83:266,1,75,2|0,0:0|0:0,0:0:0:0:
244,96,369659,2,0,P|239:58|232:21,1,75,2|0,0:0|0:0,0:0:0:0:
317,261,370128,2,0,P|388:267|451:203,1,150,2|0,0:0|0:0,0:0:0:0:
372,107,370831,1,0,0:0:0:0:
453,41,371066,6,0,B|335:27|375:116|243:95,1,225,2|0,0:0|0:0,0:0:0:0:
139,70,372003,2,0,P|146:106|150:143,1,75,2|0,0:0|0:0,0:0:0:0:
131,251,372472,2,0,P|166:238|202:229,1,75,2|0,0:0|0:0,0:0:0:0:
395,258,372941,5,2,0:0:0:0:
303,189,373175,1,0,0:0:0:0:
405,130,373409,1,2,0:0:0:0:
385,240,373644,2,0,L|371:331,1,75,0|2,0:0|0:0,0:0:0:0:
113,99,374581,1,0,0:0:0:0:
183,156,374816,6,0,P|269:150|324:93,1,150,2|0,0:0|0:0,0:0:0:0:
391,53,375519,2,0,P|400:89|405:126,1,75,0|2,0:0|0:0,0:0:0:0:
381,226,375987,2,0,P|417:216|454:210,1,75
324,328,376456,1,2,0:0:0:0:
292,172,376691,6,0,P|333:233|335:307,1,150,2|0,0:0|0:0,0:0:0:0:
60,202,377628,2,0,P|97:196|133:186,1,75,2|0,0:0|0:0,0:0:0:0:
219,235,378097,1,2,0:0:0:0:
470,156,378566,6,0,P|422:111|320:123,1,150,2|0,0:0|0:0,0:0:0:0:
219,235,379269,1,2,0:0:0:0:
348,200,379503,1,0,0:0:0:0:
244,76,379737,1,2,0:0:0:0:
244,76,380206,1,2,0:0:0:0:
233,215,380441,6,0,L|247:315,1,75,2|0,0:0|0:0,0:0:0:0:
131,211,380909,2,0,L|71:277,1,75,0|2,0:0|0:0,0:0:0:0:
20,65,381378,2,0,B|105:63|60:116|154:117,1,150,2|0,0:0|0:0,0:0:0:0:
302,204,382081,1,0,0:0:0:0:
377,156,382316,6,0,P|385:119|387:82,1,75,2|0,0:0|0:0,0:0:0:0:
202,207,382784,2,0,P|193:243|191:280,1,75,2|0,0:0|0:0,0:0:0:0:
388,277,383253,1,2,0:0:0:0:
275,137,383487,1,2,0:0:0:0:
282,311,383722,1,0,0:0:0:0:
380,169,383956,1,2,0:0:0:0:
216,218,384191,6,0,L|139:205,1,75,2|0,0:0|0:0,0:0:0:0:
449,81,384659,2,0,L|372:68,1,75,2|0,0:0|0:0,0:0:0:0:
237,34,385128,2,0,P|243:71|247:108,1,75,2|0,0:0|0:0,0:0:0:0:
407,173,385596,1,2,0:0:0:0:
216,218,385831,1,2,0:0:0:0:
307,290,386066,6,0,P|311:252|318:215,1,75
396,71,386534,2,0,P|361:85|326:98,1,75,2|0,0:0|0:0,0:0:0:0:
211,258,387003,1,2,0:0:0:0:
171,111,387237,2,0,P|200:133|229:157,1,75,2|0,0:0|0:0,0:0:0:0:
362,197,387706,1,0,0:0:0:0:
441,232,387941,6,0,P|364:234|307:322,1,150,2|0,0:0|0:0,0:0:0:0:
202,260,388644,2,0,L|192:184,1,75,2|0,0:0|0:0,0:0:0:0:
289,147,389112,2,0,L|305:20,1,104.999996795654,2|0,0:0|0:0,0:0:0:0:
302,42,389816,6,0,P|269:50|235:55,1,67.4999979400635,2|0,0:0|0:0,0:0:0:0:
94,153,390284,2,0,P|126:145|160:139,1,67.4999979400635,2|0,0:0|0:0,0:0:0:0:
341,250,390987,1,0,0:0:0:0:
341,250,391222,2,0,P|298:236|254:226,1,89.9999972534181,2|0,0:0|0:0,0:0:0:0:
165,273,391931,5,2,0:0:0:0:
310,141,392486,1,2,0:0:0:0:
361,347,393098,1,2,0:0:0:0:
231,191,393539,6,0,L|220:136,2,52.4999983978272,2|0|0,3:2|0:0|0:0,0:0:0:0:
319,133,394074,2,0,L|328:53,2,60,0|2|0,0:0|0:0|0:0,0:0:0:0:
383,226,394610,1,2,0:0:0:0:
383,226,394789,1,2,0:0:0:0:
434,320,394992,6,0,P|372:320|297:334,1,134.999995880127,4|0,3:1|0:0,0:0:0:0:
300,333,395367,2,2,P|290:292|285:244,1,89.9999972534181,12|0,0:2|0:2,0:1:0:0:
343,148,395742,1,0,0:0:0:0:
192,265,395929,1,0,3:2:0:0:
145,70,396117,1,8,0:0:0:0:
253,141,396304,6,2,L|357:149,1,89.9999972534181,2|0,3:2|0:1,0:1:0:0:
82,241,396679,2,0,L|-9:250,1,89.9999972534181,2|0,3:2|0:0,0:0:0:0:
145,70,397054,1,2,0:0:0:0:
147,87,397148,1,10,0:0:0:0:
149,104,397242,1,2,0:0:0:0:
228,249,397429,1,0,3:2:0:0:
49,141,397617,1,10,0:0:0:0:
248,46,397804,1,2,0:0:0:0:
120,290,397992,6,0,P|125:249|129:199,1,89.9999972534181,4|0,3:1|0:0,0:0:0:0:
370,146,398367,2,2,P|325:152|280:156,1,89.9999972534181,10|0,1:2|1:0,1:0:0:0:
263,158,398648,1,8,0:0:0:0:
246,158,398742,1,0,0:0:0:0:
149,81,398929,1,0,3:2:0:0:
300,258,399117,1,10,0:0:0:0:
270,65,399304,6,2,B|312:105|312:105|299:268,1,179.999994506836,2|0,3:1|3:2,0:1:0:0:
204,156,399867,1,8,0:0:0:0:
417,122,400054,2,0,L|485:106,2,44.999998626709,2|2|0,3:2|0:0|0:0,0:0:0:0:
216,315,400429,1,2,3:2:0:0:
301,144,400617,1,10,0:0:0:0:
459,289,400804,1,8,0:0:0:0:
459,289,400898,1,8,0:0:0:0:
459,289,400992,6,0,L|318:259,1,134.999995880127,4|0,3:1|0:0,0:0:0:0:
308,257,401367,1,12,0:0:0:0:
126,301,401554,2,0,P|171:304|215:314,1,89.9999972534181,2|0,0:0|0:0,0:0:0:0:
396,172,401929,2,2,P|389:127|386:82,1,89.9999972534181,0|8,3:2|0:2,0:1:0:0:
80,105,402304,6,0,B|177:93|140:167|254:157,1,179.999994506836,4|2,3:1|3:2,0:0:0:0:
280,69,402867,1,8,0:0:0:0:
129,265,403054,1,2,0:0:0:0:
125,247,403148,1,10,0:0:0:0:
122,229,403242,1,0,0:0:0:0:
339,235,403429,1,0,3:2:0:0:
280,69,403617,2,2,P|271:111|262:191,1,89.9999972534181,8|0,0:2|0:1,0:1:0:0:
416,327,403992,6,0,P|438:251|442:186,1,134.999995880127,4|0,3:1|0:0,0:0:0:0:
438,175,404367,1,12,0:0:0:0:
315,247,404554,2,0,L|248:264,2,44.999998626709,2|8|0,0:0|0:0|0:0,0:0:0:0:
488,90,404929,2,2,P|443:82|400:69,1,89.9999972534181,0|8,3:2|0:2,0:1:0:0:
301,134,405304,6,2,B|206:123|229:187|130:173,1,179.999994506836,2|0,3:1|3:1,0:1:0:0:
22,123,405867,1,10,0:0:0:0:
178,267,406054,1,2,3:1:0:0:
25,336,406242,1,2,0:0:0:0:
22,123,406429,1,0,3:2:0:0:
22,123,406523,1,8,0:0:0:0:
22,123,406617,2,0,P|29:167|33:212,1,89.9999972534181,10|2,0:0|0:0,0:0:0:0:
180,365,406898,1,10,0:0:0:0:
170,353,406992,6,0,B|145:310|145:310|172:197,1,134.999995880127,4|0,3:1|0:0,0:0:0:0:
151,205,407367,2,2,L|257:223,1,89.9999972534181,12|0,0:2|0:1,0:1:0:0:
380,43,407742,1,0,0:0:0:0:
380,43,407929,1,2,3:2:0:0:
264,120,408117,1,10,0:0:0:0:
370,284,408304,6,2,P|364:240|361:195,1,89.9999972534181,2|0,3:2|0:1,0:1:0:0:
155,82,408679,2,0,P|161:126|164:171,1,89.9999972534181,2|8,3:2|0:0,0:0:0:0:
109,275,409054,2,2,P|159:217|267:216,1,179.999994506836,0|0,0:1|3:1,0:1:0:0:
109,275,409617,1,10,0:0:0:0:
189,107,409804,1,2,0:0:0:0:
360,259,409992,6,0,L|253:237,1,89.9999972534181,4|0,3:1|0:0,0:0:0:0:
179,17,410367,2,2,L|190:116,1,89.9999972534181,10|0,0:2|0:1,0:1:0:0:
185,124,410648,1,8,0:0:0:0:
181,141,410742,1,0,0:0:0:0:
294,99,410929,1,2,3:2:0:0:
103,202,411117,1,10,0:0:0:0:
97,62,411304,6,2,B|170:72|170:72|198:100|198:100|268:110,1,179.999994506836,2|0,3:1|3:1,0:1:0:0:
356,33,411867,1,10,0:0:0:0:
331,260,412054,1,2,3:1:0:0:
331,260,412148,2,0,L|321:191,2,44.999998626709,8|0|0,0:0|0:0|0:0,0:0:0:0:
381,131,412429,1,0,3:2:0:0:
207,287,412617,2,0,P|215:242|218:197,1,89.9999972534181,8|2,0:0|0:1,0:0:0:0:
437,73,412992,6,0,B|415:114|415:114|433:216,1,134.999995880127,4|0,3:1|0:0,0:0:0:0:
435,223,413367,1,12,0:0:0:0:
320,128,413554,2,0,L|252:106,2,44.999998626709,0|8|0,0:0|0:0|0:2,0:0:0:0:
496,312,413929,1,2,3:1:0:0:
328,225,414117,1,8,0:0:0:0:
286,321,414304,6,2,L|180:340,1,89.9999972534181,2|0,3:1|0:1,0:1:0:0:
435,223,414679,2,0,L|455:112,1,89.9999972534181,2|8,3:2|0:0,0:0:0:0:
248,57,415054,1,2,0:0:0:0:
250,74,415148,1,10,0:0:0:0:
253,91,415242,1,0,0:0:0:0:
357,72,415429,1,2,3:2:0:0:
265,194,415617,2,2,P|220:187|176:176,1,89.9999972534181,10|0,0:2|0:1,0:1:0:0:
386,186,415992,6,0,P|301:205|267:285,1,179.999994506836,4|10,3:1|0:0,0:0:0:0:
464,261,416554,1,0,0:0:0:0:
467,278,416648,1,8,0:0:0:0:
470,295,416742,1,0,0:0:0:0:
485,162,416929,1,0,3:2:0:0:
371,292,417117,1,8,0:0:0:0:
340,43,417304,6,2,L|361:193,1,134.999995880127,2|0,3:1|0:1,0:1:0:0:
365,198,417679,1,2,3:2:0:0:
252,134,417867,2,0,L|154:108,1,89.9999972534181,8|0,0:0|3:2,0:0:0:0:
147,105,418148,1,8,0:0:0:0:
129,100,418242,1,2,0:1:0:0:
217,351,418429,1,2,3:2:0:0:
137,293,418617,2,0,L|40:308,1,89.9999972534181,10|0,0:0|0:0,0:0:0:0:
232,240,418992,6,0,P|291:238|362:302,1,150,4|8,3:2|0:0,0:0:0:0:
454,275,419554,1,0,0:0:0:0:
420,185,419742,2,0,L|434:108,1,67.4999979400635,2|0,0:0|3:2,0:0:0:0:
241,57,420117,2,0,L|252:132,1,60,8|0,0:0|0:0,0:0:0:0:
342,101,420492,5,2,0:0:0:0:
195,185,420908,1,2,0:0:0:0:
46,113,421325,1,2,0:0:0:0:
46,112,422158,6,0,P|62:186|69:260,1,150,2|2,0:0|0:0,0:0:0:0:
46,112,423432,1,2,0:0:0:0:
152,164,423857,2,0,P|189:174|235:182,1,75,2|0,0:0|0:0,0:0:0:0:
429,179,424707,2,0,P|421:142|417:104,1,75,2|2,0:0|0:0,0:0:0:0:
305,64,425557,5,2,0:0:0:0:
319,155,425982,2,0,L|326:244,1,75,2|2,0:0|0:0,0:0:0:0:
305,63,426815,1,2,0:0:0:0:
305,63,427224,2,0,P|269:77|233:85,1,75,2|2,0:0|0:0,0:0:0:0:
128,51,428073,2,0,P|134:87|135:125,1,75,2|2,0:0|0:0,0:0:0:0:
222,184,428905,6,0,P|215:220|214:262,1,75,2|2,0:0|0:0,0:0:0:0:
268,336,429750,1,2,0:0:0:0:
268,336,430172,1,2,0:0:0:0:
318,246,430608,2,0,L|413:267,1,75,2|2,0:0|0:0,0:0:0:0:
119,180,431453,2,0,L|24:201,1,75,2|2,0:0|0:0,0:0:0:0:
284,66,432284,6,0,P|337:58|427:126,1,134.999995880127,2|2,0:0|0:0,0:0:0:0:
407,94,433560,2,0,P|398:136|388:198,1,89.9999972534181,2|0,0:0|0:0,0:0:0:0:
284,330,434415,5,0,0:0:0:0:
284,171,434622,2,0,P|288:200|292:230,1,60,0|2,0:0|0:0,0:0:0:0:
469,326,435038,2,0,P|472:296|477:266,1,60
493,247,435679,6,0,L|418:255,1,75,10|8,0:0|0:0,0:0:0:0:
174,173,436524,2,0,L|248:164,1,75,2|2,0:0|0:0,0:0:0:0:
345,130,437369,2,0,P|338:166|334:204,1,75,10|8,0:0|0:0,0:0:0:0:
364,301,438214,1,2,0:0:0:0:
268,280,438636,2,0,P|232:266|192:257,1,75,2|8,0:0|0:0,0:0:0:0:
39,116,439481,6,0,L|118:108,1,75,2|2,0:0|0:0,0:0:0:0:
271,166,440327,2,0,P|275:128|283:92,1,75,2|10,0:0|0:0,0:0:0:0:
197,36,441210,1,2,0:0:0:0:
337,255,441646,1,2,0:0:0:0:
254,179,441833,1,2,0:0:0:0:
172,314,442021,1,2,0:0:0:0:
70,225,442433,6,0,P|106:222|144:216,1,75,6|8,0:0|0:0,0:0:0:0:
226,137,443058,1,0,0:0:0:0:
334,169,443266,2,0,P|337:129|344:94,1,75,2|2,0:0|0:0,0:0:0:0:
247,236,444099,2,0,L|256:311,1,75,6|8,0:0|0:0,0:0:0:0:
226,137,444950,1,2,0:0:0:0:
350,256,445391,1,2,0:0:0:0:
69,245,445819,6,0,P|106:240|142:231,1,75,2|2,0:0|0:0,0:0:0:0:
407,74,446664,1,2,0:0:0:0:
325,137,447087,2,0,P|287:132|251:123,1,75,2|2,0:0|0:0,0:0:0:0:
190,42,447932,1,8,0:0:0:0:
239,270,448355,1,2,0:0:0:0:
345,138,448566,1,2,0:0:0:0:
424,226,448777,1,2,0:0:0:0:
226,49,449200,6,0,P|234:97|243:195,1,120,10|8,0:0|0:0,0:0:0:0:
166,224,449807,1,2,0:0:0:0:
84,151,450009,2,0,P|112:143|140:131,1,60,0|2,0:0|0:0,0:0:0:0:
325,213,450448,1,2,0:0:0:0:
325,213,450889,6,0,P|266:225|210:246,1,120,8|8,0:0|0:0,0:0:0:0:
35,167,451734,2,0,P|53:173|92:182,1,60,2|2,0:0|0:0,0:0:0:0:
270,71,452156,2,0,P|273:102|276:164,1,60,2|0,0:0|0:0,0:0:0:0:
188,249,452580,5,10,0:0:0:0:
188,249,453001,2,0,P|187:181|182:110,2,120,8|2|2,0:0|0:0|0:0,0:0:0:0:
401,207,454269,6,0,P|341:200|285:178,1,120,10|8,0:0|0:0,0:0:0:0:
260,85,454903,1,2,0:0:0:0:
354,77,455114,2,0,P|383:69|411:59,1,60,2|2,0:0|0:0,0:0:0:0:
382,286,455536,1,2,0:0:0:0:
382,286,455959,5,2,0:0:0:0:
437,199,456170,1,0,0:0:0:0:
335,201,456381,2,0,P|303:196|275:192,1,60,2|0,0:0|0:0,0:0:0:0:
210,144,456804,2,0,P|222:202|229:262,1,120,2|2,0:0|0:0,0:0:0:0:
192,348,457438,1,0,0:0:0:0:
113,295,457649,6,0,P|120:266|125:236,1,60,10|0,0:0|0:0,0:0:0:0:
6,105,458073,1,4,0:0:0:0:
6,105,458494,2,0,L|126:148,1,120,2|2,0:0|0:0,0:0:0:0:
203,94,459128,1,0,0:0:0:0:
203,94,459234,1,0,0:0:0:0:
203,94,459339,6,0,L|281:78,1,60,6|0,0:0|0:0,0:0:0:0:
346,186,459762,1,8,0:0:0:0:
359,40,459973,2,0,P|353:70|350:100,1,60,0|2,0:0|0:0,0:0:0:0:
248,190,460396,2,0,P|253:219|256:249,1,60,0|2,0:0|0:0,0:0:0:0:
346,313,460819,1,0,0:0:0:0:
346,313,460924,1,0,0:0:0:0:
346,313,461029,6,0,P|405:319|464:332,2,120,12|8|2,0:0|0:0|0:0,0:0:0:0:
73,345,462297,1,8,0:0:0:0:
142,263,462508,1,0,0:0:0:0:
55,212,462719,6,0,P|47:180|43:139,1,60,6|0,0:0|0:0,0:0:0:0:
187,36,463142,2,0,P|193:66|199:109,1,60,4|2,0:0|0:0,0:0:0:0:
149,165,463565,1,8,0:0:0:0:
293,51,463776,1,2,0:0:0:0:
363,154,463987,1,2,0:0:0:0:
149,164,464410,6,0,P|206:148|265:137,1,120,6|4,0:0|0:0,0:0:0:0:
432,100,465255,2,0,P|417:158|412:217,1,120,2|4,0:0|0:0,0:0:0:0:
273,352,466100,6,0,P|267:292|253:234,1,120,6|4,0:0|0:0,0:0:0:0:
253,234,466734,2,0,L|185:259,1,60,0|2,0:0|0:0,0:0:0:0:
182,158,467156,2,0,L|109:141,1,60,0|2,0:0|0:0,0:0:0:0:
277,139,467579,1,0,0:0:0:0:
349,206,467790,6,0,P|405:205|474:166,1,120,6|4,0:0|0:0,0:0:0:0:
256,21,468635,2,0,P|272:78|276:138,1,120,2|2,0:0|0:0,0:0:0:0:
105,251,469480,6,0,P|112:221|115:192,1,60,10|0,0:0|0:0,0:0:0:0:
60,74,469903,2,0,P|117:94|174:109,1,120,8|2,0:0|0:0,0:0:0:0:
231,226,470748,1,2,0:0:0:0:
326,87,471170,6,0,P|320:121|316:170,1,60,10|0,0:0|0:0,0:0:0:0:
231,226,471593,2,0,P|246:282|259:357,2,120,8|2|2,0:0|0:0|0:0,0:0:0:0:
26,113,472860,5,6,0:0:0:0:
96,48,473283,1,2,0:0:0:0:
214,68,473705,1,2,0:0:0:0:
248,207,474128,1,2,0:0:0:0:
115,297,474552,6,0,L|104:217,1,75,6|4,0:0|0:0,0:0:0:0:
241,160,475447,2,0,L|249:91,1,60,2|4,0:0|0:0,0:0:0:0:
426,141,476374,5,2,0:0:0:0:
335,200,476835,1,8,0:0:0:0:
430,247,477297,1,2,0:0:0:0:
415,153,477814,5,2,0:0:0:0:
324,212,478331,1,2,0:0:0:0:
419,259,478886,1,2,0:0:0:0:
404,165,479538,5,2,0:0:0:0:
313,224,480307,1,2,0:0:0:0:
408,271,481216,2,0,L|450:260,5,32.4999985122681,2|0|2|2|2|2,0:0|0:0|0:0|0:0|0:0|0:0,0:0:0:0:
256,192,481677,12,0,495062,0:0:0:0:
