osu file format v14

[General]
AudioFilename: audio.mp3
AudioLeadIn: 0
PreviewTime: 78660
Countdown: 0
SampleSet: Soft
StackLeniency: 0.7
Mode: 0
LetterboxInBreaks: 0
WidescreenStoryboard: 1

[Editor]
DistanceSpacing: 0.4
BeatDivisor: 8
GridSize: 8
TimelineZoom: 2.3

[Metadata]
Title:Outsider
TitleUnicode:アウトサイダー
Artist:yanaginagi
ArtistUnicode:やなぎなぎ
Creator:Irohas
Version:Agatsu's Insane
Source:
Tags:mugiwarasekai shocko agatsu エメラロタイプ emeralotype japanese rock
BeatmapID:3969385
BeatmapSetID:1427296

[Difficulty]
HPDrainRate:5
CircleSize:4
OverallDifficulty:7.7
ApproachRate:9
SliderMultiplier:1.6
SliderTickRate:1

[Events]
//Background and Video events
0,0,"y.jpg",0,0
//Break Periods
2,184638,191235
//Storyboard Layer 0 (Background)
//Storyboard Layer 1 (Fail)
//Storyboard Layer 2 (Pass)
//Storyboard Layer 3 (Foreground)
//Storyboard Layer 4 (Overlay)
//Storyboard Sound Samples

[TimingPoints]
631,315.789473684211,4,2,1,50,1,0
5683,-100,4,2,1,50,0,0
9946,-200,4,2,1,50,0,0
10736,-200,4,2,1,40,0,0
11052,-125,4,2,1,40,0,0
19560,315.789473684211,4,2,1,50,1,0
20823,-111.111111111111,4,2,1,60,0,0
32191,-133.333333333333,4,2,1,60,0,0
33454,-111.111111111111,4,2,1,60,0,0
35349,-111.111111111111,4,2,1,40,0,0
35981,-111.111111111111,4,2,1,60,0,0
46086,-111.111111111111,4,2,1,60,0,0
56191,-200,4,2,1,60,0,0
65981,-100,4,2,1,60,0,0
66296,-111.111111111111,4,2,1,60,0,0
78612,-111.111111111111,4,2,1,70,0,0
78769,-100,4,2,17,60,0,0
78927,-100,4,2,1,70,0,0
101664,-100,4,2,1,40,0,0
103401,-100,4,2,1,60,0,0
103875,-100,4,2,1,30,0,0
104033,-100,4,2,1,70,0,0
119112,-100,4,2,1,40,0,0
119348,-111.111111111111,4,2,1,50,0,0
128190,-111.111111111111,4,2,1,60,0,0
139559,-200,4,2,1,60,0,0
139875,-83.3333333333333,4,2,1,60,0,0
140190,-111.111111111111,4,2,1,60,0,0
142085,-200,4,2,1,60,0,0
142401,-83.3333333333333,4,2,1,60,0,0
142717,-111.111111111111,4,2,1,60,0,0
144612,-200,4,2,1,60,0,0
144927,-83.3333333333333,4,2,1,60,0,0
145243,-111.111111111111,4,2,1,60,0,0
149190,-111.111111111111,4,2,1,50,0,0
149664,-111.111111111111,4,2,1,60,0,0
162138,-100,4,2,17,70,0,0
162296,-100,4,2,1,70,0,0
163411,315.789473684211,4,2,1,70,1,0
163568,315.789473684211,4,2,1,70,1,0
182515,327.868852459017,4,2,1,60,1,0
182515,-100,4,2,1,60,0,0
183826,306.122448979592,4,2,1,50,1,0
184410,-100,4,2,1,40,0,0
185050,352.941176470588,4,2,1,50,1,0
185402,310.880829015544,4,2,1,50,1,0
186334,327.868852459017,4,2,1,50,1,0
186989,314.136125654451,4,2,1,50,1,0
187617,315.789473684211,4,2,1,50,1,0
188880,310.880829015545,4,2,1,50,1,0
190123,329.67032967033,4,2,1,50,1,0
190782,306.122448979592,4,2,1,50,1,0
191394,294.117647058824,4,2,1,50,1,0
191673,-100,4,2,1,60,0,0
191835,314.547837483617,4,2,1,50,1,0
192621,315.789473684211,4,2,1,60,1,0
192621,-111.111111111111,4,2,1,60,0,0
202410,-111.111111111111,4,2,1,30,0,0
202568,-100,4,2,1,70,0,0
219778,-83.3333333333333,4,2,1,70,0,0
221357,-100,4,2,1,70,0,0
221673,-100,4,2,1,60,0,0
222936,-100,4,2,1,70,0,0
224199,-100,4,2,1,60,0,0
225463,-100,4,2,1,70,0,0
226726,-100,4,2,1,60,0,0
227989,-111.111111111111,4,2,1,60,0,0
234305,320.855614973262,4,2,1,60,1,0
235427,309.278350515464,4,2,1,50,1,0
236664,315.78947368421,4,2,1,50,1,0
236664,-100,4,2,1,70,0,0
237927,-100,4,2,17,60,0,0
238085,315.78947368421,4,2,1,70,1,0
238085,-100,4,2,1,70,0,0
245516,315.78947368421,4,2,1,70,1,0
245516,-133.333333333333,4,2,1,70,0,0
245673,315.78947368421,4,2,1,70,1,0
245988,-76.9230769230769,4,2,1,70,0,0
246462,-100,4,2,1,70,0,0
255796,315.78947368421,4,2,1,70,1,0
257673,-100,4,2,1,45,0,0
260831,315.78947368421,4,2,1,50,1,0
260831,-111.111111111111,4,2,1,45,0,0
263357,-100,4,2,1,45,0,0
263673,-100,4,2,1,60,0,0
274410,-83.3333333333333,4,2,1,60,0,0
275831,-100,4,2,1,60,0,0
278357,-133.333333333333,4,2,1,60,0,0
279463,-100,4,2,1,60,0,0
290515,-100,4,2,1,50,0,0
291132,315.78947368421,4,2,1,60,1,0
291132,-100,4,2,1,60,0,0
295094,340.90909090909,4,2,1,50,1,0
296121,-100,4,2,1,20,0,0

[Colours]
Combo1 : 253,169,151
Combo2 : 250,240,201
Combo3 : 185,255,233
Combo4 : 193,241,253
Combo5 : 172,203,234

[HitObjects]
119,102,5209,5,0,0:0:0:0:
52,188,5367,1,0,0:0:0:0:
52,188,5683,2,0,P|97:183|147:171,1,80,4|0,0:0|1:0,0:0:0:0:
189,221,5999,1,0,1:0:0:0:
60,304,6157,2,0,P|127:326|159:329,1,80,8|0,0:0|1:0,0:0:0:0:
246,277,6473,1,0,1:0:0:0:
312,313,6631,1,8,0:0:0:0:
454,255,6788,6,0,P|422:180|409:93,1,160,4|0,0:0|0:0,0:0:0:0:
318,230,7262,2,0,P|243:260|224:264,1,80,8|0,0:0|1:0,0:0:0:0:
175,244,7499,1,0,1:0:0:0:
166,237,7578,1,8,0:0:0:0:
270,168,7736,2,0,P|239:143|221:115,1,40,8|8,0:0|0:0,0:0:0:0:
170,34,7894,1,8,0:0:0:0:
174,22,7973,1,8,0:0:0:0:
180,9,8052,2,0,P|203:42|213:73,1,40,8|8,0:0|0:0,0:0:0:0:
148,228,8209,5,4,0:0:0:0:
81,195,8367,1,0,1:0:0:0:
121,134,8525,1,0,1:0:0:0:
212,269,8683,37,12,0:0:0:0:
157,322,8841,1,0,1:0:0:0:
94,283,8999,1,0,1:0:0:0:
235,201,9157,21,8,0:0:0:0:
387,295,9315,2,0,P|343:307|234:318,1,120,0|0,0:0|0:0,0:0:0:0:
212,365,9631,2,0,P|178:378|154:389,1,40,8|8,0:0|0:0,0:0:0:0:
130,298,9788,2,0,P|91:280|74:261,1,40,8|8,0:0|0:0,0:0:0:0:
0,384,9946,38,0,L|36:188,1,200,4|0,0:0|1:0,0:0:0:0:
25,189,11052,2,0,L|42:273,1,64,2|0,0:1|0:0,0:0:0:0:
111,382,11367,2,0,B|136:324|136:324|106:242,1,128,0|2,0:0|0:1,0:0:0:0:
217,318,11841,2,0,P|257:316|309:308,1,64,0|0,0:0|1:0,0:0:0:0:
281,319,12315,2,0,P|240:328|206:338,1,64,2|0,0:1|0:0,0:0:0:0:
186,269,12631,2,0,P|228:253|269:229,1,64,2|0,0:0|0:0,0:0:0:0:
340,141,12946,1,2,0:1:0:0:
347,133,13262,6,0,P|328:70|315:5,1,128,0|2,1:0|0:1,0:0:0:0:
245,104,13736,2,0,P|168:142|99:148,1,128,2|2,0:0|0:0,0:0:0:0:
6,85,14209,1,2,0:1:0:0:
65,42,14367,2,0,P|110:54|145:71,1,64,0|0,0:0|1:0,0:0:0:0:
132,68,14841,5,0,0:1:0:0:
179,165,14999,1,2,0:0:0:0:
212,61,15157,2,0,P|230:100|248:124,1,64,2|0,0:0|0:0,0:0:0:0:
83,188,15473,2,0,P|83:150|79:105,1,64,2|0,0:1|0:0,0:0:0:0:
353,186,15788,38,0,P|272:193|229:239,1,128,0|0,1:0|0:1,0:0:0:0:
186,269,16262,2,0,P|115:297|41:300,1,128,2|2,0:0|0:0,0:0:0:0:
200,346,16736,1,2,0:1:0:0:
269,316,16894,2,0,P|301:324|346:342,1,64,0|0,0:0|1:0,0:0:0:0:
326,340,17367,2,0,P|301:314|281:281,1,64,2|0,0:1|0:0,0:0:0:0:
372,185,17683,2,0,P|417:204|452:229,1,64,2|0,0:0|0:0,0:0:0:0:
429,211,17920,1,0,0:0:0:0:
429,211,17999,1,2,1:1:0:0:
430,228,18315,6,0,P|388:178|410:110,1,128,0|2,1:0|0:1,0:0:0:0:
352,65,18788,1,2,0:0:0:0:
464,0,18946,2,0,P|486:35|498:72,1,64,2|0,0:0|0:0,0:0:0:0:
494,56,19183,1,0,0:0:0:0:
494,56,19262,2,0,L|406:78,1,64,0|2,0:0|0:0,0:0:0:0:
242,124,19560,5,8,0:0:0:0:
374,187,19717,1,8,0:0:0:0:
174,177,20191,37,8,0:0:0:0:
351,123,20349,1,8,0:0:0:0:
351,123,20823,6,0,P|283:141|252:145,1,71.9999978027344,4|2,1:0|0:0,0:0:0:0:
490,273,21139,2,0,P|449:237|350:249,1,143.999995605469,8|0,0:0|1:0,0:0:0:0:
309,280,21613,1,2,0:0:0:0:
407,342,21770,1,8,0:0:0:0:
241,368,21928,6,0,P|210:307|201:213,1,143.999995605469,2|0,0:0|0:0,0:0:0:0:
245,173,22402,2,0,P|269:211|285:258,1,71.9999978027344,8|0,0:0|0:0,0:0:0:0:
102,359,22718,2,0,P|117:319|151:274,1,71.9999978027344,0|2,1:0|0:0,0:0:0:0:
326,345,23034,2,0,P|252:369|225:367,1,71.9999978027344,8|2,0:0|0:0,0:0:0:0:
234,292,23349,38,0,B|236:213|281:234|275:131,1,143.999995605469,0|8,1:0|0:0,0:0:0:0:
140,53,23823,1,2,0:0:0:0:
201,9,23981,2,0,P|229:49|238:86,1,71.9999978027344,0|2,0:0|0:0,0:0:0:0:
59,233,24297,2,0,P|149:227|197:168,1,143.999995605469,8|2,0:0|1:0,0:0:0:0:
127,151,24770,1,0,0:0:0:0:
223,277,24928,2,0,L|238:359,1,71.9999978027344,8|2,0:0|0:0,0:0:0:0:
308,340,25244,2,0,L|308:255,1,71.9999978027344,2|0,1:0|0:0,0:0:0:0:
112,292,25560,1,8,0:0:0:0:
224,205,25718,1,2,0:0:0:0:
154,216,25876,5,0,1:1:0:0:
154,216,26034,1,2,0:0:0:0:
154,216,26191,2,0,P|99:202|66:187,1,71.9999978027344,8|2,0:0|0:0,0:0:0:0:
258,306,26507,1,0,1:0:0:0:
258,306,26665,1,2,0:0:0:0:
258,306,26823,2,0,P|205:326|159:335,1,71.9999978027344,8|2,0:0|0:0,0:0:0:0:
325,344,27139,6,0,P|377:362|414:366,1,71.9999978027344,0|0,1:0|0:0,0:0:0:0:
285,197,27455,2,0,P|339:183|380:164,1,71.9999978027344,8|2,0:0|0:0,0:0:0:0:
418,212,27770,2,0,B|432:178|432:178|427:125,1,71.9999978027344,0|0,1:0|0:0,0:0:0:0:
263,80,28086,2,0,B|238:107|238:107|227:158,1,71.9999978027344,8|2,0:0|0:0,0:0:0:0:
90,237,28402,38,0,B|175:219|152:260|246:240,1,143.999995605469,0|8,1:1|0:0,0:0:0:0:
292,283,28876,1,0,0:0:0:0:
174,332,29034,2,0,P|224:349|257:355,1,71.9999978027344,0|2,1:0|0:0,0:0:0:0:
367,292,29349,1,8,0:0:0:0:
432,326,29507,1,0,1:0:0:0:
510,271,29665,6,0,P|485:231|467:189,1,71.9999978027344,0|2,1:0|0:0,0:0:0:0:
290,305,29981,2,0,P|223:329|172:339,1,107.999996704102,8|0,0:0|1:0,0:0:0:0:
140,346,30297,1,8,0:0:0:0:
177,276,30455,1,8,0:0:0:0:
246,244,30613,1,0,1:0:0:0:
299,245,30770,1,0,1:0:0:0:
362,276,30928,5,4,0:0:0:0:
274,317,31086,1,0,0:0:0:0:
432,364,31244,1,0,1:0:0:0:
432,364,31560,2,0,P|410:288|407:273,1,71.9999978027344,8|0,0:0|0:0,0:0:0:0:
422,224,31876,1,2,0:0:0:0:
301,309,32034,1,2,0:0:0:0:
504,187,32191,38,0,P|410:178|340:236,1,180.000006866455,2|2,0:0|0:1,0:0:0:0:
345,227,32744,1,2,0:1:0:0:
345,227,32823,1,8,0:0:0:0:
190,167,33139,1,0,1:0:0:0:
319,299,33455,5,4,0:0:0:0:
210,246,33613,1,0,0:0:0:0:
275,209,33770,1,2,1:0:0:0:
275,209,34086,2,0,P|305:203|351:184,1,71.9999978027344,8|0,0:0|0:0,0:0:0:0:
171,104,34402,1,2,0:0:0:0:
245,144,34560,1,2,0:0:0:0:
117,16,34718,6,0,P|52:19|-6:97,1,143.999995605469,4|8,0:0|0:0,0:0:0:0:
177,179,35191,1,8,0:1:0:0:
165,188,35981,38,0,P|98:211|17:217,2,143.999995605469,0|8|0,0:0|0:0|1:0,0:0:0:0:
220,237,36770,1,2,0:0:0:0:
122,294,36928,1,8,0:0:0:0:
283,277,37086,6,0,P|352:278|412:335,1,143.999995605469,0|0,1:0|0:0,0:0:0:0:
339,196,37560,2,0,P|314:158|294:109,1,71.9999978027344,8|0,0:0|0:0,0:0:0:0:
196,286,37876,2,0,P|185:225|187:182,1,71.9999978027344,0|0,1:0|0:0,0:0:0:0:
344,279,38191,1,8,0:0:0:0:
351,284,38507,6,0,P|379:225|385:125,1,143.999995605469,4|8,0:1|0:0,0:0:0:0:
191,200,38981,2,0,P|165:138|163:48,1,143.999995605469,2|2,0:0|0:0,0:0:0:0:
239,123,39455,1,8,0:0:0:0:
52,259,39613,38,0,B|144:243|125:291|222:272,1,143.999995605469,2|0,0:0|0:0,0:0:0:0:
323,200,40086,2,0,P|359:194|406:177,1,71.9999978027344,8|2,0:0|0:0,0:0:0:0:
446,230,40402,1,0,1:0:0:0:
331,280,40560,1,2,0:0:0:0:
499,324,40718,1,8,0:0:0:0:
506,319,41033,6,0,P|431:316|369:376,1,143.999995605469,4|8,0:0|0:0,0:0:0:0:
259,249,41507,2,0,P|194:225|106:218,1,143.999995605469,2|2,0:0|0:0,0:0:0:0:
74,271,41981,2,0,P|111:292|161:298,1,71.9999978027344,8|2,0:0|0:0,0:0:0:0:
296,229,42297,5,0,0:0:0:0:
302,226,42613,2,0,P|295:171|294:131,1,71.9999978027344,8|2,0:0|0:0,0:0:0:0:
154,243,42928,2,0,P|193:264|233:289,1,71.9999978027344,0|2,1:0|0:0,0:0:0:0:
206,123,43244,2,0,P|160:150|129:161,1,71.9999978027344,8|2,0:0|0:0,0:0:0:0:
1,283,43560,38,0,P|90:287|136:338,1,143.999995605469,4|8,0:0|0:0,0:0:0:0:
188,278,44034,1,2,0:0:0:0:
77,182,44191,1,0,1:0:0:0:
69,178,44507,2,0,P|113:164|158:142,1,71.9999978027344,8|2,0:0|0:1,0:0:0:0:
202,113,44744,1,2,0:1:0:0:
210,105,44823,5,8,0:0:0:0:
231,313,44981,1,8,0:0:0:0:
165,283,45455,5,12,0:0:0:0:
364,189,45613,1,12,0:0:0:0:
373,187,46086,38,0,B|387:108|335:123|356:27,1,143.999995605469,4|8,0:0|0:0,0:0:0:0:
207,132,46560,2,0,P|169:123|127:105,1,71.9999978027344,0|0,0:0|1:0,0:0:0:0:
230,202,46876,1,2,0:0:0:0:
312,126,47034,1,8,0:0:0:0:
422,225,47191,6,0,P|448:305|442:380,1,143.999995605469,2|0,0:0|0:0,0:0:0:0:
342,250,47665,2,0,P|353:195|371:162,1,71.9999978027344,8|2,0:0|0:0,0:0:0:0:
245,93,47981,2,0,P|177:111|146:113,1,71.9999978027344,0|2,1:0|0:0,0:0:0:0:
181,185,48297,2,0,P|227:181|278:185,1,71.9999978027344,8|2,0:0|0:1,0:0:0:0:
415,263,48613,6,0,B|330:241|355:278|253:263,1,143.999995605469,4|8,0:1|0:0,0:0:0:0:
64,320,49086,2,0,B|149:298|124:335|226:320,1,143.999995605469,2|2,0:0|0:0,0:0:0:0:
267,362,49560,1,8,0:0:0:0:
236,202,49718,38,0,P|248:126|229:52,1,143.999995605469,0|0,0:0|0:0,0:0:0:0:
240,69,50113,1,0,0:0:0:0:
240,69,50191,2,0,P|203:93|174:129,1,71.9999978027344,8|2,0:0|0:0,0:0:0:0:
254,249,50507,2,0,P|308:270|342:274,1,71.9999978027344,0|0,1:0|0:0,0:0:0:0:
285,178,50823,1,8,0:0:0:0:
179,220,50981,1,2,0:0:0:0:
95,122,51139,5,0,1:0:0:0:
95,122,51297,1,2,0:3:0:0:
95,122,51455,2,0,P|40:108|3:93,1,71.9999978027344,8|2,0:0|0:0,0:0:0:0:
142,230,51770,1,0,1:0:0:0:
142,230,51928,1,2,0:0:0:0:
142,230,52086,2,0,P|85:257|47:264,1,71.9999978027344,8|2,0:0|0:0,0:0:0:0:
235,202,52402,6,0,P|290:188|327:173,1,71.9999978027344,0|0,1:0|0:0,0:0:0:0:
275,314,52718,2,0,P|332:341|370:348,1,71.9999978027344,8|0,0:0|0:0,0:0:0:0:
370,211,53034,1,0,1:0:0:0:
416,269,53191,1,0,0:0:0:0:
495,109,53349,1,8,0:0:0:0:
448,164,53507,1,10,0:1:0:0:
329,51,53665,38,0,P|271:26|181:17,2,143.999995605469,4|8|0,0:0|0:0|1:0,0:0:0:0:
379,107,54455,1,0,0:0:0:0:
286,149,54613,1,8,0:0:0:0:
479,229,54770,6,0,P|410:227|345:294,1,143.999995605469,4|0,0:0|1:0,0:0:0:0:
214,191,55244,2,0,P|159:181|114:166,1,71.9999978027344,8|8,0:0|0:0,0:0:0:0:
74,142,55481,1,8,0:0:0:0:
64,135,55560,1,12,0:0:0:0:
152,127,55718,1,8,1:3:0:0:
222,179,55876,1,8,1:3:0:0:
235,250,56034,1,8,1:3:0:0:
171,371,56191,5,4,0:0:0:0:
171,371,56507,1,0,1:0:0:0:
171,371,56823,2,0,P|180:338|185:315,1,40,8|0,0:0|0:0,0:0:0:0:
375,283,57139,1,2,0:0:0:0:
342,308,57297,38,0,P|331:262|326:218,1,80,0|8,1:0|0:0,0:0:0:0:
123,200,57770,1,0,0:0:0:0:
217,248,57928,1,0,1:0:0:0:
154,260,58086,2,0,P|169:226|172:213,1,40,8|2,0:0|0:0,0:0:0:0:
365,152,58402,2,0,P|355:127|346:97,1,40,2|2,0:0|0:1,0:0:0:0:
350,114,58639,1,2,0:1:0:0:
350,114,58718,5,4,0:0:0:0:
216,366,59034,1,0,1:0:0:0:
216,366,59349,2,0,P|230:333|235:314,1,40,8|0,0:0|0:0,0:0:0:0:
115,325,59665,1,2,0:0:0:0:
45,305,59823,6,0,P|35:267|29:216,1,80,0|8,1:0|0:0,0:0:0:0:
206,263,60297,1,0,0:0:0:0:
313,305,60455,1,0,1:0:0:0:
279,240,60613,2,0,P|268:209|263:186,1,40,8|0,0:0|1:0,0:0:0:0:
113,221,60928,1,0,1:0:0:0:
154,97,61086,1,0,1:0:0:0:
86,130,61244,37,4,0:0:0:0:
344,289,61560,1,0,1:0:0:0:
344,289,61876,2,0,P|332:251|329:234,1,40,8|0,0:0|0:0,0:0:0:0:
416,273,62191,1,2,0:0:0:0:
235,278,62349,6,0,P|253:238|265:195,1,80,0|8,1:0|0:0,0:0:0:0:
394,157,62823,2,0,P|386:128|381:103,1,40,0|0,1:0|1:0,0:0:0:0:
192,109,63139,2,0,P|200:80|205:55,1,40,8|2,0:0|0:0,0:0:0:0:
444,47,63455,2,0,P|451:72|464:102,1,40,0|0,1:0|0:0,0:0:0:0:
456,85,63691,1,0,0:0:0:0:
456,85,63770,5,4,0:0:0:0:
293,170,63928,2,0,P|301:130|307:78,1,80,0|2,0:0|0:0,0:0:0:0:
412,266,64402,1,8,0:0:0:0:
412,266,64718,1,2,0:0:0:0:
412,266,64876,38,0,P|417:285|424:304,1,40,12|0,0:0|0:0,0:0:0:0:
207,300,65191,2,0,P|201:319|194:338,1,40,12|0,0:0|1:0,0:0:0:0:
368,361,65507,1,2,0:0:0:0:
276,251,65665,1,2,0:1:0:0:
305,320,65823,5,8,0:0:0:0:
309,311,65902,1,8,0:0:0:0:
314,299,65981,2,0,P|313:274|306:259,1,40,8|8,0:0|0:0,0:0:0:0:
354,166,66139,2,0,P|320:138|289:129,1,40,8|8,0:0|0:0,0:0:0:0:
148,186,66297,6,0,P|36:191|-5:235,1,143.999995605469,4|8,0:0|0:0,0:0:0:0:
205,331,66770,1,2,0:0:0:0:
147,283,66928,2,0,P|131:331|129:372,1,71.9999978027344,0|2,1:0|0:0,0:0:0:0:
276,378,67244,2,0,P|285:333|285:296,1,71.9999978027344,8|2,0:0|0:0,0:0:0:0:
159,195,67560,38,0,B|76:172|93:209|2:188,1,143.999995605469,2|8,0:0|0:0,0:0:0:0:
196,102,68034,2,0,P|242:96|283:86,1,71.9999978027344,2|4,0:0|0:3,0:0:0:0:
334,143,68349,1,2,0:0:0:0:
334,143,68428,1,0,0:0:0:0:
334,143,68507,1,8,0:0:0:0:
216,203,68665,1,0,0:0:0:0:
389,265,68823,6,0,P|409:190|400:105,1,143.999995605469,4|8,0:0|0:0,0:0:0:0:
312,246,69297,1,2,0:0:0:0:
384,340,69455,2,0,P|329:357|289:357,1,71.9999978027344,0|2,1:0|0:0,0:0:0:0:
183,235,69770,1,8,0:0:0:0:
263,302,69928,1,2,0:0:0:0:
82,375,70086,6,0,B|62:300|118:310|75:205,1,143.999995605469,0|8,1:0|0:0,0:0:0:0:
194,105,70560,2,0,P|234:91|272:71,1,71.9999978027344,0|4,0:0|0:3,0:0:0:0:
274,154,70876,1,0,0:0:0:0:
133,10,71034,2,0,B|123:74|88:48|86:135,1,107.999996704102,12|0,0:0|0:0,0:0:0:0:
88,106,71349,38,0,P|24:93|0:83,1,71.9999978027344,0|0,0:0|0:0,0:0:0:0:
145,278,71665,1,8,0:0:0:0:
85,235,71823,2,0,P|154:197|229:222,1,143.999995605469,2|2,0:0|0:0,0:0:0:0:
343,269,72297,1,8,0:0:0:0:
215,340,72455,1,2,0:0:0:0:
341,348,72613,6,0,P|406:335|441:332,1,71.9999978027344,0|2,1:0|0:0,0:0:0:0:
398,179,72928,1,8,0:0:0:0:
272,262,73086,1,2,0:0:0:0:
512,258,73244,6,0,P|447:245|412:242,1,71.9999978027344,0|0,1:0|1:0,0:0:0:0:
237,188,73560,1,8,0:0:0:0:
237,188,73876,1,4,0:1:0:0:
316,118,74113,1,0,0:0:0:0:
316,118,74191,1,8,0:0:0:0:
421,131,74349,1,2,1:0:0:0:
243,103,74507,37,8,0:0:0:0:
377,70,74744,1,0,0:0:0:0:
377,70,74823,1,8,0:0:0:0:
486,171,74981,1,0,1:0:0:0:
364,142,75139,5,8,0:0:0:0:
468,263,75376,1,0,0:0:0:0:
468,263,75455,1,8,0:0:0:0:
328,357,75613,1,0,1:0:0:0:
304,226,75770,5,14,0:0:0:0:
409,310,75928,1,0,1:0:0:0:
227,382,76086,2,0,P|212:339|228:261,1,107.999996704102,8|0,0:0|0:0,0:0:0:0:
255,214,76402,37,12,0:0:0:0:
114,283,76560,1,0,1:3:0:0:
114,283,76639,1,0,0:0:0:0:
114,283,76718,1,0,1:3:0:0:
194,172,76876,5,12,0:0:0:0:
346,223,77034,1,2,1:3:0:0:
346,223,77113,1,0,0:0:0:0:
346,223,77191,1,2,1:3:0:0:
232,105,77349,5,12,0:0:0:0:
90,153,77507,2,0,P|39:147|-9:132,1,71.9999978027344,2|2,1:3|1:3,0:0:0:0:
225,235,77823,37,12,0:0:0:0:
146,107,77981,1,2,1:3:0:0:
146,107,78060,1,0,0:0:0:0:
146,107,78139,1,2,1:3:0:0:
38,260,78297,5,8,0:0:0:0:
237,135,78455,2,0,P|209:141|191:160,1,35.9999989013672,2|2,0:3|0:3,0:0:0:0:
95,116,78613,2,0,P|64:132|53:152,1,35.9999989013672,2|2,0:3|0:3,0:0:0:0:
115,208,78770,6,0,P|131:149|139:80,1,120,14|0,3:0|0:0,0:0:0:0:
138,90,79086,2,0,P|82:71|52:56,1,80,0|8,1:0|0:0,0:0:0:0:
207,226,79402,1,2,0:0:0:0:
311,114,79560,1,0,1:0:0:0:
230,156,79718,2,0,P|217:111|222:57,1,80,2|8,0:0|0:0,0:0:0:0:
488,185,80034,38,0,P|422:175|341:253,1,160,2|2,1:3|0:3,0:0:0:0:
400,282,80507,1,8,0:0:0:0:
187,330,80665,2,0,P|230:345|282:357,1,80,2|0,0:3|1:0,0:0:0:0:
351,228,80981,1,2,0:3:0:0:
226,266,81139,1,0,0:0:0:0:
494,317,81297,6,0,B|403:287|420:333|333:316,1,160,2|2,0:0|0:0,0:0:0:0:
168,176,81770,1,8,0:0:0:0:
293,242,81928,1,2,0:3:0:0:
105,215,82086,2,0,L|14:235,1,80,0|0,1:0|1:0,0:0:0:0:
183,91,82402,1,8,0:0:0:0:
275,168,82560,6,0,P|234:126|263:35,1,160,2|2,0:3|0:3,0:0:0:0:
414,170,83034,1,8,0:0:0:0:
348,206,83191,1,2,0:3:0:0:
348,206,83270,1,0,0:0:0:0:
348,206,83349,1,0,1:0:0:0:
429,97,83507,1,2,0:0:0:0:
482,220,83665,2,0,P|445:240|419:244,1,40,8|8,0:0|0:0,0:0:0:0:
349,126,83823,2,0,P|320:113|284:105,1,40,8|8,0:0|0:0,0:0:0:0:
167,217,83981,37,4,0:0:0:0:
167,217,84297,2,0,L|82:240,1,80,8|0,0:0|0:0,0:0:0:0:
187,356,84613,1,0,1:0:0:0:
309,276,84770,1,0,1:0:0:0:
262,177,84928,2,0,P|238:227|238:280,1,80,8|2,0:0|0:0,0:0:0:0:
416,381,85244,6,0,P|450:331|442:252,1,120,0|0,1:0|0:0,0:0:0:0:
450,273,85560,2,0,P|397:248|360:225,1,80,8|0,0:0|0:0,0:0:0:0:
230,62,85876,1,2,0:0:0:0:
301,42,86034,1,0,0:0:0:0:
204,137,86191,1,8,0:0:0:0:
157,15,86349,1,2,0:1:0:0:
125,86,86507,6,0,P|78:112|33:125,1,80,0|2,1:0|0:0,0:0:0:0:
206,334,86823,2,0,P|193:275|192:215,1,120,8|0,0:0|0:0,0:0:0:0:
192,215,87139,2,0,P|245:197|286:170,1,80,0|0,1:3|0:0,0:0:0:0:
114,306,87455,1,8,0:0:0:0:
75,244,87613,38,0,P|5:279|36:371,1,160,2|2,0:0|0:0,0:0:0:0:
170,181,88086,2,0,P|203:156|226:118,1,80,8|2,0:0|0:0,0:0:0:0:
340,324,88402,2,0,P|337:278|314:231,1,80,0|8,1:0|0:0,0:0:0:0:
255,222,88639,1,8,0:0:0:0:
236,229,88718,1,8,0:0:0:0:
428,350,88876,6,0,B|320:325|347:373|237:346,1,160,4|0,0:0|1:0,0:0:0:0:
86,229,89349,1,8,0:0:0:0:
156,258,89507,1,2,0:0:0:0:
10,362,89665,1,0,1:0:0:0:
75,323,89823,2,0,P|152:349|178:367,1,80,2|8,0:0|0:0,0:0:0:0:
369,196,90139,6,0,P|289:190|221:250,1,160,2|2,1:3|0:3,0:0:0:0:
288,281,90613,1,8,0:0:0:0:
126,371,90770,2,0,P|108:324|107:277,1,80,2|0,0:3|0:0,0:0:0:0:
179,301,91086,1,2,0:3:0:0:
306,91,91244,2,0,P|332:167|333:214,1,120,8|0,0:0|0:0,0:0:0:0:
333,206,91560,38,0,L|425:231,1,80,0|0,0:0|1:0,0:0:0:0:
172,138,91876,1,8,0:0:0:0:
237,179,92034,1,2,0:0:0:0:
341,44,92191,1,0,1:0:0:0:
273,75,92349,1,2,0:0:0:0:
412,180,92507,2,0,P|433:135|438:87,1,80,8|2,0:0|0:3,0:0:0:0:
212,23,92823,6,0,L|117:42,1,80,0|2,1:0|0:3,0:0:0:0:
288,191,93139,2,0,B|213:168|219:207|147:189,1,120,8|0,0:0|0:0,0:0:0:0:
169,193,93455,2,0,P|130:225|116:273,1,80,0|2,1:0|0:0,0:0:0:0:
270,382,93770,1,8,0:0:0:0:
315,382,93849,1,8,0:0:0:0:
356,358,93928,1,8,0:0:0:0:
378,313,94007,1,8,0:0:0:0:
367,260,94086,6,0,P|425:287|464:294,1,80,4|0,0:0|0:0,0:0:0:0:
199,349,94402,2,0,P|159:320|169:242,1,120,8|0,0:0|0:0,0:0:0:0:
159,254,94718,2,0,P|108:237|66:213,1,80,0|0,1:0|0:0,0:0:0:0:
279,176,95034,1,8,0:0:0:0:
24,185,95191,38,0,P|120:192|170:142,1,160,0|2,1:0|0:0,0:0:0:0:
267,249,95665,1,8,0:0:0:0:
92,288,95823,2,0,P|152:312|186:318,1,80,2|0,0:0|1:0,0:0:0:0:
310,189,96139,5,0,1:0:0:0:
187,246,96297,1,8,0:0:0:0:
280,121,96455,5,0,1:0:0:0:
489,211,96613,2,0,P|431:246|334:258,1,160,8|0,0:0|1:0,0:0:0:0:
18,267,97086,2,0,P|76:302|173:314,1,160,12|0,0:0|1:0,0:0:0:0:
243,377,97560,2,0,P|260:333|263:268,1,80,12|0,0:0|0:0,0:0:0:0:
99,134,97876,38,0,P|82:178|79:243,1,80,12|0,0:0|0:0,0:0:0:0:
297,235,98191,2,0,B|377:215|360:251|448:235,1,120,8|8,0:0|1:3,0:0:0:0:
484,213,98507,2,0,L|502:167,1,40,8|8,0:0|0:0,0:0:0:0:
470,335,98665,2,0,L|488:381,1,40,8|8,0:0|0:0,0:0:0:0:
420,163,98823,2,0,L|406:126,1,40,0|0,1:0|0:0,0:0:0:0:
394,344,98981,2,0,L|379:381,1,40,0|0,0:0|0:0,0:0:0:0:
217,219,99139,5,2,0:0:0:0:
256,192,99218,12,0,101665,0:0:0:0:
24,108,103402,5,0,1:0:0:0:
24,108,103481,1,0,1:0:0:0:
24,108,103560,1,8,0:0:0:0:
207,157,103718,1,8,0:0:0:0:
207,157,104034,6,0,B|119:117|58:197,1,160,4|2,0:0|0:0,0:0:0:0:
265,101,104507,2,0,B|297:61|294:19,1,80,8|2,0:0|0:0,0:0:0:0:
409,237,104823,2,0,B|405:188|361:156,1,80,0|2,1:0|0:3,0:0:0:0:
280,310,105139,1,10,0:0:0:0:
467,320,105297,6,0,B|433:233|335:261,1,160,2|2,0:3|0:0,0:0:0:0:
212,340,105770,2,0,L|126:357,1,80,8|0,0:0|0:0,0:0:0:0:
133,355,106007,1,0,0:0:0:0:
133,355,106086,2,0,L|218:374,1,80,2|2,0:1|0:1,0:0:0:0:
104,171,106402,1,8,0:0:0:0:
76,291,106560,54,0,B|114:194|21:157,1,160,4|2,0:0|0:0,0:0:0:0:
236,241,107034,2,0,B|278:258|329:263,1,80,8|0,0:0|0:0,0:0:0:0:
206,310,107349,5,0,1:0:0:0:
315,187,107507,1,2,0:0:0:0:
129,130,107665,53,8,0:0:0:0:
236,241,107823,2,0,B|136:215|98:316,1,160,0|2,1:0|0:0,0:0:0:0:
267,125,108297,2,0,B|295:88|296:40,1,80,8|0,0:0|0:0,0:0:0:0:
377,231,108613,5,2,0:3:0:0:
502,99,108770,1,2,0:3:0:0:
363,151,108928,54,0,P|390:159|416:173,1,40,8|0,0:0|0:0,0:0:0:0:
473,171,109086,2,0,P|446:179|420:193,1,40,8|8,0:0|0:0,0:0:0:0:
408,369,109244,6,0,B|499:194|318:257|439:58,1,320,4|0,0:0|1:0,0:0:0:0:
489,112,110034,1,2,0:3:0:0:
361,168,110191,1,8,0:0:0:0:
205,37,110349,54,0,B|298:8|334:97,1,160,2|2,0:3|0:0,0:0:0:0:
171,221,110823,2,0,B|132:243|65:250,1,80,8|2,0:0|0:0,0:0:0:0:
13,221,111060,1,0,0:0:0:0:
18,203,111139,2,0,B|152:153|229:277,1,240,2|2,0:0|0:0,0:0:0:0:
233,280,111691,1,0,0:0:0:0:
233,280,111770,2,0,B|331:436|509:361,1,320,2|0,0:0|1:0,0:0:0:0:
279,218,112560,1,2,0:0:0:0:
363,305,112718,1,8,0:0:0:0:
210,247,112876,6,0,L|120:263,1,80,0|0,1:0|0:0,0:0:0:0:
426,184,113191,2,0,L|516:200,1,80,0|8,1:0|0:0,0:0:0:0:
262,132,113507,2,2,L|172:148,1,80,2|0,0:0|0:0,0:0:0:0:
194,72,113823,1,2,0:0:0:0:
332,202,113981,2,0,B|360:163|359:110,1,80,8|2,0:0|0:0,0:0:0:0:
453,91,114218,1,0,0:0:0:0:
458,108,114297,6,0,B|359:129|312:18,1,160,12|0,0:0|1:0,0:0:0:0:
82,205,114770,2,0,B|181:226|228:115,1,160,12|0,0:0|1:0,0:0:0:0:
268,193,115244,1,8,0:0:0:0:
455,341,115402,6,0,B|356:362|309:251,1,160,4|0,0:0|1:0,0:0:0:0:
321,277,115797,1,0,0:0:0:0:
321,277,115876,2,0,B|287:313|282:375,1,80,12|4,0:0|0:1,0:0:0:0:
146,240,116191,6,0,P|174:258|197:280,1,40,8|0,0:0|0:0,0:0:0:0:
403,192,116349,2,0,P|373:223|364:245,1,40,4|4,0:1|0:1,0:0:0:0:
168,152,116507,2,0,P|197:188|208:218,1,40,8|0,0:0|1:0,0:0:0:0:
337,115,116665,2,0,P|330:156|329:184,1,40,0|0,1:0|1:0,0:0:0:0:
224,3,116823,37,12,0:0:0:0:
281,55,116981,1,2,0:0:0:0:
211,83,117139,1,2,0:0:0:0:
407,93,117297,5,12,0:0:0:0:
401,169,117455,1,2,0:0:0:0:
330,154,117613,1,2,0:0:0:0:
496,304,117770,5,8,0:0:0:0:
444,357,117928,2,0,B|338:388|305:282,1,160,4|8,0:0|0:0,0:0:0:0:
483,231,118402,37,8,0:0:0:0:
251,370,118560,1,2,0:0:0:0:
37,165,119349,6,0,P|115:167|174:222,1,143.999995605469,4|0,0:0|1:0,0:0:0:0:
231,239,119823,1,0,0:0:0:0:
94,308,119981,1,0,1:0:0:0:
94,308,120297,2,0,P|139:329|175:338,1,71.9999978027344,8|0,0:1|0:0,0:0:0:0:
305,227,120612,6,0,P|283:134|275:79,2,143.999995605469,0|8|0,1:0|0:1|1:0,0:0:0:0:
250,275,121402,1,2,0:0:0:0:
394,342,121560,1,0,1:1:0:0:
394,342,121876,38,0,P|334:368|308:374,1,71.9999978027344,2|0,0:3|0:0,0:0:0:0:
254,351,122191,1,8,0:1:0:0:
370,264,122349,2,0,B|465:247|439:280|525:271,1,143.999995605469,0|2,0:0|0:0,0:0:0:0:
369,188,122823,1,8,0:1:0:0:
437,90,122981,6,0,P|378:112|341:122,1,71.9999978027344,2|2,0:0|1:3,0:0:0:0:
305,149,123297,1,0,0:0:0:0:
447,244,123455,1,8,0:1:0:0:
447,244,123770,2,0,P|463:200|469:157,1,71.9999978027344,2|0,0:0|0:0,0:0:0:0:
422,43,124007,1,0,0:0:0:0:
413,49,124086,2,0,P|397:93|391:136,1,71.9999978027344,8|0,0:1|0:0,0:0:0:0:
502,104,124402,5,4,0:0:0:0:
502,104,124718,1,8,0:1:0:0:
331,63,124876,2,0,B|251:41|267:79|178:64,1,143.999995605469,2|2,0:3|0:1,0:0:0:0:
313,137,125349,2,0,P|359:156|397:165,1,71.9999978027344,0|2,1:1|0:0,0:0:0:0:
163,239,125665,38,0,P|99:222|25:266,1,143.999995605469,4|8,0:1|0:1,0:0:0:0:
196,173,126139,2,0,P|225:160|270:123,1,71.9999978027344,0|0,0:0|1:0,0:0:0:0:
302,324,126455,2,0,P|329:280|343:233,1,71.9999978027344,0|8,0:0|0:1,0:0:0:0:
237,286,126770,1,2,0:0:0:0:
448,168,126928,6,0,P|377:158|299:203,1,143.999995605469,0|8,1:0|0:1,0:0:0:0:
244,208,127402,1,2,0:0:0:0:
330,263,127560,1,0,1:0:0:0:
184,349,127718,1,2,0:0:0:0:
184,349,127797,1,0,0:0:0:0:
184,349,127876,2,0,P|164:300|162:259,1,71.9999978027344,8|2,0:1|0:1,0:0:0:0:
261,135,128191,5,8,0:0:0:0:
305,338,128349,1,8,0:0:0:0:
236,308,128823,37,8,0:0:0:0:
426,184,128981,1,8,0:0:0:0:
426,184,129455,6,0,P|439:230|461:278,1,71.9999978027344,4|0,0:0|0:0,0:0:0:0:
257,184,129770,2,0,P|200:156|112:162,1,143.999995605469,8|0,0:0|1:0,0:0:0:0:
228,255,130244,2,0,P|282:285|321:295,1,71.9999978027344,2|8,0:0|0:0,0:0:0:0:
352,239,130560,6,0,P|348:179|315:69,1,143.999995605469,2|2,0:0|0:0,0:0:0:0:
382,47,131034,2,0,P|412:91|438:117,1,71.9999978027344,8|2,0:0|0:0,0:0:0:0:
247,186,131349,1,0,1:0:0:0:
179,67,131507,1,0,0:0:0:0:
248,105,131665,1,8,0:0:0:0:
248,105,131981,38,0,B|164:88|183:131|82:115,1,143.999995605469,0|8,1:0|0:0,0:0:0:0:
271,244,132455,1,2,0:0:0:0:
331,198,132613,2,0,P|347:240|366:278,1,71.9999978027344,0|2,1:0|0:0,0:0:0:0:
185,310,132928,2,0,P|187:253|186:214,1,71.9999978027344,8|2,0:0|0:0,0:0:0:0:
373,342,133244,5,0,1:0:0:0:
373,342,133560,2,0,P|418:362|457:375,1,71.9999978027344,8|2,0:0|0:3,0:0:0:0:
245,258,133876,2,0,P|178:251|107:293,1,143.999995605469,0|8,1:0|0:0,0:0:0:0:
162,344,134349,1,2,0:0:0:0:
303,202,134507,6,0,P|334:250|343:287,1,71.9999978027344,0|2,1:0|0:0,0:0:0:0:
455,142,134823,2,0,P|435:199|410:228,1,71.9999978027344,8|2,0:0|0:0,0:0:0:0:
268,78,135139,38,0,P|237:126|228:163,1,71.9999978027344,0|2,1:0|0:0,0:0:0:0:
116,18,135455,2,0,P|136:75|161:104,1,71.9999978027344,8|2,0:0|0:0,0:0:0:0:
261,211,135770,6,0,B|347:182|335:217|411:205,2,143.999995605469,0|8|2,1:0|0:0|1:0,0:0:0:0:
206,259,136560,1,0,0:0:0:0:
322,317,136718,2,0,P|261:340|225:348,1,71.9999978027344,8|2,0:0|0:1,0:0:0:0:
138,225,137034,6,0,P|156:175|167:135,1,71.9999978027344,12|0,0:0|0:0,0:0:0:0:
408,213,137349,2,0,P|329:213|274:269,1,143.999995605469,8|0,0:0|1:0,0:0:0:0:
229,203,137823,1,0,0:0:0:0:
302,49,137981,2,0,P|327:100|331:134,1,71.9999978027344,8|2,0:0|0:0,0:0:0:0:
210,278,138297,37,12,0:0:0:0:
305,186,138455,1,2,0:0:0:0:
469,246,138613,2,0,B|403:229|412:255|354:246,1,107.999996704102,12|0,0:0|0:0,0:0:0:0:
362,247,138928,5,8,1:0:0:0:
239,220,139086,5,8,1:3:0:0:
166,163,139244,5,8,1:3:0:0:
146,97,139402,5,8,1:3:0:0:
151,50,139560,6,0,P|177:62|217:72,1,60,4|0,0:0|0:0,0:0:0:0:
194,59,139876,6,0,P|125:57|55:98,1,143.999995605469,0|0,0:0|0:0,0:0:0:0:
84,225,140191,6,0,P|104:172|109:129,1,71.9999978027344,8|0,0:0|0:0,0:0:0:0:
11,198,140507,1,2,0:0:0:0:
145,307,140665,2,0,B|225:283|211:324|312:307,1,143.999995605469,0|8,1:0|0:0,0:0:0:0:
425,206,141139,37,2,0:0:0:0:
355,240,141297,1,2,0:0:0:0:
512,255,141455,2,0,P|474:269|420:280,1,71.9999978027344,8|0,0:0|0:0,0:0:0:0:
264,144,141770,2,0,P|302:158|356:169,1,71.9999978027344,0|2,1:0|0:1,0:0:0:0:
194,292,142086,6,0,P|168:306|131:317,1,60,0|0,1:0|0:0,0:0:0:0:
167,328,142402,6,0,P|189:245|139:191,1,143.999995605469,2|0,1:2|0:0,0:0:0:0:
88,262,142718,38,0,P|50:280|2:291,1,71.9999978027344,8|2,0:0|0:0,0:0:0:0:
137,85,143034,1,2,0:0:0:0:
102,149,143191,2,0,P|63:128|81:23,1,143.999995605469,0|8,1:0|0:0,0:0:0:0:
193,174,143665,5,2,0:0:0:0:
135,223,143823,1,0,1:0:0:0:
281,171,143981,2,0,P|339:182|396:199,1,107.999996704102,12|0,0:0|0:0,0:0:0:0:
386,195,144297,1,0,1:0:0:0:
296,100,144455,1,0,1:0:0:0:
458,161,144613,6,0,P|441:120|433:87,1,60,4|0,0:0|0:0,0:0:0:0:
463,121,144928,38,0,P|415:164|416:268,1,143.999995605469,2|0,1:2|0:0,0:0:0:0:
468,321,145244,6,0,P|410:342|370:348,1,71.9999978027344,8|0,0:0|0:0,0:0:0:0:
228,262,145560,1,2,0:0:0:0:
292,299,145718,2,0,L|123:266,1,143.999995605469,0|2,1:0|0:0,0:0:0:0:
98,344,146191,6,0,P|81:304|75:250,1,71.9999978027344,2|0,0:0|1:0,0:0:0:0:
190,119,146507,2,0,P|226:103|273:77,1,71.9999978027344,8|0,0:0|0:0,0:0:0:0:
301,145,146823,2,0,P|257:190|236:217,1,71.9999978027344,2|8,0:0|0:3,0:0:0:0:
176,362,147139,37,4,0:0:0:0:
217,303,147297,1,8,0:0:0:0:
126,251,147455,1,2,3:0:0:0:
126,251,147770,2,0,P|56:277|35:281,1,71.9999978027344,8|0,0:0|0:0,0:0:0:0:
157,103,148086,1,8,0:0:0:0:
192,167,148244,6,0,P|182:123|257:57,1,143.999995605469,2|2,0:1|0:0,0:0:0:0:
364,162,148718,2,0,P|412:179|442:186,1,71.9999978027344,12|2,0:0|0:0,0:0:0:0:
243,221,149034,6,0,P|225:239|211:260,1,35.9999989013672,12|0,0:3|0:0,0:0:0:0:
278,155,149191,2,0,P|283:128|296:100,1,35.9999989013672,8|8,0:0|0:0,0:0:0:0:
310,308,149349,1,8,0:0:0:0:
278,346,149428,1,8,0:0:0:0:
232,360,149507,1,2,1:1:0:0:
189,348,149586,1,2,1:1:0:0:
155,312,149665,38,0,P|174:237|187:160,1,143.999995605469,4|8,0:0|0:0,0:0:0:0:
89,36,150139,2,0,P|39:22|4:7,1,71.9999978027344,2|0,0:0|1:0,0:0:0:0:
84,147,150455,1,2,0:0:0:0:
192,49,150613,1,8,0:0:0:0:
25,108,150770,6,0,B|114:96|96:133|183:124,1,143.999995605469,2|2,0:0|0:0,0:0:0:0:
359,69,151244,2,0,P|401:88|449:102,1,71.9999978027344,8|0,0:0|0:0,0:0:0:0:
313,152,151560,2,0,P|358:178|407:190,1,71.9999978027344,4|0,0:3|0:0,0:0:0:0:
129,58,151876,1,8,0:0:0:0:
197,192,152034,1,0,0:0:0:0:
198,77,152191,6,0,P|119:123|134:192,1,143.999995605469,4|8,0:0|0:0,0:0:0:0:
235,317,152665,1,2,0:0:0:0:
294,269,152823,2,0,P|318:322|342:358,1,71.9999978027344,0|2,1:0|0:0,0:0:0:0:
145,371,153139,2,0,P|149:322|147:275,1,71.9999978027344,8|0,0:0|1:0,0:0:0:0:
350,208,153455,38,0,P|432:231|473:236,1,107.999996704102,0|0,1:0|0:0,0:0:0:0:
454,234,153770,1,8,0:0:0:0:
324,277,153928,1,0,0:0:0:0:
435,309,154086,2,0,P|392:335|342:342,1,71.9999978027344,4|0,0:3|0:0,0:0:0:0:
274,221,154402,2,0,P|227:200|181:190,1,71.9999978027344,12|0,0:0|0:0,0:0:0:0:
54,308,154718,6,0,B|147:290|125:335|217:320,1,143.999995605469,4|8,0:0|0:0,0:0:0:0:
377,215,155191,2,0,P|381:146|354:45,1,143.999995605469,2|2,0:0|0:0,0:0:0:0:
245,137,155665,1,8,0:0:0:0:
305,182,155823,1,2,0:0:0:0:
200,73,155981,6,0,P|171:119|165:157,1,71.9999978027344,4|0,0:0|0:0,0:0:0:0:
178,245,156297,2,0,P|143:234|110:202,1,71.9999978027344,10|0,0:0|0:0,0:0:0:0:
327,135,156613,38,0,P|365:172|383:206,1,71.9999978027344,2|0,0:0|0:0,0:0:0:0:
410,283,156928,2,0,P|449:249|467:205,1,71.9999978027344,8|0,0:0|1:0,0:0:0:0:
172,262,157244,5,8,0:0:0:0:
85,334,157481,1,0,0:0:0:0:
85,334,157560,1,8,0:0:0:0:
39,265,157718,1,0,1:0:0:0:
260,335,157876,5,8,0:0:0:0:
154,297,158113,1,0,0:0:0:0:
154,297,158191,1,8,0:0:0:0:
155,202,158349,1,0,1:0:0:0:
326,377,158507,37,12,0:0:0:0:
322,240,158744,1,0,0:0:0:0:
322,240,158823,1,8,0:0:0:0:
429,179,158981,1,2,0:0:0:0:
351,306,159139,5,8,0:0:0:0:
245,218,159297,1,2,0:0:0:0:
93,246,159455,2,0,P|161:262|221:285,1,107.999996704102,8|0,0:0|0:0,0:0:0:0:
196,274,159770,5,8,0:0:0:0:
321,188,159928,1,2,0:3:0:0:
321,188,160007,1,0,0:0:0:0:
321,188,160086,1,2,0:3:0:0:
148,61,160244,37,8,0:0:0:0:
237,181,160402,1,2,0:3:0:0:
237,181,160481,1,0,0:0:0:0:
237,181,160560,1,2,0:3:0:0:
401,42,160718,5,8,0:0:0:0:
263,106,160876,1,2,0:3:0:0:
453,196,161034,5,8,1:3:0:0:
351,100,161270,1,8,0:0:0:0:
351,100,161349,1,0,1:0:0:0:
466,303,161507,1,6,0:1:0:0:
407,256,161823,38,0,P|372:269|348:286,1,35.9999989013672,2|2,0:1|0:1,0:0:0:0:
227,368,161981,2,0,P|204:359|179:344,1,35.9999989013672,2|2,0:1|0:1,0:0:0:0:
298,284,162139,6,0,L|480:328,1,160,14|0,3:0|1:0,0:0:0:0:
305,209,162613,1,8,0:0:0:0:
183,270,162770,1,2,0:0:0:0:
112,153,162928,1,0,1:0:0:0:
197,199,163086,2,0,P|225:150|230:108,1,80,2|8,0:0|0:0,0:0:0:0:
0,287,163411,6,0,P|88:291|144:359,1,160,2|2,0:3|0:3,0:0:0:0:
307,247,163884,1,8,0:0:0:0:
421,271,164042,2,0,P|379:269|305:318,1,120,2|0,0:3|0:0,0:0:0:0:
313,306,164357,2,0,P|368:333|416:340,1,80,2|8,0:3|0:0,0:0:0:0:
505,186,164673,38,0,P|488:126|474:50,1,120,2|0,0:1|0:0,0:0:0:0:
476,69,164989,2,0,P|432:53|392:33,1,80,0|8,0:0|0:0,0:0:0:0:
284,140,165305,1,2,0:0:0:0:
352,101,165463,1,0,1:0:0:0:
257,216,165621,1,2,0:0:0:0:
257,216,165699,1,0,0:0:0:0:
257,216,165778,1,8,0:0:0:0:
162,92,165936,6,0,P|126:150|119:185,1,80,2|0,0:3|0:0,0:0:0:0:
202,279,166252,1,2,0:3:0:0:
290,148,166410,1,8,0:0:0:0:
126,294,166568,2,0,P|203:366|273:349,1,160,2|2,0:3|0:3,0:0:0:0:
255,230,167042,6,0,P|235:264|234:298,1,40,8|8,0:0|0:0,0:0:0:0:
366,380,167199,2,0,P|414:369|434:357,1,40,8|8,0:0|0:0,0:0:0:0:
448,164,167357,37,4,0:0:0:0:
448,164,167673,2,0,P|402:186|354:202,1,80,8|2,0:0|0:0,0:0:0:0:
243,58,167989,1,0,1:0:0:0:
348,130,168147,1,0,0:0:0:0:
176,221,168305,5,8,0:0:0:0:
260,157,168463,2,0,B|164:153|195:197|99:192,1,160,2|2,0:0|0:0,0:0:0:0:
259,73,168936,2,0,P|302:62|357:41,1,80,8|0,0:0|0:0,0:0:0:0:
272,252,169252,1,0,1:0:0:0:
143,151,169410,2,0,P|142:83|154:20,1,120,2|0,0:0|0:0,0:0:0:0:
150,31,169726,2,0,P|97:16|62:1,1,80,2|4,0:1|0:0,0:0:0:0:
168,236,170042,5,0,0:0:0:0:
194,169,170199,2,0,B|127:148|136:182|56:165,1,120,8|0,0:0|0:0,0:0:0:0:
75,168,170515,2,0,P|22:188|-18:193,1,80,0|0,1:0|0:0,0:0:0:0:
215,252,170831,1,8,0:0:0:0:
27,340,170989,1,0,0:0:0:0:
45,268,171147,38,0,P|108:280|177:309,1,120,8|0,0:0|0:0,0:0:0:0:
159,300,171463,2,0,P|133:260|126:208,1,80,8|0,0:0|0:0,0:0:0:0:
294,202,171778,2,8,P|305:156|327:113,1,80,8|8,1:3|0:0,0:0:0:0:
383,75,172015,1,8,0:0:0:0:
395,70,172094,1,8,0:0:0:0:
219,179,172252,6,0,B|314:168|288:202|387:200,1,160,4|0,0:0|1:1,0:0:0:0:
210,254,172726,1,8,0:0:0:0:
357,342,172884,1,2,0:0:0:0:
284,328,173042,2,0,P|225:341|183:358,1,80,0|2,1:0|0:0,0:0:0:0:
319,161,173357,1,8,0:0:0:0:
285,229,173515,6,0,B|261:144|305:159|270:59,1,160,2|2,0:3|0:3,0:0:0:0:
390,220,173989,1,8,0:0:0:0:
479,117,174147,2,0,P|443:135|396:149,1,80,2|0,0:3|1:0,0:0:0:0:
383,296,174463,2,0,P|425:317|465:343,1,80,2|8,0:3|0:0,0:0:0:0:
333,127,174778,38,0,P|267:118|193:193,1,160,2|0,0:1|0:0,0:0:0:0:
150,361,175252,1,8,0:0:0:0:
245,237,175410,1,2,0:0:0:0:
170,254,175568,1,0,1:0:0:0:
314,322,175726,2,0,P|250:349|216:358,1,80,0|8,0:0|0:0,0:0:0:0:
351,145,176042,6,0,B|450:126|431:168|524:156,1,160,2|2,0:3|0:3,0:0:0:0:
419,219,176515,1,8,0:0:0:0:
284,102,176673,2,0,P|248:168|242:208,1,80,2|0,0:3|1:0,0:0:0:0:
328,300,176989,1,8,0:0:0:0:
175,189,177147,1,8,0:0:0:0:
131,172,177226,1,8,0:0:0:0:
81,179,177305,1,8,0:0:0:0:
44,216,177384,1,8,0:0:0:0:
39,263,177463,6,0,P|102:285|165:291,1,120,4|0,0:0|0:0,0:0:0:0:
154,291,177778,2,0,P|176:247|182:185,1,80,8|0,0:0|0:0,0:0:0:0:
339,312,178094,1,0,1:0:0:0:
268,342,178252,1,0,0:0:0:0:
330,240,178410,1,8,0:0:0:0:
470,331,178568,38,0,P|489:260|482:153,1,160,2|2,0:0|0:0,0:0:0:0:
314,166,179042,1,8,0:0:0:0:
420,226,179199,1,2,0:1:0:0:
252,208,179357,2,0,L|161:225,1,80,0|2,1:0|0:0,0:0:0:0:
292,268,179673,1,8,0:0:0:0:
190,145,179831,1,2,1:0:0:0:
22,247,179989,6,0,P|86:241|175:317,1,160,12|0,0:0|1:0,0:0:0:0:
439,149,180463,2,0,P|375:143|286:219,1,160,12|2,0:0|0:0,0:0:0:0:
104,343,180936,2,0,P|85:287|91:234,1,80,12|0,0:0|0:0,0:0:0:0:
245,128,181252,5,0,1:0:0:0:
110,201,181410,1,2,0:1:0:0:
110,201,181489,1,0,0:0:0:0:
110,201,181568,1,12,0:0:0:0:
279,322,181726,1,0,0:0:0:0:
189,176,181884,37,8,0:3:0:0:
247,226,181989,5,8,0:3:0:0:
325,215,182094,5,8,0:3:0:0:
371,188,182199,37,0,1:0:0:0:
414,185,182305,5,8,1:3:0:0:
445,202,182410,5,8,1:3:0:0:
456,218,182515,37,4,0:0:0:0:
256,192,182624,12,2,184438,0:0:0:0:
152,102,191835,5,0,1:0:0:0:
152,102,192149,1,0,1:0:0:0:
348,154,192306,1,2,0:0:0:0:
152,102,192621,6,0,P|216:98|277:157,1,143.999995605469,4|0,0:0|1:0,0:0:0:0:
235,214,193094,1,2,0:0:0:0:
82,138,193252,2,0,P|56:188|52:234,1,71.9999978027344,0|0,1:0|0:0,0:0:0:0:
99,268,193568,2,0,P|141:265|198:245,1,71.9999978027344,0|0,1:0|0:0,0:0:0:0:
335,190,193884,38,0,B|425:199|393:226|482:231,1,143.999995605469,0|0,1:0|1:0,0:0:0:0:
317,310,194357,1,0,0:0:0:0:
433,372,194515,1,0,1:0:0:0:
405,302,194673,1,0,0:0:0:0:
269,371,194831,2,0,P|237:321|236:279,1,71.9999978027344,0|2,1:0|0:0,0:0:0:0:
321,160,195147,6,0,P|356:149|401:126,1,71.9999978027344,4|0,0:0|0:0,0:0:0:0:
430,193,195463,2,0,P|385:220|350:246,1,71.9999978027344,0|0,1:0|0:0,0:0:0:0:
214,152,195778,6,0,P|187:95|182:54,1,71.9999978027344,0|2,1:0|0:0,0:0:0:0:
318,13,196094,2,0,P|289:57|274:100,1,71.9999978027344,0|0,1:0|0:0,0:0:0:0:
148,207,196410,38,0,L|1:227,2,143.999995605469,0|0|0,1:0|1:0|1:0,0:0:0:0:
146,206,197357,1,2,0:0:0:0:
48,285,197515,1,2,0:0:0:0:
178,140,197673,6,0,P|199:103|216:49,1,71.9999978027344,8|0,0:0|0:0,0:0:0:0:
209,75,197989,1,2,0:0:0:0:
276,256,198147,5,12,0:0:0:0:
344,221,198305,1,0,0:0:0:0:
300,158,198463,1,2,0:0:0:0:
434,275,198621,38,0,L|523:293,1,71.9999978027344,12|2,0:0|0:0,0:0:0:0:
228,195,198936,2,0,L|139:213,1,71.9999978027344,0|0,1:0|1:0,0:0:0:0:
331,347,199252,5,12,0:0:0:0:
348,272,199410,1,0,0:0:0:0:
217,283,199568,5,12,0:0:0:0:
196,208,199726,1,0,0:0:0:0:
346,178,199884,37,12,0:0:0:0:
365,104,200042,1,0,0:0:0:0:
170,135,200199,6,0,P|135:95|118:61,1,71.9999978027344,12|0,0:0|1:0,0:0:0:0:
70,133,200515,1,0,1:0:0:0:
255,245,200673,6,0,P|247:191|250:147,1,71.9999978027344,12|0,0:0|1:0,0:0:0:0:
406,252,200989,1,0,1:0:0:0:
294,348,201147,38,0,P|337:320|381:303,1,71.9999978027344,8|2,0:0|0:0,0:0:0:0:
503,375,201463,5,0,1:0:0:0:
436,377,201621,5,2,0:1:0:0:
425,304,201778,37,8,0:0:0:0:
328,307,201936,5,8,0:0:0:0:
286,160,202094,5,8,0:0:0:0:
100,178,202252,37,6,0:1:0:0:
100,178,202568,38,0,B|196:146|251:232,1,160,4|0,0:0|1:0,0:0:0:0:
413,290,203042,2,0,L|506:308,1,80,8|2,0:0|0:0,0:0:0:0:
491,305,203278,1,0,0:0:0:0:
491,305,203357,2,0,L|377:326,1,80,0|0,1:0|0:0,0:0:0:0:
335,249,203673,1,8,0:0:0:0:
209,329,203831,1,0,0:0:0:0:
72,306,203989,6,0,B|147:311|201:235,1,120,0|0,1:0|0:0,0:0:0:0:
179,261,204305,2,0,B|140:225|127:166,1,80,8|0,0:0|0:0,0:0:0:0:
233,62,204621,1,2,1:2:0:0:
233,62,204699,1,0,0:0:0:0:
233,62,204778,1,0,0:0:0:0:
95,129,204936,1,8,0:0:0:0:
392,160,205094,54,0,B|324:95|238:140,1,160,2|0,0:0|0:0,0:0:0:0:
244,136,205489,1,0,0:0:0:0:
244,136,205568,2,0,B|210:172|212:224,1,80,8|0,0:0|0:0,0:0:0:0:
313,335,205884,1,0,1:0:0:0:
398,200,206042,1,2,0:0:0:0:
326,231,206199,1,8,0:0:0:0:
459,381,206357,6,0,B|535:324|498:229,1,160,2|2,0:0|0:0,0:0:0:0:
275,291,206831,2,0,L|180:306,1,80,8|2,0:0|0:0,0:0:0:0:
195,303,207068,1,0,0:0:0:0:
195,303,207147,1,0,1:0:0:0:
356,342,207305,1,0,1:0:0:0:
273,175,207463,1,8,0:0:0:0:
345,244,207621,54,0,P|304:191|363:109,1,160,4|0,0:0|1:0,0:0:0:0:
419,119,208015,1,2,0:1:0:0:
434,128,208094,1,8,0:0:0:0:
297,180,208252,1,2,0:0:0:0:
195,26,208410,1,2,0:1:0:0:
258,64,208568,1,2,0:0:0:0:
164,119,208726,1,8,0:0:0:0:
343,19,208884,6,0,B|436:-12|525:92|430:184,1,240,4|8,0:0|0:0,0:0:0:0:
360,68,209515,1,2,0:0:0:0:
512,202,209673,2,0,B|407:237|372:140,1,160,2|8,1:0|0:0,0:0:0:0:
377,153,210068,1,0,0:0:0:0:
377,153,210147,54,0,B|472:186|460:289,1,160,4|0,0:0|0:0,0:0:0:0:
293,171,210621,2,0,B|249:163|208:138,1,80,8|2,0:0|0:1,0:0:0:0:
322,243,210936,1,0,1:0:0:0:
162,339,211094,1,0,1:0:0:0:
162,339,211173,1,0,0:0:0:0:
162,339,211252,1,8,0:0:0:0:
252,271,211410,6,0,B|343:240|389:320,1,160,4|2,0:0|0:1,0:0:0:0:
211,190,211884,2,0,B|179:153|166:98,1,80,8|2,0:0|0:0,0:0:0:0:
68,287,212199,54,0,P|80:259|106:228,1,40,8|0,0:0|0:0,0:0:0:0:
54,140,212357,2,0,P|74:174|95:197,1,40,8|8,0:0|0:0,0:0:0:0:
189,303,212515,2,0,P|177:286|168:268,1,40,8|0,0:0|0:0,0:0:0:0:
0,223,212673,6,0,B|257:140|111:332|393:261,1,400,4|0,0:0|1:0,0:0:0:0:
360,103,213621,53,0,0:0:0:0:
448,159,213778,1,8,0:0:0:0:
432,68,213936,2,0,B|397:36|338:19,1,80,0|0,0:1|0:0,0:0:0:0:
232,228,214252,5,0,0:0:0:0:
327,175,214410,1,8,0:0:0:0:
265,132,214568,2,0,B|219:140|178:175,1,80,2|0,0:0|1:0,0:0:0:0:
325,374,214884,53,0,1:0:0:0:
363,254,215042,1,8,0:0:0:0:
219,316,215199,2,0,B|281:387|375:346,1,160,2|2,0:1|0:0,0:0:0:0:
363,350,215594,1,0,0:0:0:0:
363,350,215673,2,0,B|401:313|402:252,1,80,8|2,0:0|0:0,0:0:0:0:
241,135,215989,2,0,B|165:134|133:220,1,120,2|0,0:0|0:0,0:0:0:0:
144,194,216305,1,8,0:0:0:0:
288,77,216463,6,0,B|319:24|328:-28,1,80,2|4,0:0|1:2,0:0:0:0:
420,179,216778,2,0,B|426:129|414:74,1,80,2|12,0:0|0:0,0:0:0:0:
323,183,217094,1,2,0:0:0:0:
489,209,217252,2,0,B|403:184|343:264,1,160,0|8,0:0|0:0,0:0:0:0:
177,365,217726,53,4,1:2:0:0:
177,365,218042,1,2,0:0:0:0:
250,380,218199,5,8,0:0:0:0:
262,350,218357,1,2,0:0:0:0:
154,297,218515,53,8,0:0:0:0:
140,238,218673,1,2,0:0:0:0:
285,235,218831,5,8,0:0:0:0:
303,164,218989,1,2,0:0:0:0:
133,138,219147,53,8,0:0:0:0:
121,65,219305,1,2,0:0:0:0:
321,95,219463,5,8,0:0:0:0:
321,95,219542,1,0,0:0:0:0:
321,95,219621,1,2,0:0:0:0:
236,169,219778,54,0,P|224:191|208:208,1,47.9999985351563,8|2,0:0|0:0,0:0:0:0:
167,148,219936,2,0,B|299:114|323:244,1,191.999994140625,2|2,0:0|0:0,0:0:0:0:
323,311,220331,1,2,0:0:0:0:
321,328,220410,5,12,0:0:0:0:
255,369,220568,1,0,0:0:0:0:
223,299,220726,1,0,0:0:0:0:
398,208,220884,53,12,0:0:0:0:
319,197,221042,1,0,0:0:0:0:
328,120,221199,1,2,0:0:0:0:
497,285,221357,6,0,L|403:306,1,80,12|0,0:0|0:0,0:0:0:0:
240,370,221673,5,0,1:0:0:0:
240,370,221989,1,8,0:0:0:0:
240,370,222305,1,0,1:0:0:0:
240,370,222621,1,8,0:0:0:0:
69,329,222936,37,12,0:0:0:0:
137,358,223094,1,0,0:0:0:0:
198,310,223252,1,0,1:0:0:0:
116,139,223410,5,12,0:0:0:0:
151,209,223568,1,0,0:0:0:0:
222,240,223726,1,0,1:0:0:0:
256,20,223884,54,0,P|235:59|223:118,1,80,12|2,0:0|0:0,0:0:0:0:
283,140,224199,21,0,1:0:0:0:
197,209,224357,1,2,0:0:0:0:
316,278,224515,2,0,P|268:295|210:304,1,80,8|2,0:0|0:0,0:0:0:0:
94,346,224831,6,0,P|67:360|37:366,1,40,12|0,0:0|0:0,0:0:0:0:
124,279,224989,2,0,P|137:244|140:211,1,40,0|8,0:0|0:0,0:0:0:0:
174,342,225147,2,0,P|181:371|181:394,1,40,8|8,0:0|0:0,0:0:0:0:
183,179,225305,2,0,P|159:146|139:128,1,40,8|8,0:0|0:0,0:0:0:0:
252,349,225463,37,12,0:0:0:0:
312,301,225621,1,0,0:0:0:0:
260,249,225778,1,0,1:0:0:0:
453,299,225936,53,12,0:0:0:0:
425,231,226094,1,0,0:0:0:0:
365,188,226252,1,0,1:0:0:0:
500,36,226410,22,0,P|436:61|398:73,1,80,12|2,0:0|0:0,0:0:0:0:
425,64,226647,1,0,0:0:0:0:
425,64,226726,1,0,1:0:0:0:
459,140,226884,1,2,0:0:0:0:
386,166,227042,1,8,0:0:0:0:
358,97,227199,1,2,0:0:0:0:
286,124,227357,1,0,1:0:0:0:
344,285,227515,1,8,0:0:0:0:
344,285,227594,1,8,0:0:0:0:
344,285,227673,1,8,0:0:0:0:
498,208,227831,5,8,0:0:0:0:
321,208,227989,2,0,P|288:277|287:375,2,143.999995605469,4|8|0,0:0|0:0|1:0,0:0:0:0:
318,204,228936,2,0,P|252:186|225:175,1,71.9999978027344,8|2,0:0|0:0,0:0:0:0:
37,259,229252,6,0,B|128:247|103:281|208:267,1,143.999995605469,0|8,1:0|0:0,0:0:0:0:
122,86,229726,1,2,0:0:0:0:
227,140,229884,2,0,P|206:97|193:65,1,71.9999978027344,0|0,1:0|0:0,0:0:0:0:
52,116,230199,2,0,P|47:167|39:203,1,71.9999978027344,8|0,0:0|0:0,0:0:0:0:
233,312,230515,38,0,L|325:331,1,71.9999978027344,12|0,0:0|0:0,0:0:0:0:
303,326,230831,1,0,1:0:0:0:
99,219,230989,6,0,L|7:238,1,71.9999978027344,12|0,0:0|0:0,0:0:0:0:
28,233,231305,1,2,1:0:0:0:
257,144,231463,6,0,L|349:163,1,71.9999978027344,12|0,0:0|0:0,0:0:0:0:
414,235,231778,37,2,0:0:0:0:
345,266,231936,1,0,1:0:0:0:
472,353,232094,5,8,0:0:0:0:
413,311,232252,1,0,0:0:0:0:
246,362,232410,5,0,1:0:0:0:
314,333,232568,1,2,0:0:0:0:
181,228,232726,37,8,0:0:0:0:
235,278,232884,1,2,0:0:0:0:
405,165,233042,6,0,P|358:178|310:201,1,71.9999978027344,12|0,0:0|1:0,0:0:0:0:
336,186,233278,1,0,0:0:0:0:
336,186,233357,1,0,1:0:0:0:
188,75,233515,5,12,0:0:0:0:
288,131,233673,1,0,1:0:0:0:
220,162,233831,1,0,1:0:0:0:
324,11,233989,38,0,P|371:24|419:47,1,71.9999978027344,8|2,0:0|0:0,0:0:0:0:
392,32,234225,1,0,0:0:0:0:
392,32,234305,1,2,0:0:0:0:
344,185,234465,5,8,0:0:0:0:
276,215,234625,1,12,0:0:0:0:
310,284,234786,1,12,0:0:0:0:
435,193,234946,5,4,0:1:0:0:
218,274,235107,1,4,0:1:0:0:
498,371,235427,37,12,0:0:0:0:
442,323,236664,6,0,P|432:275|434:191,1,120,4|0,0:0|0:0,0:0:0:0:
432,204,236979,1,2,1:0:0:0:
293,279,237137,1,8,0:0:0:0:
393,136,237295,2,0,P|353:121|307:95,1,80,4|0,0:0|0:0,0:0:0:0:
344,198,237611,53,8,0:0:0:0:
201,268,237769,1,8,0:0:0:0:
73,121,237927,22,0,P|137:121|188:204,1,160,14|0,3:0|1:0,0:0:0:0:
104,365,238401,1,8,0:0:0:0:
0,256,238559,1,2,0:0:0:0:
53,199,238717,2,0,P|86:248|90:292,1,80,0|2,1:0|0:0,0:0:0:0:
290,352,239033,37,8,0:0:0:0:
260,285,239190,2,0,B|357:269|341:317|445:294,1,160,0|2,1:0|0:0,0:0:0:0:
255,202,239664,2,0,P|229:155|218:106,1,80,8|2,0:0|0:0,0:0:0:0:
51,339,239980,5,8,0:0:0:0:
27,295,240059,1,8,0:0:0:0:
36,246,240138,1,8,0:0:0:0:
71,212,240217,1,8,0:0:0:0:
118,214,240296,2,0,P|136:248|143:276,1,40,8|8,0:0|0:0,0:0:0:0:
282,347,240454,2,0,L|343:362,1,40,8|8,0:0|0:0,0:0:0:0:
368,344,240612,6,0,P|281:337|214:394,1,160,4|8,0:0|0:0,0:0:0:0:
369,198,241085,1,2,0:0:0:0:
314,147,241243,2,0,P|284:191|278:249,1,80,0|0,1:0|0:0,0:0:0:0:
208,246,241559,1,8,0:0:0:0:
341,335,241717,1,0,1:0:0:0:
103,364,241875,38,0,P|101:300|88:227,1,120,2|0,0:0|0:0,0:0:0:0:
92,244,242190,2,0,P|43:227|4:206,1,80,8|0,0:0|0:0,0:0:0:0:
188,342,242506,1,0,1:0:0:0:
230,220,242664,2,0,P|246:284|262:322,1,80,0|8,0:0|0:0,0:0:0:0:
24,302,242980,1,2,0:1:0:0:
213,150,243138,6,0,P|296:148|371:214,1,160,4|8,0:0|0:0,0:0:0:0:
469,354,243612,1,2,0:0:0:0:
497,284,243769,53,8,0:0:0:0:
401,321,243927,1,0,0:0:0:0:
295,230,244085,5,8,0:0:0:0:
326,297,244242,1,0,0:0:0:0:
172,295,244400,6,0,P|203:303|229:313,1,40,8|0,0:0|0:0,0:0:0:0:
295,230,244559,38,0,P|286:197|285:166,1,40,8|8,0:0|0:0,0:0:0:0:
220,153,244717,6,0,P|197:189|173:210,1,40,8|8,0:0|0:0,0:0:0:0:
98,277,244875,6,0,P|58:293|32:301,1,40,8|8,0:0|0:0,0:0:0:0:
99,173,245033,38,0,P|130:212|143:236,1,40,8|0,0:0|0:0,0:0:0:0:
263,370,245190,6,0,P|279:327|287:313,1,40,8|8,1:3|1:3,0:0:0:0:
149,363,245348,6,0,P|190:383|213:390,1,40,8|8,1:3|1:3,0:0:0:0:
374,237,245516,38,0,P|430:223|479:198,1,90.0000034332277,4|0,0:0|0:0,0:0:0:0:
488,252,245831,1,0,1:0:0:0:
488,252,245910,1,0,0:0:0:0:
488,252,245988,6,0,P|418:203|313:229,1,155.999992858887,8|0,0:0|0:0,0:0:0:0:
284,244,246304,1,0,1:0:0:0:
412,285,246462,2,0,P|331:314|308:317,1,80,2|8,0:0|0:0,0:0:0:0:
108,201,246778,53,4,0:0:0:0:
286,366,247094,5,4,0:0:0:0:
161,137,247409,5,4,0:0:0:0:
212,368,247726,38,0,P|230:340|239:311,1,40,4|0,0:0|0:0,0:0:0:0:
356,302,247884,2,0,P|354:267|342:239,1,40,8|0,0:0|0:0,0:0:0:0:
265,360,248042,6,0,B|179:332|193:380|92:349,1,160,4|0,0:0|1:0,0:0:0:0:
228,187,248515,1,8,0:0:0:0:
305,286,248673,1,2,0:0:0:0:
351,228,248831,2,0,P|373:182|379:133,1,80,0|2,1:0|0:0,0:0:0:0:
185,254,249147,1,8,0:0:0:0:
400,320,249305,6,0,P|269:351|257:387,1,160,2|2,0:3|0:3,0:0:0:0:
123,209,249778,1,8,0:0:0:0:
188,168,249936,2,0,P|238:186|286:195,1,80,2|0,0:3|1:0,0:0:0:0:
98,304,250252,38,0,P|127:285|156:282,1,40,2|0,1:3|0:0,0:0:0:0:
221,214,250410,2,0,P|260:227|277:246,1,40,8|0,1:2|0:0,0:0:0:0:
354,341,250568,6,0,P|417:355|477:281,1,160,4|0,0:0|1:0,0:0:0:0:
324,189,251042,2,0,P|300:249|292:313,1,120,8|0,0:0|0:0,0:0:0:0:
292,303,251357,2,0,P|234:325|190:331,1,80,0|2,1:0|0:0,0:0:0:0:
161,275,251673,1,8,0:0:0:0:
319,186,251831,6,0,P|245:191|194:119,1,160,0|0,1:0|1:0,0:0:0:0:
16,209,252305,2,0,P|65:226|119:231,1,80,8|0,0:0|0:0,0:0:0:0:
230,84,252621,2,0,P|174:106|121:118,1,80,0|2,1:0|0:0,0:0:0:0:
87,137,252936,1,8,0:0:0:0:
219,223,253094,1,0,1:0:0:0:
68,309,253252,38,0,P|37:242|28:169,1,120,12|0,0:0|0:0,0:0:0:0:
28,196,253568,1,0,1:0:0:0:
150,335,253726,2,0,P|228:367|257:370,1,80,12|0,0:0|1:0,0:0:0:0:
405,237,254042,1,0,1:0:0:0:
463,286,254199,2,0,B|394:263|408:301|307:276,1,120,12|0,0:0|0:0,0:0:0:0:
344,283,254515,5,8,0:0:0:0:
283,326,254673,1,2,0:0:0:0:
216,175,254831,5,12,0:0:0:0:
286,206,254989,1,8,0:0:0:0:
78,274,255147,37,8,0:0:0:0:
133,257,255252,5,8,0:3:0:0:
182,270,255357,5,8,0:3:0:0:
228,259,255463,37,8,1:2:0:0:
1,371,255796,5,4,0:0:0:0:
256,192,255874,12,6,258322,0:0:0:0:
214,367,260532,5,0,0:0:0:0:
214,367,260831,1,4,0:0:0:0:
294,228,260989,1,0,0:0:0:0:
227,262,261147,1,0,1:0:0:0:
184,248,261305,1,2,0:0:0:0:
114,286,261463,1,0,1:0:0:0:
274,85,261778,37,0,1:0:0:0:
311,73,261936,1,0,0:0:0:0:
392,121,262094,1,4,0:0:0:0:
327,152,262252,1,0,0:0:0:0:
398,200,262410,1,0,1:0:0:0:
443,180,262568,1,2,0:0:0:0:
510,223,262726,1,0,1:0:0:0:
329,318,263042,1,0,1:0:0:0:
329,318,263357,6,0,B|427:286|476:379,1,160,2|0,0:1|1:0,0:0:0:0:
458,375,263831,1,0,1:0:0:0:
413,353,263989,5,0,1:0:0:0:
466,301,264147,1,0,1:0:0:0:
390,224,264305,37,8,0:0:0:0:
347,307,264463,1,8,0:0:0:0:
188,245,264621,37,8,0:0:0:0:
290,192,264778,1,8,0:0:0:0:
257,25,264936,5,8,0:0:0:0:
185,151,265094,1,8,0:0:0:0:
15,97,265252,53,8,0:0:0:0:
201,78,265410,1,10,0:0:0:0:
201,78,265726,6,0,B|104:93|73:-1,1,160,4|0,0:0|1:0,0:0:0:0:
233,156,266199,1,8,0:0:0:0:
95,170,266357,2,0,B|143:178|198:212,1,80,0|0,0:0|1:0,0:0:0:0:
229,244,266673,1,2,0:0:0:0:
92,279,266831,1,8,0:0:0:0:
275,376,266989,54,0,B|319:297|297:205,1,160,2|2,1:2|0:0,0:0:0:0:
408,55,267463,2,0,B|455:44|504:19,1,80,8|2,0:0|0:0,0:0:0:0:
483,28,267699,1,0,0:0:0:0:
483,28,267778,2,0,B|439:64|422:98,1,80,0|0,1:0|1:0,0:0:0:0:
367,255,268094,1,8,0:0:0:0:
495,121,268252,6,0,B|396:92|332:181,1,160,2|2,0:0|0:0,0:0:0:0:
206,213,268726,1,8,0:0:0:0:
291,280,268884,1,0,0:0:0:0:
123,365,269042,53,2,1:3:0:0:
212,290,269199,2,0,B|230:332|231:377,1,80,2|8,1:3|0:0,0:0:0:0:
133,291,269515,1,2,0:1:0:0:
263,132,269673,6,0,B|307:121|359:95,1,80,4|0,0:1|0:0,0:0:0:0:
376,170,269989,1,8,0:0:0:0:
145,204,270147,2,0,B|245:189|295:279,1,160,2|2,0:0|0:0,0:0:0:0:
266,334,270621,2,0,P|233:321|206:297,1,40,8|0,0:0|0:0,0:0:0:0:
211,157,270778,2,0,P|239:136|275:125,1,40,8|8,0:0|0:0,0:0:0:0:
310,174,270936,54,0,B|195:130|88:258|174:376,1,320,4|0,0:0|1:0,0:0:0:0:
174,373,271647,1,0,0:0:0:0:
174,373,271726,2,0,B|215:338|223:278,1,80,0|8,1:0|0:0,0:0:0:0:
0,152,272042,6,0,B|48:236|161:218,1,160,4|2,0:0|0:0,0:0:0:0:
290,132,272515,1,8,0:0:0:0:
330,40,272673,2,0,B|280:47|236:84,1,80,4|0,0:0|0:0,0:0:0:0:
180,86,272910,1,0,0:0:0:0:
180,86,272989,2,0,B|149:123|142:177,1,80,4|0,0:0|0:0,0:0:0:0:
77,237,273226,1,0,0:0:0:0:
77,237,273305,54,0,B|166:152|115:4|-38:26,1,320,10|2,0:1|0:0,0:0:0:0:
151,99,274094,1,0,1:0:0:0:
69,135,274252,2,0,B|100:161|126:168,1,40,8|0,0:0|0:0,0:0:0:0:
268,72,274410,6,0,B|165:9|10:74|47:251,1,335.999989746094,2|0,0:1|0:0,0:0:0:0:
10,282,275042,54,0,P|28:309|59:327,1,47.9999985351563,0|0,0:0|0:0,0:0:0:0:
113,375,275199,6,0,P|155:365|179:348,1,47.9999985351563,2|0,1:2|0:0,0:0:0:0:
227,181,275357,54,0,P|185:204|171:231,1,47.9999985351563,8|0,0:0|0:0,0:0:0:0:
103,187,275515,6,0,P|94:224|98:255,1,47.9999985351563,8|8,0:0|0:0,0:0:0:0:
259,375,275673,53,8,0:0:0:0:
259,375,275752,1,8,0:0:0:0:
259,375,275831,2,0,P|281:315|288:247,1,120,4|0,0:0|0:0,0:0:0:0:
279,241,276147,1,0,1:0:0:0:
181,322,276305,1,8,0:0:0:0:
90,157,276463,2,0,B|136:160|167:213,1,80,0|0,0:0|1:0,0:0:0:0:
65,329,276778,2,0,B|36:372|-21:374,1,80,2|8,0:0|0:0,0:0:0:0:
116,193,277094,6,0,B|83:95|178:50,1,160,2|2,1:2|1:2,0:0:0:0:
235,217,277568,1,8,0:0:0:0:
64,70,277726,2,0,B|96:139|188:126,1,120,2|0,0:0|0:0,0:0:0:0:
160,128,278042,2,0,B|190:82|181:28,1,80,0|8,0:0|0:0,0:0:0:0:
124,0,278278,1,0,0:0:0:0:
124,0,278357,54,0,B|24:182|225:147|116:344,1,360.000013732911,10|2,0:1|1:2,0:0:0:0:
58,293,279463,5,8,0:0:0:0:
190,208,279621,1,2,0:0:0:0:
72,220,279778,2,0,B|25:206|-13:183,1,80,0|2,1:0|0:0,0:0:0:0:
296,227,280094,53,8,0:0:0:0:
235,273,280252,1,2,0:0:0:0:
285,152,280410,1,0,1:0:0:0:
398,220,280568,1,2,0:0:0:0:
422,151,280726,6,0,P|388:131|354:123,1,40,8|0,0:0|0:0,0:0:0:0:
211,174,280884,2,0,P|193:199|182:227,1,40,8|8,0:0|0:0,0:0:0:0:
303,326,281042,54,0,B|306:296|333:277|333:277|304:223|342:152,1,160,4|8,0:0|0:0,0:0:0:0:
154,278,281515,2,0,P|124:283|97:302,1,40,2|0,0:0|0:0,0:0:0:0:
39,303,281673,2,0,B|113:298|145:368,1,120,2|0,0:0|0:0,0:0:0:0:
212,334,281989,2,0,B|240:294|244:233,1,80,8|2,0:0|0:0,0:0:0:0:
213,186,282226,1,0,0:0:0:0:
206,176,282305,1,10,0:1:0:0:
248,270,282463,6,0,B|169:267|123:173|199:99,1,200,2|0,0:0|0:0,0:0:0:0:
242,86,282936,2,0,B|277:120|297:176,1,80,2|10,0:0|0:1,0:0:0:0:
249,219,283173,2,0,B|194:211|154:172,1,80,0|0,0:0|0:0,0:0:0:0:
173,113,283410,54,0,B|282:128|336:227|279:408|122:410|-6:269|77:147,1,560,2|8,0:0|0:0,0:0:0:0:
165,224,284673,6,0,B|232:301|337:252,1,160,0|0,1:1|1:0,0:0:0:0:
456,105,285147,1,8,0:0:0:0:
385,83,285305,2,0,B|412:119|419:181,1,80,0|0,0:0|1:0,0:0:0:0:
477,193,285621,1,0,1:0:0:0:
289,290,285778,2,0,B|262:254|255:192,1,80,8|0,0:0|1:1,0:0:0:0:
272,144,286015,1,0,0:0:0:0:
281,138,286094,5,12,0:0:0:0:
341,182,286252,1,0,0:0:0:0:
364,254,286410,1,0,1:0:0:0:
258,212,286568,5,8,0:0:0:0:
265,288,286726,1,0,0:0:0:0:
223,350,286884,1,0,1:0:0:0:
174,237,287042,5,8,0:0:0:0:
74,376,287199,2,0,P|26:360|31:250,1,160,4|2,0:0|0:0,0:0:0:0:
192,167,287673,2,0,L|294:182,1,80,8|2,0:0|0:0,0:0:0:0:
417,251,287989,1,8,0:0:0:0:
297,253,288147,38,0,P|268:260|241:272,1,40,8|8,0:0|0:0,0:0:0:0:
345,197,288305,2,0,P|358:168|364:136,1,40,8|8,0:0|0:0,0:0:0:0:
340,313,288463,2,0,P|327:347|309:373,1,40,8|8,0:0|0:0,0:0:0:0:
423,207,288621,6,0,P|463:146|515:100,1,120,8|0,0:0|0:0,0:0:0:0:
496,113,288936,1,0,1:0:0:0:
315,288,289094,2,0,P|259:309|200:357,1,120,12|0,0:0|0:0,0:0:0:0:
211,344,289410,1,0,0:0:0:0:
341,214,289568,1,8,0:0:0:0:
154,295,289726,6,0,P|189:252|230:178,1,120,0|0,0:0|0:0,0:0:0:0:
208,98,290042,1,8,0:3:0:0:
204,88,290121,1,8,0:3:0:0:
199,80,290199,2,0,P|183:118|185:154,1,40,8|8,0:3|0:3,0:0:0:0:
277,293,290357,1,8,0:3:0:0:
63,159,291132,38,0,P|89:173|108:192,1,40,12|0,0:0|0:0,0:0:0:0:
142,124,291290,2,0,P|180:101|191:85,1,40,2|0,0:0|0:0,0:0:0:0:
168,233,291448,2,0,P|191:270|197:285,1,40,2|0,0:0|0:0,0:0:0:0:
268,152,291606,6,0,P|277:124|276:89,1,40,8|0,0:0|0:0,0:0:0:0:
342,237,291763,2,0,P|369:282|373:294,1,40,0|0,0:0|0:0,0:0:0:0:
342,87,291921,2,0,P|328:41|316:26,1,40,0|0,1:0|0:0,0:0:0:0:
456,184,292079,6,0,P|486:202|506:228,1,40,8|0,0:0|0:0,0:0:0:0:
512,242,292237,2,0,B|423:218|438:271|323:241,1,160,4|0,0:0|0:0,0:0:0:0:
162,177,292711,37,8,0:0:0:0:
152,168,292790,1,8,0:0:0:0:
141,160,292869,2,0,P|151:197|172:221,1,40,0|0,0:0|0:0,0:0:0:0:
234,311,293027,1,0,1:0:0:0:
246,321,293106,1,0,1:0:0:0:
260,329,293184,2,0,P|250:300|223:279,1,40,0|0,0:0|0:0,0:0:0:0:
68,217,293342,1,0,1:0:0:0:
54,220,293421,1,0,1:0:0:0:
41,224,293500,1,0,1:0:0:0:
111,290,293658,6,0,L|86:330,1,40,4|0,0:0|0:0,0:0:0:0:
174,335,293816,2,0,L|175:386,1,40,0|0,0:0|0:0,0:0:0:0:
246,327,293974,2,0,L|285:365,1,40,0|0,1:0|0:0,0:0:0:0:
239,218,294132,6,0,L|214:178,1,40,8|0,0:0|0:0,0:0:0:0:
302,173,294290,2,0,L|303:122,1,40,0|0,0:0|0:0,0:0:0:0:
374,181,294448,2,0,L|413:143,1,40,0|0,1:0|0:0,0:0:0:0:
201,300,294606,38,0,L|155:286,1,40,8|0,0:0|0:0,0:0:0:0:
128,317,294763,2,0,B|183:307|183:307|217:310|217:310|273:299,1,120,4|0,0:0|0:0,0:0:0:0:
316,251,295094,5,8,0:0:0:0:
352,219,295179,1,8,0:0:0:0:
364,173,295264,1,8,0:0:0:0:
352,124,295349,1,8,0:0:0:0:
315,98,295434,1,8,0:0:0:0:
