osu file format v14

[General]
AudioFilename: audio.mp3
AudioLeadIn: 0
PreviewTime: 78660
Countdown: 0
SampleSet: Soft
StackLeniency: 0.5
Mode: 0
LetterboxInBreaks: 0
WidescreenStoryboard: 0

[Editor]
Bookmarks: 5673,10726,35989,56199,78778,99147,104042,119357,139568,162147,182515,202726,235410,260831,265726,286094
DistanceSpacing: 0.4
BeatDivisor: 8
GridSize: 8
TimelineZoom: 2.3

[Metadata]
Title:Outsider
TitleUnicode:アウトサイダー
Artist:yanaginagi
ArtistUnicode:やなぎなぎ
Creator:Irohas
Version:?
Source:
Tags:mugiwarasekai shocko agatsu エメラロタイプ emeralotype japanese rock
BeatmapID:2938871
BeatmapSetID:1427296

[Difficulty]
HPDrainRate:6
CircleSize:4.3
OverallDifficulty:9
ApproachRate:9.5
SliderMultiplier:1.6
SliderTickRate:1

[Events]
//Background and Video events
0,0,"y.jpg",0,0
//Break Periods
2,101864,102856
//Storyboard Layer 0 (Background)
//Storyboard Layer 1 (Fail)
//Storyboard Layer 2 (Pass)
//Storyboard Layer 3 (Foreground)
//Storyboard Layer 4 (Overlay)
//Storyboard Sound Samples

[TimingPoints]
631,315.789473684211,4,2,1,50,1,0
10094,-500,4,2,1,50,0,0
10726,-125,4,2,1,40,0,0
19560,315.789473684211,4,2,1,40,1,0
19560,-62.5,4,2,1,40,0,0
20822,-100,4,2,1,60,0,0
30928,-142.857142857143,4,2,1,60,0,0
35348,-142.857142857143,4,2,1,40,0,0
35981,-100,4,2,1,60,0,0
45770,-100,4,2,1,30,0,0
46086,-100,4,2,1,60,0,0
56191,-142.857142857143,4,2,1,60,0,0
65665,-100,4,2,1,60,0,0
67875,-83.3333333333333,4,2,1,60,0,0
68823,-100,4,2,1,60,0,0
70402,-83.3333333333333,4,2,1,60,0,0
71349,-100,4,2,1,60,0,0
75778,-100,4,2,1,60,0,0
76252,-83.3333333333333,4,2,1,60,0,0
78305,-100,4,2,1,60,0,0
78621,-58.8235294117647,4,2,1,70,0,0
78770,-95.2380952380952,4,2,17,60,0,1
78928,-100,4,2,1,70,0,0
88568,-71.4285714285714,4,2,1,70,0,0
88875,-100,4,2,1,70,0,0
96612,-90.9090909090909,4,2,1,70,0,0
98831,-196.078431372549,4,2,1,70,0,0
99138,-196.078431372549,4,2,1,40,0,0
103410,-83.3333333333333,4,2,1,60,0,0
103875,-166.666666666667,4,2,1,30,0,0
104033,-100,4,2,1,70,0,1
104981,-66.6666666666667,4,2,1,70,0,1
105296,-100,4,2,1,70,0,1
106402,-66.6666666666667,4,2,1,70,0,1
106560,-100,4,2,1,70,0,1
108296,-90.9090909090909,4,2,1,70,0,1
108612,-66.6666666666667,4,2,1,70,0,1
109094,-47.6190476190476,4,2,1,70,0,1
109244,-95.2380952380951,4,2,1,70,0,1
109568,-100,4,2,1,70,0,1
111138,-71.4285714285714,4,2,1,70,0,1
111612,-66.6666666666667,4,2,1,70,0,1
111770,-54.054054054054,4,2,1,70,0,1
112094,-100,4,2,1,70,0,1
116191,-66.6666666666667,4,2,1,70,0,1
116357,-100,4,2,1,70,0,1
116823,-83.3333333333333,4,2,1,70,0,1
118560,-333.333333333333,4,2,1,60,0,0
119112,-100,4,2,1,50,0,0
119349,-125,4,2,1,50,0,0
128191,-66.6666666666667,4,2,1,60,0,0
129454,-100,4,2,1,60,0,0
131665,-83.3333333333333,4,2,1,60,0,0
131981,-100,4,2,1,60,0,0
134199,-100,4,2,1,60,0,0
136717,-83.3333333333333,4,2,1,60,0,0
137981,-100,4,2,1,60,0,0
138305,-90.9090909090909,4,2,1,60,0,0
139252,-142.857142857143,4,2,1,60,0,0
149199,-76.9230769230769,4,2,1,50,0,0
149665,-100,4,2,1,60,0,0
151244,-83.3333333333333,4,2,1,60,0,0
152191,-100,4,2,1,60,0,0
153770,-83.3333333333333,4,2,1,60,0,0
154717,-100,4,2,1,60,0,0
156928,-66.6666666666667,4,2,1,60,0,0
157252,-76.9230769230769,4,2,1,60,0,0
162138,-100,4,2,17,70,0,1
162296,-100,4,2,1,70,0,0
163411,315.789473684211,4,2,1,70,1,0
163568,315.789473684211,4,2,1,70,1,0
167120,-66.6666666666667,4,2,1,70,0,0
167357,-66.6666666666667,4,2,1,70,0,0
167989,-83.3333333333333,4,2,1,70,0,0
169726,-100,4,2,1,70,0,0
170989,-71.4285714285714,4,2,1,70,0,0
173042,-100,4,2,1,70,0,0
179989,-83.3333333333333,4,2,1,70,0,0
182515,327.868852459017,4,2,1,60,1,0
182515,-196.078431372549,4,2,1,60,0,0
183826,306.122448979592,4,2,1,50,1,0
184410,-200,4,2,1,40,0,0
184726,-166.666666666667,4,2,1,40,0,0
185050,352.941176470588,4,2,1,50,1,0
185050,-166.666666666667,4,2,1,50,0,0
185402,310.880829015544,4,2,1,50,1,0
185712,-166.666666666667,4,2,1,50,0,0
186334,327.868852459017,4,2,1,50,1,0
186334,-166.666666666667,4,2,1,50,0,0
186989,314.136125654451,4,2,1,50,1,0
186989,-166.666666666667,4,2,1,50,0,0
187617,315.789473684211,4,2,1,50,1,0
187617,-166.666666666667,4,2,1,50,0,0
188880,310.880829015545,4,2,1,50,1,0
188880,-166.666666666667,4,2,1,50,0,0
190123,329.67032967033,4,2,1,50,1,0
190123,-144.927536231884,4,2,1,40,0,0
190782,306.122448979592,4,2,1,50,1,0
191394,294.117647058824,4,2,1,50,1,0
191835,314.547837483617,4,2,1,50,1,0
191835,-125,4,2,1,50,0,0
192621,315.789473684211,4,2,1,60,1,0
192621,-125,4,2,1,60,0,0
197673,-90.9090909090909,4,2,1,60,0,0
201778,-58.8235294117647,4,2,1,60,0,0
202410,-58.8235294117647,4,2,1,50,0,0
202568,-100,4,2,1,70,0,1
204936,-76.9230769230769,4,2,1,70,0,1
205094,-100,4,2,1,70,0,1
210621,-71.4285714285714,4,2,1,70,0,1
211884,-90.9090909090909,4,2,1,70,0,1
212515,-62.5,4,2,1,70,0,0
212673,-90.9090909090909,4,2,1,70,0,1
213463,-80,4,2,1,70,0,1
214094,-100,4,2,1,70,0,1
216463,-71.4285714285714,4,2,1,70,0,1
216621,-250,4,2,1,70,0,1
216778,-71.4285714285714,4,2,1,70,0,1
216936,-250,4,2,1,70,0,1
217094,-66.6666666666667,4,2,1,70,0,1
217726,-95.2380952380951,4,2,1,70,0,1
219936,-48.780487804878,4,2,1,70,0,1
220252,-45.4545454545455,4,2,1,70,0,1
220410,-90.9090909090909,4,2,1,70,0,1
221673,-117.647058823529,4,2,1,60,0,0
222936,-90.9090909090909,4,2,1,70,0,1
224199,-117.647058823529,4,2,1,60,0,0
224831,-90.9090909090909,4,2,1,60,0,0
225463,-90.9090909090909,4,2,1,70,0,1
226726,-117.647058823529,4,2,1,60,0,0
227989,-100,4,2,1,60,0,0
230515,-83.3333333333333,4,2,1,60,0,0
231778,-100,4,2,1,60,0,0
234305,320.855614973262,4,2,1,60,1,0
234936,-62.5,4,2,1,60,0,0
235410,-66.6666666666667,4,2,1,60,0,0
235427,309.278350515464,4,2,1,50,1,0
236664,315.78947368421,4,2,1,50,1,0
236664,-62.5,4,2,1,70,0,1
236979,-66.6666666666667,4,2,1,70,0,1
237295,-62.5,4,2,1,70,0,1
237611,-66.6666666666667,4,2,1,70,0,1
237769,-50,4,2,1,60,0,0
237927,-80,4,2,17,60,0,1
238085,315.78947368421,4,2,1,70,1,0
238085,-100,4,2,1,70,0,0
239989,-83.3333333333333,4,2,1,70,0,0
240611,-100,4,2,1,70,0,0
242190,-90.9090909090909,4,2,1,70,0,0
242506,-100,4,2,1,70,0,0
243769,-83.3333333333333,4,2,1,70,0,0
245516,315.78947368421,4,2,1,70,1,0
245516,-100,4,2,1,70,0,0
245673,315.78947368421,4,2,1,70,1,0
246778,-83.3333333333333,4,2,1,70,0,0
248515,-100,4,2,1,70,0,0
254831,-83.3333333333333,4,2,1,70,0,0
255068,-100,4,2,1,70,0,0
255796,315.78947368421,4,2,1,70,1,0
255796,-175.438596491228,4,2,1,70,0,0
257690,-175.438596491228,4,2,1,45,0,0
260532,-111.111111111111,4,2,1,45,0,0
260831,315.78947368421,4,2,1,50,1,0
260831,-111.111111111111,4,2,1,50,0,0
263357,-33.3333333333333,4,2,1,45,0,0
263673,-66.6666666666667,4,2,1,60,0,0
263989,-52.6315789473684,4,2,1,60,0,0
264305,-41.6666666666667,4,2,1,60,0,0
265252,-200,4,2,1,60,0,0
265410,-100,4,2,1,60,0,0
265725,-95.2380952380952,4,2,1,70,0,1
268568,-74.0740740740741,4,2,1,70,0,1
269515,-60.6060606060606,4,2,1,70,0,1
269673,-74.0740740740741,4,2,1,70,0,1
269989,-95.2380952380952,4,2,1,70,0,1
272042,-86.9565217391304,4,2,1,70,0,1
272357,-74.0740740740741,4,2,1,70,0,1
273463,-54.054054054054,4,2,1,70,0,1
274568,-49.0196078431373,4,2,1,70,0,1
275199,-58.8235294117647,4,2,1,70,0,1
275476,-95.2380952380951,4,2,1,70,0,1
278199,-66.6666666666667,4,2,1,70,0,1
278515,-58.8235294117647,4,2,1,70,0,1
279936,-95.2380952380951,4,2,1,70,0,1
281042,-100,4,2,1,70,0,1
281357,-58.8235294117647,4,2,1,70,0,1
282621,-66.6666666666667,4,2,1,70,0,1
283094,-58.8235294117647,4,2,1,70,0,1
283568,-95.2380952380951,4,2,1,70,0,1
286094,-117.647058823529,4,2,1,60,0,0
290515,-1000,4,2,1,50,0,0
291132,315.78947368421,4,2,1,60,1,0
291132,-117.647058823529,4,2,1,60,0,0
295094,340.90909090909,4,2,1,50,1,0
295605,-1000,4,2,1,60,0,0
296201,-1000,4,2,1,20,0,0

[Colours]
Combo1 : 253,169,151
Combo2 : 250,240,201
Combo3 : 185,255,233
Combo4 : 193,241,253
Combo5 : 172,203,234

[HitObjects]
261,246,5683,5,4,0:0:0:0:
196,167,5841,2,0,L|207:116,2,40,0|0|0,1:0|1:0|1:0,0:0:0:0:
291,43,6157,5,8,0:0:0:0:
112,214,6315,1,0,1:0:0:0:
66,289,6473,5,0,1:0:0:0:
69,304,6552,1,0,1:0:0:0:
71,317,6631,1,8,0:0:0:0:
1,52,6788,1,4,0:0:0:0:
97,109,6946,37,2,0:3:0:0:
377,307,7262,1,8,0:0:0:0:
294,369,7420,1,0,1:0:0:0:
285,366,7499,1,0,1:0:0:0:
275,364,7578,2,0,L|287:310,1,40,8|0,0:0|0:0,0:0:0:0:
287,160,7736,1,8,0:0:0:0:
285,173,7815,1,8,0:0:0:0:
284,184,7894,5,8,0:0:0:0:
245,177,7972,1,8,0:0:0:0:
208,189,8051,1,8,0:0:0:0:
180,217,8130,1,8,0:0:0:0:
168,254,8209,1,4,0:0:0:0:
63,177,8367,6,0,L|73:130,2,40,0|0|0,1:0|1:0|1:0,0:0:0:0:
193,377,8683,1,12,0:0:0:0:
256,262,8841,37,0,1:0:0:0:
233,136,8999,1,0,1:0:0:0:
212,22,9157,1,8,0:0:0:0:
444,152,9315,1,0,0:0:0:0:
378,221,9473,5,2,0:3:0:0:
331,22,9631,1,8,0:0:0:0:
328,33,9709,1,8,0:0:0:0:
326,45,9788,1,8,0:0:0:0:
324,57,9867,1,8,0:0:0:0:
339,89,9946,5,4,0:0:0:0:
145,250,10104,38,0,L|96:240,1,48,2|0,0:3|0:0,0:0:0:0:
32,183,10657,5,0,0:0:0:0:
32,183,10736,2,0,P|87:193|145:152,1,128,0|2,1:0|0:1,0:0:0:0:
459,334,11367,2,0,P|411:293|349:297,1,128,0|2,0:0|0:1,0:0:0:0:
260,345,11841,5,0,0:0:0:0:
260,345,11999,2,0,L|194:334,1,64,0|0,1:0|0:0,0:0:0:0:
115,283,12315,2,0,L|51:293,1,64,2|0,0:1|0:0,0:0:0:0:
228,160,12631,2,0,L|215:225,1,64,2|0,0:0|0:0,0:0:0:0:
146,107,12946,1,2,0:1:0:0:
220,50,13104,1,2,0:0:0:0:
141,6,13262,38,0,P|89:16|10:31,1,128,0|2,1:0|0:1,0:0:0:0:
291,121,13736,2,0,P|327:112|358:111,1,64,2|0,0:0|0:0,0:0:0:0:
434,40,14052,1,2,0:0:0:0:
483,123,14209,2,0,L|469:186,1,64,2|0,0:1|0:0,0:0:0:0:
369,265,14525,6,0,L|361:227,2,32,0|8|2,1:0|0:1|0:1,0:0:0:0:
431,364,14841,1,0,0:1:0:0:
461,273,14999,1,2,0:0:0:0:
312,356,15157,2,0,P|270:371|200:329,1,128,2|2,0:0|0:1,0:0:0:0:
51,75,15788,6,0,L|75:212,1,128,0|0,1:0|0:1,0:0:0:0:
56,297,16262,2,0,P|68:262|153:240,1,128,2|2,0:0|0:0,0:0:0:0:
220,161,16736,2,0,L|207:88,1,64,2|0,0:1|0:0,0:0:0:0:
275,12,17052,37,0,1:0:0:0:
375,191,17367,2,0,P|366:225|363:255,1,64,2|0,0:1|0:0,0:0:0:0:
447,384,17683,2,0,P|455:349|459:320,1,64,2|0,0:0|0:0,0:0:0:0:
327,341,17999,2,0,L|250:354,1,64,2|0,1:1|0:0,0:0:0:0:
176,282,18315,6,0,B|153:247|153:247|181:159,1,128,0|2,1:0|0:1,0:0:0:0:
56,0,18788,1,2,0:0:0:0:
18,130,18946,6,0,B|118:124|85:56|199:64,1,192,2|2,0:0|0:0,0:0:0:0:
312,130,19560,38,0,L|299:208,1,64,8|0,0:0|3:0,0:0:0:0:
372,375,19717,2,0,L|385:297,1,64,8|0,0:0|3:0,0:0:0:0:
278,286,19875,5,2,0:0:0:0:
436,98,20033,1,2,0:0:0:0:
192,128,20190,6,0,L|205:206,1,64,8|0,0:0|3:0,0:0:0:0:
140,383,20348,2,0,L|127:305,1,64,8|0,0:0|3:0,0:0:0:0:
0,216,20743,37,2,0:1:0:0:
11,225,20822,2,0,P|54:217|91:210,1,80,4|2,1:0|0:0,0:0:0:0:
186,15,21138,2,0,P|259:18|299:88,1,160,8|0,0:0|1:0,0:0:0:0:
464,216,21612,1,2,0:0:0:0:
354,262,21769,2,0,P|361:219|368:183,1,80,8|2,0:0|0:0,0:0:0:0:
441,108,22085,6,0,L|525:94,1,80,2|0,0:0|0:0,0:0:0:0:
248,239,22401,2,0,B|170:243|173:182|97:195,1,160,8|0,0:0|1:0,0:0:0:0:
133,0,22875,1,2,0:0:0:0:
0,110,23033,6,0,L|78:95,1,80,8|2,0:0|0:0,0:0:0:0:
118,288,23348,2,0,P|82:294|40:303,1,80,0|2,1:0|0:0,0:0:0:0:
242,94,23664,1,8,0:0:0:0:
329,136,23822,38,0,B|361:170|361:170|334:290,1,160,2|2,0:0|0:0,0:0:0:0:
432,384,24296,2,0,P|446:344|436:298,1,80,8|2,0:0|0:0,0:0:0:0:
295,366,24612,2,0,B|217:370|220:309|144:322,1,160,2|8,1:0|0:0,0:0:0:0:
52,174,25085,1,2,0:0:0:0:
0,272,25243,2,0,L|84:256,1,80,2|0,1:0|0:0,0:0:0:0:
189,182,25559,1,8,0:0:0:0:
94,88,25717,1,2,0:0:0:0:
256,5,25875,1,0,1:1:0:0:
313,85,26033,6,0,L|301:169,1,80,2|8,0:0|0:0,0:0:0:0:
204,89,26348,1,2,0:0:0:0:
382,12,26506,1,0,1:0:0:0:
201,214,26664,2,0,L|114:197,1,80,2|8,0:0|0:0,0:0:0:0:
41,101,26980,1,2,0:0:0:0:
0,372,27138,6,0,P|60:309|131:319,1,160,0|8,1:0|0:0,0:0:0:0:
286,139,27612,1,2,0:0:0:0:
362,210,27769,38,0,P|409:216|480:131,1,160,0|8,1:0|0:0,0:0:0:0:
384,111,28243,1,2,0:0:0:0:
260,376,28401,6,0,P|251:323|230:207,2,160,0|8|0,1:1|0:0|1:0,0:0:0:0:
351,279,29190,1,2,0:0:0:0:
155,322,29348,1,8,0:0:0:0:
391,379,29506,1,0,1:0:0:0:
281,154,29664,6,0,L|298:64,1,80,0|2,1:0|0:0,0:0:0:0:
408,193,29980,1,8,0:0:0:0:
189,16,30138,1,0,1:0:0:0:
185,25,30217,1,0,1:0:0:0:
180,37,30296,37,8,0:0:0:0:
140,31,30374,1,8,0:0:0:0:
105,48,30453,1,8,0:0:0:0:
85,82,30532,1,8,0:0:0:0:
87,121,30611,5,0,1:0:0:0:
141,309,30769,1,0,1:0:0:0:
93,367,30928,6,0,P|142:358|214:346,1,111.999996582031,4|0,0:0|1:0,0:0:0:0:
443,236,31559,2,0,P|387:247|340:216,1,111.999996582031,8|2,0:0|0:0,0:0:0:0:
277,136,32033,1,2,0:0:0:0:
229,216,32190,38,0,L|240:284,1,55.9999982910157,2|2,0:0|0:0,0:0:0:0:
150,365,32506,2,0,L|154:345,6,13.9999995727539,2|2|2|2|2|2|2,0:1|0:1|0:1|0:1|0:1|0:1|0:1,0:0:0:0:
105,264,32822,1,8,0:0:0:0:
0,329,32980,1,2,0:0:0:0:
75,383,33138,5,0,1:0:0:0:
6,191,33296,1,2,0:1:0:0:
11,185,33375,1,2,0:1:0:0:
17,179,33454,6,0,L|-6:57,1,111.999996582031,4|2,0:0|1:0,0:0:0:0:
213,250,34085,2,0,L|193:363,1,111.999996582031,8|2,0:0|0:0,0:0:0:0:
108,277,34559,1,2,0:0:0:0:
307,321,34717,38,0,L|369:310,1,55.9999982910157,4|0,0:0|0:0,0:0:0:0:
496,211,35033,1,8,0:0:0:0:
409,166,35190,1,8,0:1:0:0:
452,329,35348,2,0,L|455:315,10,13.9999995727539,2|2|2|2|2|2|2|2|2|0|0,0:1|0:1|0:1|0:1|0:1|0:1|0:1|0:1|0:1|0:0|0:0,0:0:0:0:
370,381,35822,5,2,0:1:0:0:
365,370,35901,1,2,0:1:0:0:
360,360,35981,2,0,L|280:376,1,80
83,233,36296,2,0,P|135:216|218:277,1,160,8|0,0:0|1:0,0:0:0:0:
383,118,36769,1,2,0:0:0:0:
292,52,36928,2,0,L|280:134,1,80,8|0,0:0|1:0,0:0:0:0:
363,229,37244,6,0,P|411:221|446:215,1,80,2|0,0:0|0:0,0:0:0:0:
274,318,37560,2,0,P|226:310|191:304,1,80,8|0,0:0|0:0,0:0:0:0:
9,216,37875,2,0,P|55:226|119:184,1,120,0|0,1:0|0:0,0:0:0:0:
157,115,38190,2,0,L|146:67,1,40,8|0,0:0|0:0,0:0:0:0:
235,0,38349,38,0,L|230:19,2,20,10|2|2,0:1|0:1|0:1,0:0:0:0:
322,37,38507,6,0,L|404:22,1,80,4|2,0:1|0:0,0:0:0:0:
270,161,38823,1,8,0:0:0:0:
352,277,38981,2,0,P|361:225|368:186,1,80,2|0,0:0|1:0,0:0:0:0:
240,291,39296,1,2,0:0:0:0:
440,366,39454,1,8,0:0:0:0:
270,161,39612,1,2,0:0:0:0:
162,212,39770,6,0,B|28:183|28:183|58:200|60:238,1,200,2|0,0:0|0:0,0:0:0:0:
59,234,40243,2,0,L|51:187,2,40,2|2|0,0:0|0:0|1:0,0:0:0:0:
231,94,40559,1,2,0:0:0:0:
118,17,40717,37,8,0:0:0:0:
229,202,40875,1,2,0:1:0:0:
234,213,40954,1,2,0:1:0:0:
239,223,41033,6,0,P|230:281|213:390,1,160,4|8,0:0|0:0,0:0:0:0:
498,295,41507,2,0,P|454:312|359:254,1,160,2|2,0:0|0:0,0:0:0:0:
222,13,41981,1,8,0:0:0:0:
51,185,42139,6,0,B|151:179|118:111|235:122,1,200,2|0,0:0|3:0,0:0:0:0:
303,198,42613,2,0,L|288:281,1,80,8|2,0:0|0:0,0:0:0:0:
369,103,42928,38,0,L|354:24,1,80,0|2,1:0|0:0,0:0:0:0:
182,305,43244,2,0,L|198:384,1,80,8|2,0:0|0:0,0:0:0:0:
354,217,43560,6,0,P|402:224|516:242,1,160,4|8,0:0|0:0,0:0:0:0:
452,133,44034,1,2,0:0:0:0:
303,328,44191,1,0,1:0:0:0:
245,242,44349,1,0,1:0:0:0:
292,147,44507,5,8,0:0:0:0:
97,320,44665,1,2,0:1:0:0:
110,322,44744,1,2,0:1:0:0:
122,324,44823,37,8,0:0:0:0:
384,201,44981,1,8,0:0:0:0:
185,20,45139,1,2,0:0:0:0:
203,103,45297,1,2,0:0:0:0:
242,291,45455,5,12,0:0:0:0:
309,15,45613,1,12,0:0:0:0:
172,189,45770,6,0,L|178:216,6,20,2|2|2|2|2|2|2,0:1|0:1|0:1|0:1|0:1|0:1|0:1,0:0:0:0:
91,116,46086,53,4,0:0:0:0:
11,384,46402,2,0,P|39:344|110:337,1,120,8|0,0:0|0:0,0:0:0:0:
187,378,46717,2,0,L|268:363,1,80,0|2,1:0|0:0,0:0:0:0:
370,231,47034,1,8,0:0:0:0:
418,346,47191,1,2,0:0:0:0:
286,267,47349,54,0,P|295:216|314:107,1,160,0|8,1:0|0:0,0:0:0:0:
129,157,47823,1,2,0:0:0:0:
192,1,47981,2,0,L|209:91,1,80,0|2,1:0|0:0,0:0:0:0:
298,10,48297,1,8,0:0:0:0:
69,74,48455,6,0,L|38:69,2,20,2|2|2,0:1|0:1|0:1,0:0:0:0:
14,145,48613,2,0,L|22:185,1,40,4|0,0:1|0:0,0:0:0:0:
78,255,48770,2,0,L|70:294,1,40,4|0,0:1|0:0,0:0:0:0:
2,364,48928,1,8,0:0:0:0:
193,249,49086,6,0,P|217:242|328:311,1,160,2|2,0:0|0:0,0:0:0:0:
512,164,49560,2,0,P|461:200|399:187,1,120,8|0,0:0|0:0,0:0:0:0:
343,116,49876,38,0,L|359:28,1,80,2|0,0:0|0:0,0:0:0:0:
451,100,50191,1,8,0:0:0:0:
218,0,50349,1,2,0:0:0:0:
169,70,50507,6,0,L|186:197,1,120,0|0,1:0|0:0,0:0:0:0:
242,244,50823,2,0,L|234:283,1,40,8|0,0:0|0:0,0:0:0:0:
174,384,50981,2,0,P|170:364|161:341,1,40,2|0,0:0|0:0,0:0:0:0:
345,246,51139,1,0,1:0:0:0:
317,337,51297,1,2,0:3:0:0:
281,125,51455,5,8,0:0:0:0:
447,292,51613,1,2,0:0:0:0:
149,168,51770,37,0,1:0:0:0:
168,83,51928,1,2,0:0:0:0:
259,212,52086,5,8,0:0:0:0:
59,297,52244,1,2,0:0:0:0:
154,384,52402,6,0,P|158:339|168:302,1,80,0|0,1:0|0:0,0:0:0:0:
11,135,52718,2,0,L|25:213,1,80,8|0,0:0|0:0,0:0:0:0:
280,106,53034,2,0,P|208:119|167:85,1,120,0|0,1:0|0:0,0:0:0:0:
98,39,53349,2,0,L|109:-8,1,40,8|0,0:0|0:0,0:0:0:0:
153,215,53507,2,0,L|145:250,2,20,10|2|2,0:1|0:1|0:1,0:0:0:0:
50,211,53665,38,0,L|128:196,1,80,4|0,0:0|0:0,0:0:0:0:
309,329,53981,2,0,L|230:343,1,80,8|0,0:0|0:0,0:0:0:0:
380,207,54296,2,0,L|458:221,1,80,0|0,1:0|0:0,0:0:0:0:
318,94,54612,5,8,0:0:0:0:
427,340,54769,1,4,0:0:0:0:
267,210,54927,1,0,1:0:0:0:
182,236,55085,5,0,1:0:0:0:
25,45,55243,1,8,0:0:0:0:
103,120,55401,37,8,0:0:0:0:
103,120,55480,1,8,0:0:0:0:
96,138,55559,1,12,0:0:0:0:
18,354,55717,5,8,1:3:0:0:
55,272,55875,1,8,1:3:0:0:
0,201,56033,1,8,1:3:0:0:
179,353,56191,6,0,L|294:333,1,111.999996582031,4|0,0:0|1:0,0:0:0:0:
465,256,56823,2,0,P|439:226|363:224,1,111.999996582031,8|2,0:0|0:0,0:0:0:0:
302,153,57296,2,0,L|313:96,1,55.9999982910157,0|0,1:0|0:0,0:0:0:0:
210,204,57612,2,0,L|228:319,1,111.999996582031,8|0,0:0|1:0,0:0:0:0:
126,384,58085,2,0,P|132:349|140:317,1,55.9999982910157,8|2,0:0|0:0,0:0:0:0:
49,138,58401,1,2,0:0:0:0:
5,235,58559,1,2,0:1:0:0:
5,235,58638,1,2,0:1:0:0:
5,235,58717,38,0,P|55:245|109:214,1,111.999996582031,4|0,0:0|1:0,0:0:0:0:
398,95,59348,2,0,P|350:67|296:76,1,111.999996582031,8|2,0:0|0:0,0:0:0:0:
228,140,59822,2,0,L|238:201,1,55.9999982910157,0|0,1:0|0:0,0:0:0:0:
304,273,60138,2,0,L|294:334,1,55.9999982910157,8|0,0:0|0:0,0:0:0:0:
215,375,60454,5,0,1:0:0:0:
425,262,60612,1,8,0:0:0:0:
363,183,60769,5,0,1:0:0:0:
380,94,60927,1,0,1:0:0:0:
398,9,61085,1,0,1:0:0:0:
468,61,61243,37,4,0:0:0:0:
228,124,61559,1,0,1:0:0:0:
289,371,61875,1,8,0:0:0:0:
512,305,62191,1,2,0:0:0:0:
424,255,62348,6,0,P|363:282|319:271,1,111.999996582031,0|8,1:0|0:0,0:0:0:0:
249,200,62822,2,0,L|258:165,2,27.9999991455078,0|0|0,1:0|1:0|1:0,0:0:0:0:
158,88,63138,2,0,L|169:149,1,55.9999982910157,8|2,0:0|0:0,0:0:0:0:
309,77,63454,2,0,L|244:65,1,55.9999982910157,0|0,1:0|0:0,0:0:0:0:
3,225,63770,6,0,P|36:216|91:267,1,111.999996582031,4|0,0:0|1:0,0:0:0:0:
281,362,64244,1,2,0:0:0:0:
185,384,64402,2,0,L|203:274,1,111.999996582031,8|2,0:0|0:0,0:0:0:0:
129,192,64875,38,0,L|115:194,1,13.9999995727539,12|0,0:0|0:0,0:0:0:0:
311,291,65191,6,0,L|324:288,1,13.9999995727539,12|0,0:0|0:0,0:0:0:0:
485,145,65349,1,0,1:0:0:0:
409,197,65507,1,2,0:0:0:0:
488,350,65665,2,0,L|480:380,2,20,2|2|2,0:1|0:1|0:1,0:0:0:0:
402,317,65823,5,8,0:0:0:0:
370,315,65901,1,8,0:0:0:0:
338,321,65980,1,8,0:0:0:0:
312,339,66059,1,8,0:0:0:0:
284,353,66138,1,8,0:0:0:0:
252,357,66217,1,8,0:0:0:0:
220,355,66296,38,0,L|192:197,1,160,4|8,0:0|0:0,0:0:0:0:
300,72,66770,2,0,P|291:113|283:159,1,80,2|0,0:0|1:0,0:0:0:0:
195,27,67086,1,2,0:0:0:0:
408,133,67244,2,0,P|458:124|503:116,1,80,8|2,0:0|0:0,0:0:0:0:
292,259,67560,6,0,L|197:242,1,80,2|2,0:0|0:0,0:0:0:0:
0,199,67875,6,0,P|36:167|83:168,1,95.9999970703126,8|2,0:0|0:0,0:0:0:0:
287,0,68191,38,0,L|269:99,1,95.9999970703126,4|2,0:3|0:0,0:0:0:0:
409,315,68507,6,0,P|430:267|413:220,1,95.9999970703126,8|0,0:0|0:0,0:0:0:0:
265,211,68823,6,0,P|208:220|97:237,1,160,4|8,0:0|0:0,0:0:0:0:
18,132,69296,2,0,P|57:129|97:145,1,80,2|0,0:0|1:0,0:0:0:0:
322,46,69612,1,2,0:0:0:0:
225,0,69770,2,0,L|214:83,1,80,8|2,0:0|0:0,0:0:0:0:
322,46,70086,1,0,1:0:0:0:
109,0,70244,1,2,0:0:0:0:
297,180,70402,38,0,L|400:161,1,95.9999970703126,8|0,0:0|0:0,0:0:0:0:
512,54,70717,6,0,P|460:28|417:36,1,95.9999970703126,4|0,0:3|0:0,0:0:0:0:
374,290,71033,6,0,P|427:312|469:300,1,95.9999970703126,12|0,0:0|0:0,0:0:0:0:
192,189,71349,38,0,B|102:172|130:229|29:217,1,160,0|8,0:0|0:0,0:0:0:0:
235,32,71823,2,0,P|266:26|319:123,1,160,2|2,0:0|0:0,0:0:0:0:
431,235,72297,2,0,L|448:151,1,80,8|2,0:0|0:0,0:0:0:0:
328,245,72613,1,0,1:0:0:0:
494,322,72770,1,2,0:0:0:0:
387,90,72928,1,8,0:0:0:0:
234,288,73086,6,0,L|249:377,1,80,2|0,0:0|1:0,0:0:0:0:
314,152,73402,1,0,1:0:0:0:
118,282,73560,1,8,0:0:0:0:
346,379,73718,1,2,0:1:0:0:
349,368,73797,1,2,0:1:0:0:
353,358,73876,5,4,0:1:0:0:
244,204,74034,1,0,1:0:0:0:
118,282,74191,37,8,0:0:0:0:
196,78,74349,1,2,1:0:0:0:
416,212,74507,5,8,0:0:0:0:
484,373,74665,1,0,1:0:0:0:
277,285,74823,5,8,0:0:0:0:
343,67,74981,1,0,1:0:0:0:
173,199,75138,37,8,0:0:0:0:
392,295,75296,1,0,1:0:0:0:
89,358,75454,5,8,0:0:0:0:
440,194,75612,1,0,1:0:0:0:
231,26,75770,5,14,0:0:0:0:
276,234,75928,1,0,1:0:0:0:
52,281,76086,1,8,0:0:0:0:
18,72,76244,1,2,1:0:0:0:
152,157,76402,37,12,0:0:0:0:
333,366,76560,1,0,1:3:0:0:
356,283,76718,1,0,1:3:0:0:
498,17,76876,5,12,0:0:0:0:
395,121,77034,1,2,1:3:0:0:
416,205,77191,1,2,1:3:0:0:
244,277,77349,5,12,0:0:0:0:
467,347,77507,1,2,1:3:0:0:
314,180,77665,37,2,1:3:0:0:
88,285,77823,1,12,0:0:0:0:
295,380,77981,5,2,1:3:0:0:
202,55,78139,1,2,1:3:0:0:
502,237,78297,1,8,0:0:0:0:
388,286,78455,5,2,0:3:0:0:
380,285,78534,37,2,0:3:0:0:
372,281,78613,5,2,0:3:0:0:
366,273,78691,5,2,0:3:0:0:
361,252,78770,38,0,P|375:176|392:77,1,167.999994873047,14|0,3:0|1:0,0:0:0:0:
249,212,79244,2,0,L|167:199,1,80,8|2,0:0|0:0,0:0:0:0:
14,39,79559,1,0,1:0:0:0:
0,145,79717,2,0,P|38:147|80:128,1,80,2|8,0:0|0:0,0:0:0:0:
236,43,80033,6,0,P|184:23|159:24,1,80,2|0,1:3|1:0,0:0:0:0:
390,138,80348,2,0,P|427:136|464:118,1,80,2|8,0:3|0:0,0:0:0:0:
244,228,80664,2,0,P|233:254|228:310,1,80,2|0,0:3|1:0,0:0:0:0:
304,384,80980,2,0,B|381:391|377:335|463:351,1,160,2|2,0:3|0:0,0:0:0:0:
465,354,81375,1,2,0:1:0:0:
473,360,81454,5,0,1:0:0:0:
300,260,81612,1,2,0:0:0:0:
464,138,81769,2,0,L|445:226,1,80,8|2,0:0|0:3,0:0:0:0:
279,0,82085,1,0,1:0:0:0:
387,58,82243,1,0,1:0:0:0:
231,202,82401,1,8,0:0:0:0:
155,102,82559,38,0,P|163:61|171:17,1,80,2|0,0:3|1:0,0:0:0:0:
359,211,82875,2,0,P|351:170|343:126,1,80,2|8,0:3|0:0,0:0:0:0:
188,357,83190,2,0,P|196:316|204:272,1,80,2|0,0:3|1:0,0:0:0:0:
87,212,83507,5,2,0:0:0:0:
332,362,83665,1,8,0:0:0:0:
349,339,83744,1,8,0:0:0:0:
372,325,83823,1,8,0:0:0:0:
400,320,83902,1,8,0:0:0:0:
426,326,83980,6,0,P|438:268|459:163,2,160,4|8|0,0:0|0:0|1:0,0:0:0:0:
252,139,84769,1,0,1:0:0:0:
189,249,84927,2,0,L|272:236,1,80,8|2,0:0|0:0,0:0:0:0:
512,112,85243,1,0,1:0:0:0:
336,34,85401,1,2,0:0:0:0:
385,232,85559,2,0,P|393:191|402:148,1,80,8|0,0:0|0:0,0:0:0:0:
226,350,85875,38,0,P|302:336|364:385,1,160,2|8,0:0|0:0,0:0:0:0:
147,213,86348,1,2,0:1:0:0:
137,222,86427,1,2,0:1:0:0:
128,231,86506,6,0,L|42:250,1,80,0|2,1:0|0:0,0:0:0:0:
250,58,86822,2,0,P|240:102|239:144,1,80,8|2,0:0|0:0,0:0:0:0:
328,234,87138,6,0,B|405:241|401:185|487:201,1,160,0|8,1:3|0:0,0:0:0:0:
269,346,87612,2,0,P|230:333|182:336,1,80,2|0,0:0|1:0,0:0:0:0:
14,165,87928,1,2,0:0:0:0:
148,222,88086,1,8,0:0:0:0:
38,345,88244,37,2,0:0:0:0:
166,47,88402,1,0,1:0:0:0:
270,120,88559,1,8,0:0:0:0:
265,144,88638,1,8,0:0:0:0:
261,164,88717,1,8,0:0:0:0:
334,235,88875,6,0,P|349:241|469:178,1,160,4|0,0:0|1:0,0:0:0:0:
253,327,89349,2,0,L|165:314,1,80,8|2,0:0|0:0,0:0:0:0:
42,134,89665,1,0,1:0:0:0:
0,239,89823,2,0,L|83:226,1,80,2|8,0:0|0:0,0:0:0:0:
187,122,90139,6,0,P|200:72|201:37,1,80,2|0,1:3|1:0,0:0:0:0:
287,260,90455,2,0,P|274:310|273:345,1,80,2|8,0:3|0:0,0:0:0:0:
486,187,90770,2,0,L|368:167,1,120,2|0,0:3|0:0,0:0:0:0:
425,83,91086,2,0,P|462:68|509:72,1,80,2|8,0:3|0:0,0:0:0:0:
261,210,91402,38,0,B|218:219|187:187|187:187|140:174|101:205,1,160,2|0,0:3|1:0,0:0:0:0:
0,134,91876,2,0,P|33:115|84:119,1,80,8|2,0:0|0:0,0:0:0:0:
222,0,92191,1,0,1:0:0:0:
300,99,92349,2,0,P|263:102|222:85,1,80,2|8,0:0|0:0,0:0:0:0:
153,197,92665,6,0,P|164:227|167:283,1,80,2|0,0:3|1:0,0:0:0:0:
72,353,92981,2,0,P|30:345|-9:340,1,80,2|8,0:3|0:0,0:0:0:0:
293,238,93297,2,0,P|333:246|374:251,1,80,2|0,0:3|1:0,0:0:0:0:
99,116,93613,1,2,0:0:0:0:
184,0,93770,5,8,0:0:0:0:
206,4,93848,1,8,0:0:0:0:
221,22,93927,1,8,0:0:0:0:
221,45,94006,1,8,0:0:0:0:
213,62,94086,38,0,P|205:109|184:233,1,160,4|8,0:0|0:0,0:0:0:0:
455,311,94560,1,2,0:0:0:0:
349,384,94718,2,0,P|331:363|356:240,1,160,0|8,1:0|0:0,0:0:0:0:
502,184,95191,6,0,P|455:187|423:170,1,80,0|0,1:0|1:0,0:0:0:0:
255,93,95507,2,0,P|290:74|330:74,1,80,2|8,0:0|0:0,0:0:0:0:
428,15,95822,1,2,0:0:0:0:
277,201,95980,5,0,1:0:0:0:
191,172,96138,1,0,1:0:0:0:
5,151,96296,37,8,0:0:0:0:
194,56,96454,1,0,1:0:0:0:
94,0,96612,6,0,L|80:90,1,88.000002685547,8|2,0:0|0:0,0:0:0:0:
194,268,96928,1,0,1:0:0:0:
0,255,97086,6,0,P|36:227|82:229,1,88.000002685547,12|0,0:0|0:0,0:0:0:0:
313,305,97402,1,0,1:0:0:0:
243,94,97560,38,0,L|226:187,1,88.000002685547,12|0,0:0|0:0,0:0:0:0:
502,315,97875,6,0,P|482:279|391:269,1,132.00000402832,12|0,0:0|0:0,0:0:0:0:
313,305,98191,1,8,0:0:0:0:
299,302,98269,1,8,1:3:0:0:
286,300,98348,1,8,1:3:0:0:
273,298,98427,1,8,1:3:0:0:
259,270,98507,5,8,0:0:0:0:
215,271,98585,1,8,0:0:0:0:
184,300,98664,1,8,0:0:0:0:
178,343,98743,1,8,0:0:0:0:
196,369,98823,1,0,1:0:0:0:
0,256,99138,38,2,B|65:301|162:249|210:176|162:117|128:50|238:-18|354:12|398:139|322:208|250:234|178:201|198:108|130:110,1,652.800003984375
436,162,103401,53,0,1:0:0:0:
424,167,103480,1,0,1:0:0:0:
413,173,103559,2,0,L|402:222,1,47.9999985351563,8|0,0:0|0:0,0:0:0:0:
461,381,103717,2,0,L|472:332,1,47.9999985351563,8|0,0:0|0:0,0:0:0:0:
269,288,103875,38,0,L|304:282,1,23.9999992675781,2|0,0:0|0:0,0:0:0:0:
367,326,104033,6,0,B|312:315|312:315|282:338|282:338|210:327,1,160,4|2,0:0|0:0,0:0:0:0:
89,240,104507,2,0,L|169:230,1,80,8|2,0:0|0:0,0:0:0:0:
364,96,104823,1,0,1:0:0:0:
274,36,104981,6,0,L|262:100,1,60.0000022888184,2|0,0:3|0:0,0:0:0:0:
374,238,105138,2,0,P|363:208|363:178,1,60.0000022888184,10|0,0:0|0:0,0:0:0:0:
281,282,105296,54,0,P|321:270|406:346,1,160,2|2,0:3|0:0,0:0:0:0:
219,191,105770,2,0,L|95:209,1,120,8|0,0:0|0:0,0:0:0:0:
33,158,106086,2,0,L|40:126,6,20,2|2|2|2|2|2|2,0:1|0:1|0:1|0:1|0:1|0:1|0:1,0:0:0:0:
120,19,106402,6,0,B|106:6|102:-15|102:-15|99:-7|86:1,1,60.0000022888184,8|0,0:0|0:0,0:0:0:0:
0,46,106560,54,0,P|27:38|128:116,1,160,4|2,0:0|0:0,0:0:0:0:
428,7,107033,2,0,P|409:27|318:44,1,120,8|0,0:0|0:0,0:0:0:0:
240,94,107349,2,0,P|226:128|225:177,1,80,0|2,1:0|0:0,0:0:0:0:
299,350,107665,1,8,0:0:0:0:
164,293,107823,6,0,B|74:276|102:333|1:321,1,160,0|2,1:0|0:0,0:0:0:0:
252,212,108296,2,0,L|392:233,1,132.00000402832,8|0,0:0|0:0,0:0:0:0:
443,165,108612,54,0,P|438:132|427:103,1,60.0000022888184,2|0,0:3|0:0,0:0:0:0:
497,308,108770,2,0,P|503:275|518:246,1,60.0000022888184,2|0,0:3|0:0,0:0:0:0:
394,378,108928,2,0,P|372:344|298:334,1,120.000004577637,8|8,0:0|0:0,0:0:0:0:
93,296,109165,1,8,0:0:0:0:
93,296,109244,6,0,B|183:301|160:245|253:256,1,167.999994873047,4|8,0:0|0:0,0:0:0:0:
401,62,109717,1,2,0:0:0:0:
443,165,109875,2,0,P|401:159|352:152,1,80,0|2,1:0|0:3,0:0:0:0:
401,62,110191,1,8,0:0:0:0:
444,271,110349,1,2,0:3:0:0:
433,278,110428,1,2,0:1:0:0:
424,284,110507,54,0,L|405:377,1,80,0|2,1:0|0:0,0:0:0:0:
273,109,110823,2,0,L|292:16,1,80,8|2,0:0|0:0,0:0:0:0:
0,203,111138,6,0,B|79:231|79:231|87:289|87:289|181:321,1,223.999993164063,2|8,0:0|0:0,0:0:0:0:
350,200,111612,2,0,P|334:169|331:141,1,60.0000022888184,2|0,0:0|0:0,0:0:0:0:
209,50,111770,54,0,B|326:30|326:30|271:203,1,295.99999887085,2|8,0:0|0:0,0:0:0:0:
401,362,112244,1,2,0:1:0:0:
401,362,112323,1,2,0:1:0:0:
401,362,112402,2,0,P|386:321|388:273,1,80,0|2,1:0|0:0,0:0:0:0:
476,186,112717,1,8,0:0:0:0:
253,360,112875,6,0,P|226:320|153:313,1,120,0|0,1:0|0:0,0:0:0:0:
54,253,113191,2,0,P|37:282|36:330,1,80,0|8,1:0|0:0,0:0:0:0:
158,178,113506,54,2,L|130:11,1,160
243,69,113980,1,8,0:0:0:0:
36,167,114138,1,2,0:0:0:0:
220,288,114296,21,12,0:0:0:0:
320,299,114454,1,0,1:0:0:0:
369,377,114612,1,0,1:0:0:0:
509,97,114769,5,12,0:0:0:0:
417,137,114927,1,0,1:0:0:0:
401,232,115085,1,0,1:0:0:0:
174,120,115243,1,8,0:0:0:0:
368,3,115401,1,4,0:0:0:0:
315,123,115559,5,2,0:0:0:0:
285,211,115717,1,0,1:0:0:0:
369,377,115875,1,12,0:0:0:0:
146,244,116033,1,4,0:1:0:0:
137,238,116112,1,8,1:0:0:0:
127,232,116191,2,0,L|137:167,1,60.0000022888184,8|0,0:0|0:0,0:0:0:0:
1,72,116349,37,4,0:1:0:0:
27,80,116427,1,4,0:1:0:0:
54,74,116507,1,8,0:0:0:0:
74,56,116585,1,0,1:0:0:0:
83,29,116664,5,0,1:0:0:0:
76,18,116744,5,0,1:0:0:0:
64,16,116823,38,0,L|82:117,1,95.9999970703126,12|2,0:0|0:0,0:0:0:0:
339,186,117138,1,2,0:0:0:0:
215,327,117296,6,0,L|231:232,1,95.9999970703126,12|2,0:0|0:0,0:0:0:0:
338,281,117613,1,2,0:0:0:0:
98,325,117770,1,8,0:0:0:0:
293,105,117928,6,0,P|313:95|435:188,1,191.999994140625,4|8,0:0|0:0,0:0:0:0:
236,203,118401,1,8,0:0:0:0:
152,0,118560,1,2,0:0:0:0:
24,102,118717,38,0,L|73:92,1,47.9999985351563,2|0,0:3|0:0,0:0:0:0:
137,155,119112,6,0,L|131:179,4,20
205,96,119349,6,0,P|236:91|288:161,1,128,4|0,0:0|1:0,0:0:0:0:
484,53,119981,2,0,P|476:31|471:-10,1,64,0|2,1:0|0:0,0:0:0:0:
403,106,120218,1,0,0:0:0:0:
403,106,120297,2,0,L|393:175,1,64,8|0,0:1|0:0,0:0:0:0:
442,281,120613,38,0,L|311:261,1,128,0|8,1:0|0:1,0:0:0:0:
211,207,121086,1,2,0:0:0:0:
211,207,121165,1,0,0:0:0:0:
211,207,121244,2,0,L|222:279,1,64,0|2,1:0|0:0,0:0:0:0:
119,364,121560,2,0,P|121:337|131:301,1,64,0|2,1:1|0:0,0:0:0:0:
66,231,121797,1,0,0:0:0:0:
66,231,121876,6,0,L|-10:245,1,64,2|0,0:3|0:0,0:0:0:0:
176,116,122191,1,8,0:1:0:0:
91,27,122349,6,0,P|54:69|73:141,1,128,0|2,0:0|0:0,0:0:0:0:
164,202,122823,2,0,L|237:190,1,64,8|2,0:1|0:0,0:0:0:0:
351,103,123139,38,0,L|330:229,1,128,2|8,1:3|0:1,0:0:0:0:
505,384,123770,2,0,P|493:358|488:316,1,64,2|0,0:0|0:0,0:0:0:0:
423,241,124007,1,0,0:0:0:0:
428,247,124086,2,0,L|504:231,1,64,8|0,0:1|0:0,0:0:0:0:
361,356,124402,6,0,P|292:317|241:328,1,128,4|8,0:0|0:1,0:0:0:0:
56,239,124876,2,0,P|117:245|168:210,1,128,2|2,0:3|0:1,0:0:0:0:
224,113,125349,2,0,L|209:38,1,64,0|2,1:1|0:0,0:0:0:0:
321,174,125665,2,0,P|312:205|308:236,1,64,0|2,1:1|0:0,0:0:0:0:
391,307,125981,2,0,L|532:284,2,128,8|0|8,0:1|1:0|0:1,0:0:0:0:
320,373,126770,1,2,0:0:0:0:
253,299,126928,6,0,L|267:230,1,64,0|2,1:0|0:0,0:0:0:0:
153,136,127243,2,0,L|164:204,1,64,8|2,0:1|0:0,0:0:0:0:
53,295,127559,2,0,L|67:226,1,64,0|2,1:0|0:0,0:0:0:0:
0,155,127875,37,8,0:1:0:0:
200,276,128033,2,0,L|228:270,2,16,2|2|2,0:1|0:1|0:1,0:0:0:0:
190,256,128191,6,0,L|201:197,1,60.0000022888184,8|0,0:0|0:0,0:0:0:0:
152,35,128349,2,0,L|139:99,1,60.0000022888184,8|0,0:0|0:0,0:0:0:0:
253,127,128506,5,2,0:0:0:0:
73,214,128664,1,2,0:0:0:0:
346,344,128822,38,0,L|333:280,1,60.0000022888184,8|0,0:0|0:0,0:0:0:0:
388,141,128980,2,0,L|401:205,1,60.0000022888184,8|0,0:0|0:0,0:0:0:0:
123,302,129296,2,0,B|128:295|128:295|129:284|129:284|143:291,2,30.0000011444092,2|2|2,0:1|0:1|0:1,0:0:0:0:
214,331,129454,6,0,P|178:320|83:396,1,160,4|8,0:0|0:0,0:0:0:0:
271,199,129928,1,2,0:0:0:0:
356,264,130086,2,0,P|400:256|441:251,1,80,0|2,1:0|0:0,0:0:0:0:
271,199,130402,1,8,0:0:0:0:
391,108,130560,1,2,0:0:0:0:
261,0,130718,6,0,P|268:36|277:85,1,80,0|2,1:0|0:0,0:0:0:0:
132,241,131034,2,0,P|139:201|148:158,1,80,8|2,0:0|0:0,0:0:0:0:
0,66,131349,2,0,P|26:76|102:32,1,120,0|0,1:0|0:0,0:0:0:0:
225,70,131665,2,0,P|210:45|204:22,1,47.9999985351563,8|0,0:0|0:0,0:0:0:0:
128,184,131823,2,0,P|143:159|149:136,1,47.9999985351563,2|0,0:1|0:0,0:0:0:0:
258,163,131981,38,0,P|318:174|419:192,1,160,0|8,1:0|0:0,0:0:0:0:
509,102,132455,2,0,P|466:83|434:87,1,80,2|0,0:0|1:0,0:0:0:0:
231,276,132770,1,2,0:0:0:0:
324,367,132928,2,0,P|330:328|340:278,1,80,8|2,0:0|0:0,0:0:0:0:
36,131,133244,5,0,1:0:0:0:
140,193,133402,2,0,L|227:176,1,80,2|8,0:3|0:0,0:0:0:0:
36,131,133718,5,2,0:3:0:0:
231,276,133876,2,0,L|318:259,1,80,0|0,1:0|0:0,0:0:0:0:
452,181,134191,1,8,0:0:0:0:
292,124,134349,1,2,0:0:0:0:
393,334,134507,37,0,1:0:0:0:
301,375,134665,2,0,P|257:355|222:358,1,80,2|8,0:0|0:0,0:0:0:0:
0,219,134981,1,2,0:0:0:0:
165,155,135139,1,0,1:0:0:0:
143,243,135297,2,0,L|127:326,1,80,2|8,0:0|0:0,0:0:0:0:
51,111,135613,1,2,0:0:0:0:
160,30,135770,6,0,P|189:21|279:99,1,160,0|8,1:0|0:0,0:0:0:0:
482,222,136244,1,2,0:0:0:0:
353,342,136402,2,0,P|361:297|377:214,1,120,2|0,1:0|0:0,0:0:0:0:
423,148,136717,2,0,P|416:118|408:96,1,47.9999985351563,8|0,0:0|0:0,0:0:0:0:
472,38,136875,6,0,L|481:7,2,23.9999992675781,2|2|2,0:1|0:1|0:1,0:0:0:0:
293,147,137033,38,0,B|189:153|220:78|110:95,2,191.999994140625,12|8|0,0:0|0:0|1:0,0:0:0:0:
371,78,137823,1,0,0:0:0:0:
439,231,137981,2,0,P|426:269|421:309,1,80,8|2,0:0|0:0,0:0:0:0:
323,183,138296,5,12,0:0:0:0:
493,126,138454,1,2,0:0:0:0:
239,238,138612,1,12,0:0:0:0:
499,326,138769,1,2,0:0:0:0:
357,33,138927,5,8,1:0:0:0:
141,143,139085,1,8,1:3:0:0:
120,235,139243,1,8,1:3:0:0:
98,325,139401,1,8,1:3:0:0:
169,378,139559,53,4,0:0:0:0:
169,378,139875,2,0,P|220:368|286:356,1,111.999996582031,0|8,0:0|0:0,0:0:0:0:
463,258,140506,1,2,0:0:0:0:
387,201,140664,2,0,L|328:212,1,55.9999982910157,0|2,1:0|0:0,0:0:0:0:
383,305,140980,2,0,L|373:362,1,55.9999982910157,8|2,0:0|0:0,0:0:0:0:
497,169,141296,1,2,0:0:0:0:
427,109,141454,54,0,L|453:-9,1,111.999996582031,8|0,0:0|1:0,0:0:0:0:
332,64,141927,1,2,0:1:0:0:
324,71,142006,1,2,0:1:0:0:
317,79,142085,6,0,P|301:79|230:139,1,111.999996582031,0|2,1:0|1:2,0:0:0:0:
168,212,142559,1,2,0:0:0:0:
98,140,142717,2,0,L|110:76,1,55.9999982910157,8|2,0:0|0:0,0:0:0:0:
168,212,143033,5,2,0:0:0:0:
73,96,143190,2,0,L|65:33,1,55.9999982910157,0|0,1:0|0:0,0:0:0:0:
94,252,143506,2,0,L|102:315,1,55.9999982910157,8|2,0:0|0:0,0:0:0:0:
1,182,143822,37,0,1:0:0:0:
84,384,143980,2,0,P|106:354|179:340,1,111.999996582031,12|0,0:0|1:0,0:0:0:0:
268,384,144454,1,0,1:0:0:0:
319,289,144612,2,0,L|297:172,1,111.999996582031,4|2,0:0|1:2,0:0:0:0:
445,109,145244,6,0,P|454:64|468:-11,1,111.999996582031,8|2,0:0|0:0,0:0:0:0:
373,144,145718,6,0,P|389:144|460:204,1,111.999996582031,0|2,1:0|0:0,0:0:0:0:
294,71,146191,2,0,L|234:81,1,55.9999982910157,2|0,0:0|1:0,0:0:0:0:
158,125,146507,2,0,L|98:115,1,55.9999982910157,8|0,0:0|0:0,0:0:0:0:
0,62,146823,1,2,0:0:0:0:
78,15,146981,1,8,0:3:0:0:
167,238,147139,37,4,0:0:0:0:
241,166,147297,2,0,L|229:102,1,55.9999982910157,8|2,0:0|3:0,0:0:0:0:
167,238,147613,5,0,1:0:0:0:
277,22,147770,2,0,P|293:22|364:82,1,111.999996582031,8|8,0:0|0:0,0:0:0:0:
455,147,148244,1,2,0:1:0:0:
469,142,148323,1,2,0:1:0:0:
482,138,148402,1,0,1:0:0:0:
460,45,148560,5,2,0:0:0:0:
417,282,148718,1,12,0:0:0:0:
191,202,148876,1,2,0:0:0:0:
270,74,149034,37,12,0:3:0:0:
335,144,149191,1,8,0:0:0:0:
343,156,149270,1,8,0:0:0:0:
352,168,149349,2,8,L|340:221,1,51.999997619629
427,377,149507,2,0,L|419:344,2,25.9999988098145,2|2|2,1:1|0:1|1:1,0:0:0:0:
430,257,149665,6,0,P|409:252|306:332,1,160,4|8,0:0|0:0,0:0:0:0:
226,376,150138,2,0,L|143:362,1,80,2|0,0:0|1:0,0:0:0:0:
98,185,150454,1,2,0:0:0:0:
15,227,150612,6,0,L|-1:309,1,80,8|2,0:0|0:0,0:0:0:0:
169,106,150928,2,0,L|153:27,1,80,2|2,0:0|0:0,0:0:0:0:
165,272,151244,38,0,P|188:267|252:302,1,95.9999970703126,8|0,0:0|0:0,0:0:0:0:
497,168,151559,6,0,P|459:196|412:194,1,95.9999970703126,4|0,0:3|0:0,0:0:0:0:
319,94,151875,6,0,L|337:-8,1,95.9999970703126,8|0,0:0|0:0,0:0:0:0:
198,146,152191,38,0,B|145:160|145:160|127:192|127:192|57:213,1,160,4|8,0:0|0:0,0:0:0:0:
243,264,152664,2,0,L|328:279,1,80,2|0,0:0|1:0,0:0:0:0:
406,89,152980,1,2,0:0:0:0:
501,172,153138,2,0,L|416:187,1,80,8|0,0:0|1:0,0:0:0:0:
252,97,153454,5,0,1:0:0:0:
393,0,153612,1,2,0:0:0:0:
422,185,153770,6,0,L|402:282,1,95.9999970703126,8|0,0:0|0:0,0:0:0:0:
268,356,154086,38,0,P|329:366|359:386,1,95.9999970703126,4|0,0:3|0:0,0:0:0:0:
203,248,154402,6,0,L|46:279,1,143.999995605469,12|0,0:0|0:0,0:0:0:0:
0,212,154717,6,0,P|33:143|114:140,1,160,4|8,0:0|0:0,0:0:0:0:
365,58,155191,2,0,P|322:73|225:18,1,160,2|2,0:0|0:0,0:0:0:0:
234,238,155665,2,0,P|237:195|250:156,1,80,8|2,0:0|0:0,0:0:0:0:
6,272,155981,38,0,L|59:263,1,53.3333333333333,4|2,0:0|0:0,0:0:0:0:
154,319,156191,5,2,0:0:0:0:
164,327,156297,2,0,L|217:318,1,53.3333333333333,10|2,0:0|0:0,0:0:0:0:
318,359,156507,5,2,0:0:0:0:
330,368,156613,2,0,L|386:359,1,53.3333333333333,2|2,0:0|0:0,0:0:0:0:
441,280,156823,37,2,0:0:0:0:
442,275,156928,2,0,B|437:262|460:238|460:238|444:237|437:256,1,60.0000022888184,8|0,0:0|0:0,0:0:0:0:
444,243,157086,2,0,L|435:204,2,30.0000011444092,0|0|0,1:0|1:0|1:0,0:0:0:0:
364,188,157245,5,8,0:0:0:0:
308,0,157403,1,0,1:0:0:0:
243,61,157561,1,8,0:0:0:0:
224,142,157717,1,0,1:0:0:0:
150,206,157875,1,8,0:0:0:0:
122,121,158033,1,0,1:0:0:0:
70,5,158191,1,8,0:0:0:0:
15,228,158349,1,0,1:0:0:0:
240,276,158507,5,12,0:0:0:0:
306,178,158666,1,2,0:0:0:0:
315,351,158824,37,8,0:0:0:0:
215,82,158982,1,2,0:0:0:0:
438,207,159138,1,8,0:0:0:0:
502,267,159296,1,2,0:0:0:0:
496,355,159454,1,8,0:0:0:0:
269,260,159612,1,2,0:0:0:0:
337,107,159770,5,8,0:0:0:0:
376,34,159928,1,2,0:3:0:0:
457,21,160086,1,2,0:3:0:0:
269,260,160244,5,8,0:0:0:0:
178,27,160403,1,2,0:3:0:0:
261,102,160561,1,2,0:3:0:0:
138,274,160717,1,8,0:0:0:0:
244,367,160875,1,2,0:3:0:0:
162,151,161033,37,8,1:3:0:0:
366,295,161191,1,8,0:0:0:0:
393,284,161270,1,8,0:0:0:0:
418,285,161349,1,0,1:0:0:0:
466,205,161508,6,0,B|476:195|474:180|474:180|461:189|467:209,1,51.999997619629,6|0,0:1|0:0,0:0:0:0:
400,140,161824,5,2,0:1:0:0:
439,149,161902,37,2,0:1:0:0:
479,137,161982,21,2,0:1:0:0:
505,106,162060,37,2,0:1:0:0:
501,79,162138,22,0,P|490:132|468:235,1,160,14|0,3:0|1:0,0:0:0:0:
398,352,162613,2,0,P|433:370|475:368,1,80,8|2,0:0|0:0,0:0:0:0:
320,228,162928,1,0,1:0:0:0:
235,276,163086,2,0,L|147:263,1,80,2|8,0:0|0:0,0:0:0:0:
11,195,163411,38,0,P|55:186|96:173,1,80,2|0,0:3|0:0,0:0:0:0:
119,356,163725,2,0,P|75:365|34:378,1,80,2|8,0:3|0:0,0:0:0:0:
236,74,164042,6,0,P|224:118|221:164,1,80,2|0,0:3|1:0,0:0:0:0:
305,364,164357,2,0,P|318:322|321:274,1,80,2|8,0:3|0:0,0:0:0:0:
176,264,164672,5,2,0:1:0:0:
167,270,164751,1,2,0:1:0:0:
158,275,164830,2,0,P|150:274|33:361,1,160,4|8,0:0|0:0,0:0:0:0:
241,170,165304,1,2,0:0:0:0:
162,102,165462,2,0,P|114:113|78:121,1,80,0|2,1:0|0:0,0:0:0:0:
237,11,165777,1,8,0:0:0:0:
322,131,165935,38,0,L|308:213,1,80,2|0,0:3|0:0,0:0:0:0:
380,373,166251,2,0,P|395:337|389:289,1,80,2|8,0:3|0:0,0:0:0:0:
455,217,166567,6,0,L|541:199,1,80,2|0,0:3|1:0,0:0:0:0:
262,336,166883,2,0,L|183:319,1,80,2|8,0:3|0:0,0:0:0:0:
118,243,167120,6,0,L|135:168,2,60.0000022888184,8|8|8,0:0|0:0|0:0,0:0:0:0:
28,342,167357,38,0,B|70:244|183:286|183:286|154:296|151:344,1,240.000009155274,4|8,0:0|0:0,0:0:0:0:
356,100,167831,1,2,0:0:0:0:
239,22,167989,2,0,P|248:81|262:167,1,143.999995605469,0|0,1:0|0:0,0:0:0:0:
330,214,168305,2,0,L|318:271,1,47.9999985351563,8|0,0:0|0:0,0:0:0:0:
371,384,168463,2,0,L|383:327,1,47.9999985351563,2|0,0:0|0:0,0:0:0:0:
226,248,168621,5,0,1:0:0:0:
430,89,168778,1,2,0:0:0:0:
294,292,168936,6,0,B|230:308|230:308|216:352|216:352|135:373,1,191.999994140625,8|0,0:0|1:0,0:0:0:0:
0,89,169410,1,2,0:0:0:0:
98,157,169568,1,8,0:0:0:0:
10,215,169726,1,2,0:1:0:0:
19,228,169805,1,2,0:1:0:0:
29,242,169884,38,0,L|15:327,1,80,4|0,0:0|0:0,0:0:0:0:
252,126,170199,2,0,L|265:204,1,80,8|0,0:0|0:0,0:0:0:0:
99,6,170515,2,0,L|121:136,1,120,0|0,1:0|0:0,0:0:0:0:
56,197,170831,1,8,0:0:0:0:
225,43,170989,1,0,0:0:0:0:
429,153,171147,6,0,P|434:133|424:150,1,55.9999982910157,8|0,0:0|0:0,0:0:0:0:
485,216,171305,1,0,0:0:0:0:
255,227,171463,6,0,P|250:207|260:224,1,55.9999982910157,8|0,0:0|0:0,0:0:0:0:
199,290,171621,1,0,0:0:0:0:
370,339,171778,38,8,L|361:273,1,55.9999982910157,8|8,1:3|0:0,0:0:0:0:
327,47,171936,2,8,L|334:102,1,55.9999982910157
351,190,172094,5,8,0:0:0:0:
199,290,172252,2,0,B|148:242|86:251|86:251|72:280|35:281,1,167.999994873047,4|0,0:0|0:0,0:0:0:0:
0,202,172568,2,0,L|13:139,2,55.9999982910157,0|8|8,1:1|0:1|0:0,0:0:0:0:
203,109,172884,1,2,0:0:0:0:
76,0,173042,6,0,L|92:93,1,80,0|2,1:0|0:0,0:0:0:0:
262,209,173357,1,8,0:0:0:0:
148,306,173515,38,0,P|132:266|139:220,1,80,2|0,0:3|0:0,0:0:0:0:
357,91,173831,2,0,P|374:136|369:176,1,80,2|8,0:3|0:0,0:0:0:0:
203,69,174147,6,0,L|220:-24,1,80,2|0,0:3|1:0,0:0:0:0:
327,301,174463,2,0,L|310:394,1,80,2|8,0:3|0:0,0:0:0:0:
182,228,174778,5,2,0:1:0:0:
173,222,174857,1,2,0:1:0:0:
163,216,174936,2,8,P|106:234|4:256,1,160,4|8,0:0|0:0,0:0:0:0:
194,67,175410,1,2,0:0:0:0:
279,124,175568,2,0,P|318:129|354:151,1,80,0|0,1:0|0:0,0:0:0:0:
437,214,175884,1,8,0:0:0:0:
484,115,176042,38,0,L|468:30,1,80,2|0,0:3|0:0,0:0:0:0:
434,303,176357,2,0,L|515:318,1,80,2|8,0:3|0:0,0:0:0:0:
313,199,176673,2,0,L|234:213,1,80,2|0,0:3|1:0,0:0:0:0:
32,84,176989,1,8,0:0:0:0:
57,74,177067,1,8,0:0:0:0:
85,77,177146,1,8,0:0:0:0:
108,92,177225,1,8,0:0:0:0:
122,116,177304,1,8,0:0:0:0:
124,143,177383,1,8,0:0:0:0:
122,162,177463,6,0,L|106:284,1,120,4|0,0:0|0:0,0:0:0:0:
23,374,177778,2,0,P|12:339|19:294,1,80,8|0,0:0|0:0,0:0:0:0:
196,320,178094,6,0,P|236:312|319:385,1,160,0|8,1:0|0:0,0:0:0:0:
504,266,178568,2,0,P|455:286|428:282,1,80,2|0,0:0|1:0,0:0:0:0:
360,188,178884,2,0,L|375:105,1,80,2|8,0:0|0:0,0:0:0:0:
312,0,179199,1,2,0:1:0:0:
479,93,179357,1,0,1:0:0:0:
270,174,179515,1,2,0:0:0:0:
444,10,179673,37,8,0:0:0:0:
379,300,179831,1,2,1:0:0:0:
174,171,179989,6,0,P|109:148|80:156,1,95.9999970703126,12|2,0:0|0:0,0:0:0:0:
301,51,180305,1,0,1:0:0:0:
404,117,180463,6,0,L|501:102,1,95.9999970703126,12|2,0:0|0:0,0:0:0:0:
301,51,180778,1,2,0:0:0:0:
389,311,180936,38,0,L|407:214,1,95.9999970703126,12|0,0:0|0:0,0:0:0:0:
181,15,181252,6,0,L|192:82,1,63.9999980468751,0|2,1:0|0:0,0:0:0:0:
121,140,181410,6,0,L|78:132,2,31.9999990234375,2|2|2,0:1|0:1|0:1,0:0:0:0:
25,67,181568,38,0,P|39:35|43:0,1,63.9999980468751,12|2,0:0|0:0,0:0:0:0:
216,263,181778,6,0,P|202:231|198:196,1,63.9999980468751,8|8,0:3|0:3,0:0:0:0:
52,377,181989,6,0,P|66:336|66:306,1,63.9999980468751,8|8,0:3|0:3,0:0:0:0:
7,220,182199,37,0,1:0:0:0:
20,221,182305,5,8,1:3:0:0:
29,228,182410,5,8,1:3:0:0:
31,234,182515,38,0,B|23:134|94:56|169:48|262:67|294:151|287:200|146:217|124:157|118:132,1,478.400001926025,4|2,0:0|0:0,0:0:0:0:
120,139,184744,2,0,L|130:87,1,47.9999985351563,2|0,0:0|0:0,0:0:0:0:
70,43,185050,6,0,P|105:48|152:12,1,95.9999970703126,2|2,0:0|0:0,0:0:0:0:
386,201,185712,2,0,P|371:171|313:152,1,95.9999970703126,2|2,0:0|0:0,0:0:0:0:
236,202,186334,2,0,L|178:193,1,47.9999985351563,2|0,0:0|0:0,0:0:0:0:
126,136,186661,5,2,0:0:0:0:
12,383,186989,2,0,P|6:353|-3:325,1,47.9999985351563,2|0,0:0|0:0,0:0:0:0:
99,246,187303,2,0,L|89:306,1,47.9999985351563,2|0,0:0|0:0,0:0:0:0:
171,360,187617,2,0,B|268:368|252:296|352:317,1,191.999994140625,2|2,0:0|0:0,0:0:0:0:
509,223,188564,38,0,P|503:208|352:157,1,189.999994140625,2|2,0:0|0:0,0:0:0:0:
353,153,189501,2,0,L|298:143,1,47.9999985351563,2|0,0:0|0:0,0:0:0:0:
220,105,189812,2,0,L|165:115,1,47.9999985351563,2|0,0:0|0:0,0:0:0:0:
26,77,190123,6,0,B|50:29|100:29|100:29|-24:90|-45:167|15:334|162:305|158:188|93:152,1,548.600016650391,2|2,0:0|0:0,0:0:0:0:
94,151,191835,6,0,L|108:86,1,64,0|2,1:0|0:0,0:0:0:0:
232,263,192149,2,0,L|218:197,1,64,0|2,1:0|0:0,0:0:0:0:
219,200,192621,38,0,L|355:176,1,128,4|0,0:0|1:0,0:0:0:0:
405,108,193094,1,2,0:0:0:0:
405,108,193252,2,0,L|392:38,1,64,0|0,1:0|0:0,0:0:0:0:
489,172,193568,2,0,L|475:237,1,64,0|0,1:0|0:0,0:0:0:0:
397,284,193884,1,0,1:0:0:0:
468,334,194042,1,2,0:0:0:0:
377,377,194199,2,0,P|345:364|312:364,1,64,0|0,1:0|0:0,0:0:0:0:
163,310,194515,2,0,L|232:297,1,64,0|0,1:0|0:0,0:0:0:0:
290,217,194831,2,0,L|276:150,1,64,0|2,1:0|0:0,0:0:0:0:
183,50,195147,6,0,P|224:59|293:15,2,128,4|0|0,0:0|1:0|1:0,0:0:0:0:
72,116,195936,1,2,0:0:0:0:
72,116,196094,2,0,P|65:85|65:46,1,64,0|0,1:0|0:0,0:0:0:0:
166,161,196410,2,0,L|155:227,1,64,0|0,1:0|0:0,0:0:0:0:
41,309,196726,6,0,L|112:294,1,64,0|0,1:0|0:0,0:0:0:0:
237,358,197042,2,0,L|166:373,1,64,0|0,1:0|0:0,0:0:0:0:
358,261,197357,1,2,0:0:0:0:
340,347,197515,1,2,0:0:0:0:
254,191,197673,38,0,L|273:91,1,88.000002685547,8|0,0:0|0:0,0:0:0:0:
358,261,197989,1,2,0:0:0:0:
184,311,198147,6,0,P|144:290|97:298,1,88.000002685547,12|0,0:0|0:0,0:0:0:0:
0,180,198463,1,2,0:0:0:0:
184,311,198621,54,0,L|278:296,1,88.000002685547,12|2,0:0|0:0,0:0:0:0:
466,222,198936,1,0,1:0:0:0:
417,367,199094,1,0,1:0:0:0:
330,155,199252,22,0,L|315:68,1,88.000002685547,12|0,0:0|0:0,0:0:0:0:
116,278,199568,2,0,L|130:191,1,88.000002685547,12|0,0:0|0:0,0:0:0:0:
286,384,199884,2,0,L|271:297,1,88.000002685547,12|0,0:0|0:0,0:0:0:0:
32,224,200199,37,12,0:0:0:0:
130,134,200357,1,0,1:0:0:0:
112,47,200515,1,0,1:0:0:0:
350,219,200673,1,12,0:0:0:0:
246,142,200831,1,0,1:0:0:0:
264,55,200989,1,0,1:0:0:0:
476,193,201147,1,8,0:0:0:0:
250,308,201305,1,2,0:0:0:0:
358,127,201463,5,0,1:0:0:0:
417,292,201621,2,0,L|411:323,3,22.0000006713867,2|2|2|2,0:1|0:1|0:1|0:1,0:0:0:0:
418,272,201778,6,0,L|351:285,1,68.0000012969971,8|0,0:0|0:0,0:0:0:0:
258,358,201936,38,0,L|191:344,1,68.0000012969971,8|0,0:0|0:0,0:0:0:0:
34,285,202094,6,0,P|60:286|99:267,1,68.0000012969971,8|0,0:0|0:0,0:0:0:0:
141,194,202252,2,0,L|131:154,2,34.0000006484985,6|2|2,0:1|0:1|0:1,0:0:0:0:
210,255,202410,2,0,P|199:293|199:334,1,68.0000012969971,2|0,0:1|0:0,0:0:0:0:
123,167,202568,22,0,L|94:5,1,160,4|0,0:0|1:0,0:0:0:0:
247,120,203042,2,0,L|330:105,1,80,8|2,0:0|0:0,0:0:0:0:
436,148,203357,1,0,1:0:0:0:
344,5,203515,1,0,0:0:0:0:
249,207,203673,6,0,P|238:241|243:293,1,80,8|0,0:0|0:0,0:0:0:0:
349,340,203989,2,0,P|388:330|436:325,1,80,0|0,1:0|0:0,0:0:0:0:
125,251,204305,2,0,P|86:262|38:266,1,80,8|0,0:0|0:0,0:0:0:0:
308,13,204621,2,0,L|290:134,1,120,2|0,1:2|0:0,0:0:0:0:
386,218,204936,2,0,P|375:193|371:159,1,51.999997619629,8|0,0:0|0:0,0:0:0:0:
303,267,205094,54,0,P|332:258|408:340,1,160,2|0,0:0|0:0,0:0:0:0:
225,190,205568,2,0,L|99:211,1,120,8|0,0:0|0:0,0:0:0:0:
6,141,205884,2,0,P|32:124|85:120,1,80,0|2,1:0|0:0,0:0:0:0:
117,297,206199,2,0,P|91:314|38:318,1,80,8|2,0:0|0:0,0:0:0:0:
225,190,206515,5,0,1:0:0:0:
385,111,206673,1,2,0:0:0:0:
294,2,206831,2,0,L|280:87,1,80,8|2,0:0|0:0,0:0:0:0:
168,74,207147,1,0,1:0:0:0:
384,0,207305,1,0,1:0:0:0:
460,208,207463,1,8,0:0:0:0:
507,297,207621,54,0,P|424:243|365:255,1,160,4|0,0:0|1:0,0:0:0:0:
304,192,208015,1,2,0:1:0:0:
304,192,208094,2,0,P|314:147|324:101,1,80,8|2,0:0|0:0,0:0:0:0:
191,6,208410,2,0,L|144:15,1,40,2|2,0:1|0:0,0:0:0:0:
260,65,208568,2,0,P|283:69|336:40,1,80,2|8,0:0|0:0,0:0:0:0:
142,180,208884,6,0,B|12:154|12:154|48:173|41:222,1,200,4|0,0:0|0:0,0:0:0:0:
92,130,209357,2,0,P|81:102|77:53,1,80,8|2,0:0|0:0,0:0:0:0:
103,316,209673,54,0,P|24:368|-2:365,1,120,2|0,1:0|0:0,0:0:0:0:
3,366,209989,1,8,0:0:0:0:
240,231,210147,6,0,P|255:225|403:311,1,200,4|2,0:0|0:0,0:0:0:0:
486,261,210621,2,0,L|500:200,1,55.9999982910157,8|0,0:0|0:0,0:0:0:0:
450,13,210778,2,0,L|439:58,2,27.9999991455078,10|2|2,0:1|0:1|0:1,0:0:0:0:
512,116,210936,54,0,P|501:118|449:138,1,55.9999982910157,0|0,1:0|0:0,0:0:0:0:
301,0,211094,2,0,P|310:5|354:16,1,55.9999982910157,0|0,1:0|0:0,0:0:0:0:
310,119,211252,6,0,L|189:148,1,111.999996582031,8|4,0:0|0:0,0:0:0:0:
142,83,211489,1,2,0:0:0:0:
135,69,211568,54,0,L|149:9,2,55.9999982910157,2|2|2,0:1|0:0|0:1,0:0:0:0:
43,181,211884,6,0,L|60:274,1,88.000002685547,8|2,0:0|0:0,0:0:0:0:
170,351,212121,1,0,0:0:0:0:
162,361,212199,2,0,P|115:386|78:382,1,88.000002685547,8|8,0:0|0:0,0:0:0:0:
259,275,212436,1,8,0:0:0:0:
272,268,212515,54,0,L|344:282,1,64,8|0,0:0|0:0,0:0:0:0:
421,213,212673,6,0,B|459:178|459:178|418:50,1,176.000005371094,4|2,0:0|0:0,0:0:0:0:
489,0,213068,2,0,B|506:-5|506:-5|495:1|493:20,1,44.0000013427735,2|4,0:3|0:1,0:0:0:0:
318,161,213384,53,0,0:1:0:0:
308,170,213463,2,0,B|223:189|214:102|121:125,1,200,0|8,1:0|0:0,0:0:0:0:
0,65,213936,2,0,L|50:55,1,50,0|0,0:1|0:0,0:0:0:0:
120,125,214094,6,0,P|107:182|108:211,1,80
172,384,214410,1,8,0:0:0:0:
120,338,214568,54,0,L|207:321,1,80,2|0,0:0|1:0,0:0:0:0:
357,203,214884,1,0,1:0:0:0:
311,153,215042,6,0,L|299:237,1,80,8|2,0:0|0:1,0:0:0:0:
499,368,215357,1,0,1:0:0:0:
455,251,215515,1,2,0:0:0:0:
340,358,215673,2,0,P|299:339|256:341,1,80,8|2,0:0|0:0,0:0:0:0:
0,251,215989,54,0,P|16:258|158:162,1,200,2|0,0:0|0:0,0:0:0:0:
164,170,216463,6,0,P|158:137|149:110,1,55.9999982910157,2|0,0:0|0:0,0:0:0:0:
198,24,216621,2,0,L|195:43,1,16,4|0,0:0|0:0,0:0:0:0:
414,230,216778,54,0,P|419:197|429:170,1,55.9999982910157,2|0,0:0|0:0,0:0:0:0:
380,84,216936,2,0,L|383:103,1,16,4|0,0:0|0:0,0:0:0:0:
273,384,217094,6,0,B|329:318|329:318|258:260|258:260|291:142,1,300.000011444092,2|0,0:0|0:0,0:0:0:0:
183,19,217568,2,0,L|195:86,1,60.0000022888184,8|0,0:0|0:0,0:0:0:0:
318,35,217726,54,0,P|344:38|402:3,1,83.9999974365235,0|2,0:0|0:0,0:0:0:0:
90,161,218042,2,0,P|54:138|13:139,1,83.9999974365235,2|8,0:0|0:0,0:0:0:0:
265,356,218357,2,0,P|283:310|275:271,1,83.9999974365235,2|8,0:0|0:0,0:0:0:0:
362,176,218673,2,0,L|447:156,1,83.9999974365235,2|8,0:0|0:0,0:0:0:0:
136,302,218989,2,0,L|54:282,1,83.9999974365235,2|8,0:0|0:0,0:0:0:0:
211,113,219305,2,0,L|190:17,1,83.9999974365235,2|8,0:0|0:0,0:0:0:0:
312,299,219621,2,0,L|294:381,1,83.9999974365235,2|8,0:0|0:0,0:0:0:0:
421,304,219857,1,2,0:0:0:0:
408,308,219936,6,0,B|355:306|327:229|327:229|257:279|204:251,1,246.000003753662,2|0,0:0|0:0,0:0:0:0:
94,174,220252,2,0,B|111:143|136:136|136:136|119:148|120:191,1,88.000002685547,2|2,0:0|0:0,0:0:0:0:
127,171,220410,54,0,P|115:173|35:339,1,220.000006713867,12|0,0:0|0:0,0:0:0:0:
217,85,220884,6,0,P|213:68|86:3,1,176.000005371094,12|2,0:0|0:0,0:0:0:0:
232,211,221357,54,0,P|314:256|363:246,1,132.00000402832,12|0,0:0|0:0,0:0:0:0:
434,203,221673,21,0,1:0:0:0:
441,200,221831,1,0,1:0:0:0:
447,197,221989,2,0,L|463:121,1,68.0000012969971,8|2,0:0|0:0,0:0:0:0:
357,258,222305,1,0,1:0:0:0:
420,319,222463,1,0,1:0:0:0:
345,364,222621,2,0,L|263:350,1,68.0000012969971,8|2,0:0|0:0,0:0:0:0:
119,211,222936,38,0,B|60:273|60:273|93:359,1,176.000005371094,12|0,0:0|1:0,0:0:0:0:
240,172,223410,2,0,L|205:-3,1,176.000005371094,12|0,0:0|1:0,0:0:0:0:
379,177,223884,2,0,L|364:264,1,88.000002685547,12|2,0:0|0:0,0:0:0:0:
443,384,224199,21,0,1:0:0:0:
511,319,224357,2,0,P|500:282|499:243,1,68.0000012969971,2|8,0:0|0:0,0:0:0:0:
443,384,224673,1,2,0:0:0:0:
330,363,224831,6,0,L|233:383,1,88.000002685547,12|0,0:0|0:0,0:0:0:0:
231,370,225068,1,8,0:0:0:0:
209,347,225147,1,8,0:0:0:0:
215,303,225225,1,8,0:0:0:0:
222,259,225304,1,8,0:0:0:0:
228,216,225383,1,8,0:0:0:0:
214,184,225463,22,0,L|36:219,1,176.000005371094,12|0,0:0|1:0,0:0:0:0:
242,29,225936,6,0,P|269:19|343:126,1,176.000005371094,12|0,0:0|1:0,0:0:0:0:
478,245,226410,54,0,L|497:154,1,88.000002685547,12|2,0:0|0:0,0:0:0:0:
278,327,226726,21,0,1:0:0:0:
363,383,226884,2,0,L|375:317,1,68.0000012969971,2|8,0:0|0:0,0:0:0:0:
254,185,227199,2,0,L|265:251,1,68.0000012969971,2|0,0:0|1:0,0:0:0:0:
179,383,227515,1,8,0:0:0:0:
166,358,227593,1,8,0:0:0:0:
149,338,227672,1,8,0:0:0:0:
127,322,227751,1,8,0:0:0:0:
101,312,227830,1,8,0:0:0:0:
74,309,227909,1,8,0:0:0:0:
56,315,227989,6,0,P|64:264|82:153,1,160,4|8,0:0|0:0,0:0:0:0:
13,20,228463,1,2,0:0:0:0:
132,73,228621,2,0,L|219:56,1,80,0|2,1:0|0:0,0:0:0:0:
354,174,228936,2,0,P|364:137|358:85,1,80,8|2,0:0|0:0,0:0:0:0:
261,294,229252,6,0,P|309:283|394:353,1,160,0|8,1:0|0:0,0:0:0:0:
205,182,229726,1,2,0:0:0:0:
135,245,229884,38,0,L|55:259,1,80,0|0,1:0|0:0,0:0:0:0:
142,26,230199,2,0,L|62:12,1,80,8|0,0:0|0:0,0:0:0:0:
328,138,230515,6,0,L|430:123,1,95.9999970703126,12|0,0:0|0:0,0:0:0:0:
136,245,230831,1,0,1:0:0:0:
284,379,230989,6,0,P|302:337|286:289,1,95.9999970703126,12|0,0:0|0:0,0:0:0:0:
48,177,231305,1,2,1:0:0:0:
218,61,231463,38,0,L|201:156,1,95.9999970703126,12|0,0:0|0:0,0:0:0:0:
320,113,231778,5,2,0:0:0:0:
121,6,231936,1,0,1:0:0:0:
320,113,232094,2,0,L|406:98,1,80,8|0,0:0|0:0,0:0:0:0:
463,174,232331,1,2,0:1:0:0:
463,174,232410,2,0,L|444:259,1,80,0|2,1:0|0:0,0:0:0:0:
318,384,232726,1,8,0:0:0:0:
274,184,232884,1,2,0:0:0:0:
440,252,233042,5,12,0:0:0:0:
355,305,233199,1,0,1:0:0:0:
280,281,233357,1,0,1:0:0:0:
38,183,233515,1,12,0:0:0:0:
122,228,233673,1,0,1:0:0:0:
197,198,233831,1,0,1:0:0:0:
269,101,233989,37,8,0:0:0:0:
213,348,234147,1,2,0:0:0:0:
217,365,234305,1,2,0:0:0:0:
110,323,234465,6,0,L|76:331,1,20,8|0,0:0|3:0,0:0:0:0:
280,281,234625,6,0,L|246:289,1,20,12|0,0:0|3:0,0:0:0:0:
421,245,234786,38,0,L|387:253,1,20,12|0,0:0|3:0,0:0:0:0:
476,155,234946,6,0,P|463:126|460:86,1,64,4|0,0:1|0:0,0:0:0:0:
312,384,235107,6,0,P|325:355|328:315,1,64,4|0,0:1|0:0,0:0:0:0:
512,317,235427,38,0,L|478:309,1,20,12|0,0:0|3:0,0:0:0:0:
0,383,236664,38,0,P|4:362|158:304,1,192,4|0,0:0|0:0,0:0:0:0:
155,308,236979,6,0,P|157:305|174:242,1,60.0000022888184,2|0,1:0|0:0,0:0:0:0:
232,183,237137,2,0,P|231:173|210:120,1,60.0000022888184,8|0,0:0|0:0,0:0:0:0:
151,77,237295,54,0,P|198:87|300:-10,1,192,4|0,0:0|0:0,0:0:0:0:
275,15,237611,6,0,L|287:81,1,60.0000022888184,8|0,0:0|0:0,0:0:0:0:
356,180,237769,54,0,L|342:258,1,80,8|0,0:0|0:0,0:0:0:0:
269,370,237927,22,0,B|228:299|136:326|136:326|164:331|177:356,1,200,14|0,3:0|1:0,0:0:0:0:
222,203,238401,2,0,L|238:121,1,80,8|2,0:0|0:0,0:0:0:0:
101,0,238717,1,0,1:0:0:0:
21,121,238875,2,0,P|63:123|98:106,1,80,2|8,0:0|0:0,0:0:0:0:
346,39,239190,6,0,L|265:24,1,80,0|0,1:0|1:0,0:0:0:0:
156,204,239506,1,2,0:0:0:0:
96,107,239663,2,0,L|113:22,1,80,8|2,0:0|0:0,0:0:0:0:
0,181,239900,1,0,0:0:0:0:
3,192,239979,5,8,0:0:0:0:
49,196,240057,1,8,0:0:0:0:
79,232,240136,1,8,0:0:0:0:
75,279,240215,1,8,0:0:0:0:
98,301,240295,37,8,0:0:0:0:
95,312,240374,1,8,0:0:0:0:
93,323,240453,1,8,0:0:0:0:
89,333,240532,1,8,0:0:0:0:
140,377,240611,6,0,B|182:384|207:345|207:345|246:319|296:338,1,160,4|8,0:0|0:0,0:0:0:0:
444,269,241085,1,2,0:0:0:0:
360,120,241242,2,0,L|344:199,1,80,0|0,1:0|0:0,0:0:0:0:
439,37,241558,1,8,0:0:0:0:
232,140,241716,1,0,1:0:0:0:
444,269,241874,2,0,P|459:230|452:186,1,80,2|0,0:0|1:0,0:0:0:0:
321,282,242190,6,0,P|314:281|215:360,1,132.00000402832,8|0,0:0|0:0,0:0:0:0:
144,275,242506,2,0,L|128:190,1,80,0|0,1:0|0:0,0:0:0:0:
219,345,242821,1,8,0:0:0:0:
125,60,242979,37,2,0:1:0:0:
120,72,243058,1,2,0:1:0:0:
115,84,243137,2,0,P|85:85|14:182,1,160,4|8,0:0|0:0,0:0:0:0:
121,176,243611,1,2,0:0:0:0:
311,0,243769,6,0,L|291:102,1,95.9999970703126,8|0,0:0|0:0,0:0:0:0:
429,338,244085,2,0,L|449:236,1,95.9999970703126,8|0,0:0|0:0,0:0:0:0:
183,280,244400,6,0,L|240:291,1,47.9999985351563,8|0,0:0|0:0,0:0:0:0:
285,206,244559,1,8,0:0:0:0:
275,207,244637,1,8,0:0:0:0:
267,210,244716,1,8,0:0:0:0:
256,212,244796,37,8,0:0:0:0:
245,166,244874,1,8,0:0:0:0:
265,123,244953,1,8,0:0:0:0:
307,102,245032,1,8,0:0:0:0:
327,92,245112,5,0,0:0:0:0:
332,79,245190,5,8,1:3:0:0:
329,67,245269,37,8,1:3:0:0:
322,62,245348,5,8,1:3:0:0:
315,59,245427,5,8,1:3:0:0:
309,62,245516,38,0,P|317:125|331:222,1,160,4|0,0:0|1:0,0:0:0:0:
214,351,245988,2,0,P|199:314|207:266,1,80,8|2,0:0|0:0,0:0:0:0:
56,118,246304,1,0,1:0:0:0:
2,226,246462,2,0,L|87:209,1,80,2|8,0:0|0:0,0:0:0:0:
185,108,246778,6,0,L|166:7,1,95.9999970703126,4|0,0:0|0:0,0:0:0:0:
356,200,247094,6,0,L|373:105,1,95.9999970703126,4|8,0:0|0:0,0:0:0:0:
231,311,247409,38,0,P|209:268|222:218,1,95.9999970703126,4|0,0:0|0:0,0:0:0:0:
354,356,247725,6,0,P|393:352|439:386,1,95.9999970703126,4|8,0:0|0:0,0:0:0:0:
218,223,248041,6,0,B|202:219|197:212|197:212|17:260,1,191.999994140625,4|0,0:0|1:0,0:0:0:0:
271,23,248515,2,0,L|258:104,1,80,8|2,0:0|0:0,0:0:0:0:
433,230,248830,1,0,1:0:0:0:
342,324,248988,2,0,L|329:245,1,80,2|8,0:0|0:0,0:0:0:0:
419,107,249304,38,0,P|461:99|508:90,1,80,2|0,0:3|1:0,0:0:0:0:
425,234,249621,2,0,P|465:242|512:254,1,80,2|8,0:3|0:0,0:0:0:0:
170,112,249936,6,0,P|127:104|81:95,1,80,2|0,0:3|1:0,0:0:0:0:
164,239,250252,2,0,P|123:247|77:259,1,80,2|8,1:3|1:2,0:0:0:0:
314,12,250568,6,0,B|343:73|282:100|308:176,1,160,4|0,0:0|1:0,0:0:0:0:
427,289,251042,2,0,P|465:240|439:147,1,160,8|0,0:0|1:0,0:0:0:0:
297,363,251515,2,0,P|336:365|380:386,1,80,2|8,0:0|0:0,0:0:0:0:
203,255,251831,38,0,L|41:286,1,160,0|0,1:0|1:0,0:0:0:0:
187,133,252305,2,0,P|198:104|204:46,1,80,8|0,0:0|0:0,0:0:0:0:
302,307,252621,2,0,P|291:336|285:394,1,80,0|2,1:0|0:0,0:0:0:0:
452,233,252936,1,8,0:0:0:0:
326,148,253094,1,0,1:0:0:0:
440,45,253252,5,12,0:0:0:0:
302,307,253410,1,0,1:0:0:0:
305,322,253568,1,0,1:0:0:0:
440,45,253726,5,12,0:0:0:0:
204,348,253884,1,0,1:0:0:0:
195,361,254042,1,0,1:0:0:0:
440,45,254199,1,12,0:0:0:0:
109,321,254357,37,0,1:0:0:0:
1,370,254515,5,8,0:0:0:0:
227,224,254673,1,2,0:0:0:0:
2,82,254831,1,12,0:0:0:0:
0,191,254989,5,8,0:0:0:0:
26,182,255067,1,8,0:0:0:0:
51,169,255146,1,8,0:0:0:0:
71,149,255225,1,8,0:0:0:0:
90,129,255304,1,8,0:0:0:0:
116,119,255383,1,8,0:0:0:0:
144,115,255462,37,0,1:0:0:0:
158,123,255542,5,0,1:0:0:0:
164,142,255621,5,0,1:0:0:0:
156,159,255699,37,0,1:0:0:0:
147,165,255796,6,0,B|147:111|200:-30|350:-55|505:96|397:184|307:146|235:119|242:5,1,547.199993320313,4|2,0:0|0:0,0:0:0:0:
403,248,258006,6,0,L|393:292,1,45.5999994433594,2|2,0:0|0:0,0:0:0:0:
511,176,258322,38,0,P|505:165|349:129,1,182.399997773438,6|2,0:0|0:0,0:0:0:0:
305,307,259585,2,0,P|310:317|466:353,1,182.399997773438,2|2,0:0|0:0,0:0:0:0:
183,215,260532,6,0,P|161:216|94:278,1,107.999996704102
88,283,260831,6,0,P|79:241|56:135,1,143.999995605469,4|0,0:0|1:0,0:0:0:0:
232,44,261304,1,2,0:0:0:0:
144,0,261462,2,0,L|129:77,1,71.9999978027344,0|0,1:0|0:0,0:0:0:0:
256,216,261778,2,0,P|252:173|240:140,1,71.9999978027344,0|0,1:0|0:0,0:0:0:0:
354,76,262094,38,0,L|499:52,1,143.999995605469,4|0,0:0|1:0,0:0:0:0:
280,4,262567,1,2,0:0:0:0:
354,187,262725,2,0,P|345:218|340:257,1,71.9999978027344,0|0,1:0|0:0,0:0:0:0:
436,384,263041,2,0,P|445:353|447:312,1,71.9999978027344,0|0,1:0|0:0,0:0:0:0:
93,233,263357,6,0,L|22:251,6,60.0000022888184,2|2|2|2|2|2|0,0:1|0:1|0:1|0:1|0:1|0:1|0:0,0:0:0:0:
170,162,263673,6,0,L|156:93,1,60.0000022888184,0|0,1:0|0:0,0:0:0:0:
298,15,263831,38,0,L|286:73,1,60.0000022888184,0|0,1:0|0:0,0:0:0:0:
370,160,263989,6,0,L|453:145,1,75.9999979705811,0|0,1:0|0:0,0:0:0:0:
282,263,264147,6,0,L|207:249,1,75.9999979705811,0|0,1:0|0:0,0:0:0:0:
71,170,264305,38,0,B|115:144|115:144|169:157,1,95.9999970703126,8|0,0:0|0:0,0:0:0:0:
177,352,264463,6,0,B|133:378|133:378|79:365,1,95.9999970703126,8|0,0:0|0:0,0:0:0:0:
287,270,264621,22,0,L|387:292,1,95.9999970703126,8|0,0:0|0:0,0:0:0:0:
268,22,264778,6,0,L|246:115,1,95.9999970703126,8|0,0:0|0:0,0:0:0:0:
504,19,264936,54,0,L|409:-1,1,95.9999970703126,8|0,0:0|0:0,0:0:0:0:
491,243,265094,6,0,L|512:149,1,95.9999970703126,8|0,0:0|0:0,0:0:0:0:
325,178,265252,6,0,L|348:173,1,20,8|0,0:1|0:0,0:0:0:0:
421,111,265410,2,0,B|421:86|396:75|396:75|410:85|407:118,1,80,2|0,0:0|0:0,0:0:0:0:
404,116,265725,38,0,P|390:185|370:285,1,167.999994873047,4|0,0:0|1:0,0:0:0:0:
282,368,266199,2,0,P|203:323|163:335,1,125.999996154785,8|0,0:0|0:0,0:0:0:0:
162,343,266515,2,0,L|79:326,1,83.9999974365235,0|2,1:0|0:0,0:0:0:0:
0,225,266831,1,8,0:0:0:0:
72,75,266989,6,0,L|89:161,1,83.9999974365235,2|0,1:2|1:0,1:0:0:0:
0,12,267305,1,2,0:0:0:0:
185,114,267463,2,0,L|275:99,1,83.9999974365235,8|2,0:0|0:0,0:0:0:0:
487,238,267778,1,0,1:0:0:0:
279,178,267936,1,0,1:0:0:0:
413,52,268094,1,8,0:0:0:0:
378,154,268252,54,0,P|387:197|395:240,1,83.9999974365235,2|0,0:0|1:0,0:0:0:0:
261,384,268568,2,0,P|264:352|276:323,1,54.0000002059937,2|0,0:0|0:0,0:0:0:0:
199,266,268726,6,0,B|167:250|167:250|95:284|123:352,1,162.000000617981,8|0,0:0|0:0,0:0:0:0:
283,190,269042,2,0,L|269:124,1,54.0000002059937,2|0,1:3|0:0,0:0:0:0:
363,15,269199,2,0,L|350:83,1,54.0000002059937,2|0,1:3|0:0,0:0:0:0:
452,167,269357,53,8,0:0:0:0:
166,43,269515,2,0,B|190:45|211:18|211:18|187:19|187:34,1,66.0000006294251,2|0,0:1|0:0,0:0:0:0:
263,81,269673,6,0,B|192:98|189:24|110:46,1,162.000000617981,4|0,0:1|0:0,0:0:0:0:
34,142,269989,2,0,P|66:145|113:127,1,83.9999974365235,8|2,0:0|0:0,0:0:0:0:
249,277,270305,2,0,P|227:245|220:194,1,83.9999974365235,0|2,1:0|0:0,0:0:0:0:
94,342,270621,1,8,0:0:0:0:
301,113,270778,53,8,0:0:0:0:
309,123,270857,1,8,0:0:0:0:
317,134,270936,2,0,P|375:153|483:177,1,167.999994873047,4|8,0:0|0:0,0:0:0:0:
339,239,271410,1,2,0:0:0:0:
211,99,271568,2,0,L|229:10,1,83.9999974365235,0|0,1:0|1:0,0:0:0:0:
111,269,271884,1,8,0:0:0:0:
0,209,272042,6,0,P|32:159|109:154,1,138.000002632141,4|0,0:0|0:0,0:0:0:0:
202,195,272357,2,0,L|258:183,1,54.0000002059937,2|0,0:0|0:0,0:0:0:0:
368,85,272515,2,0,L|315:96,1,54.0000002059937,8|0,0:0|0:0,0:0:0:0:
203,34,272673,54,0,P|237:4|300:2,1,108.000000411987,4|0,0:0|0:0,0:0:0:0:
470,190,272989,2,0,P|436:220|373:222,1,108.000000411987,4|0,0:0|0:0,0:0:0:0:
293,139,273305,2,0,L|306:81,1,54.0000002059937,10|0,0:1|0:0,0:0:0:0:
186,178,273463,6,0,B|113:199|113:199|104:252|104:252|7:287,1,221.999999153137,4|0,0:0|0:0,0:0:0:0:
0,268,273778,54,0,L|80:283,1,73.9999997177124,8|0,0:0|0:0,0:0:0:0:
163,364,273936,6,0,B|186:390|218:372|218:372|233:313|182:288,1,147.999999435425,2|0,0:0|1:0,0:0:0:0:
289,227,274173,1,2,0:0:0:0:
289,227,274252,2,0,P|265:224|283:232,1,73.9999997177124,8|0,0:0|0:0,0:0:0:0:
387,247,274410,54,0,L|425:237,3,36.9999998588562,2|2|2|0,0:1|0:1|0:1|0:0,0:0:0:0:
436,229,274568,6,0,B|426:191|463:165|463:165|387:232|262:239|166:146|202:-13|280:-31|383:4|369:79|334:102,1,571.200003486328,10|0,0:1|0:0,0:0:0:0:
337,96,275199,54,0,P|326:78|318:25,1,68.0000012969971,2|0,1:2|0:0,0:0:0:0:
168,220,275357,6,0,P|179:202|188:147,1,68.0000012969971,8|0,0:0|0:0,0:0:0:0:
0,81,275515,53,8,0:0:0:0:
45,92,275593,1,8,0:0:0:0:
88,73,275672,1,8,0:0:0:0:
110,32,275751,1,8,0:0:0:0:
79,0,275831,6,0,B|68:11|68:11|97:166,1,167.999994873047,4|0,0:0|1:0,0:0:0:0:
0,288,276305,2,0,P|34:279|99:347,1,125.999996154785,8|2,0:0|0:1,0:0:0:0:
109,345,276621,2,0,L|192:367,1,83.9999974365235,0|2,1:0|0:0,0:0:0:0:
318,293,276936,1,8,0:0:0:0:
248,159,277094,54,0,L|232:241,1,83.9999974365235,2|0,1:2|0:0,0:0:0:0:
442,233,277410,2,0,P|398:202|366:202,1,83.9999974365235,2|8,1:2|0:0,0:0:0:0:
75,129,277726,2,0,B|184:133|148:32|278:63,1,209.999993591309,2|0,0:0|0:0,0:0:0:0:
346,9,278199,6,0,B|327:-18|327:-18|332:18,1,60.0000022888184,8|0,0:0|0:0,0:0:0:0:
467,192,278357,2,0,P|467:181|480:130,1,60.0000022888184,10|2,0:1|0:1,0:0:0:0:
385,122,278515,54,0,B|345:115|335:89|335:89|275:94|206:142|206:142|221:186|187:211,1,272.000005187988,0|8,1:0|0:0,0:0:0:0:
60,117,278989,2,0,L|73:46,1,68.0000012969971,2|2,0:1|0:1,0:0:0:0:
194,204,279147,5,2,1:2:0:0:
108,194,279305,1,2,1:2:0:0:
33,241,279463,1,8,0:0:0:0:
18,324,279621,1,2,0:0:0:0:
230,100,279778,53,0,1:0:0:0:
163,30,279936,6,0,P|133:14|79:11,1,83.9999974365235,2|8,0:0|0:0,0:0:0:0:
352,137,280252,2,0,P|393:135|431:117,1,83.9999974365235,2|0,0:0|1:0,0:0:0:0:
185,221,280568,2,0,P|171:257|169:303,1,83.9999974365235,2|8,0:0|0:0,0:0:0:0:
252,373,280884,53,8,0:0:0:0:
252,373,280963,1,8,0:0:0:0:
252,373,281042,2,0,B|329:380|325:324|411:340,1,160,4|8,0:0|0:0,0:0:0:0:
500,211,281515,2,0,P|484:178|481:143,1,68.0000012969971,2|0,0:0|0:0,0:0:0:0:
351,97,281673,6,0,B|462:78|462:78|408:245,1,272.000005187988,2|8,0:0|0:0,0:0:0:0:
491,360,282147,1,2,0:0:0:0:
339,281,282305,54,0,L|272:295,1,68.0000012969971,10|0,0:1|0:0,0:0:0:0:
132,367,282463,2,0,P|170:369|202:382,1,68.0000012969971,2|0,0:0|0:0,0:0:0:0:
249,313,282621,6,0,L|212:132,1,180.000006866455,8|0,0:0|0:0,0:0:0:0:
135,63,282936,2,0,P|149:25|152:-2,1,60.0000022888184,2|0,0:0|0:0,0:0:0:0:
225,143,283094,2,0,B|149:166|149:166|140:210|140:210|51:236,1,204.000003890991,10|0,0:1|0:0,0:0:0:0:
277,61,283410,2,0,L|351:75,1,68.0000012969971,2|0,0:0|0:0,0:0:0:0:
439,164,283568,54,0,P|451:109|475:-7,1,167.999994873047,4|8,0:0|0:0,0:0:0:0:
332,249,284042,2,0,P|413:306|481:290,1,167.999994873047,2|0,0:0|1:0,0:0:0:0:
426,194,284515,1,8,0:0:0:0:
240,361,284673,6,0,B|146:334|169:405|73:383,1,167.999994873047,0|0,1:1|1:0,0:0:0:0:
176,257,285147,2,0,L|159:165,1,83.9999974365235,8|0,0:0|0:0,0:0:0:0:
303,2,285463,53,0,1:0:0:0:
450,35,285621,1,0,1:0:0:0:
417,177,285778,1,8,0:0:0:0:
273,135,285936,1,0,1:1:0:0:
372,79,286094,21,12,0:0:0:0:
372,79,286410,1,0,1:0:0:0:
294,40,286568,2,0,P|246:49|151:67,1,136.000002593994,8|0,0:0|1:0,0:0:0:0:
94,18,287042,1,8,0:0:0:0:
0,96,287199,5,4,0:0:0:0:
42,174,287357,2,0,P|33:208|32:244,1,68.0000012969971,2|2,0:0|0:0,0:0:0:0:
112,373,287673,2,0,P|119:339|114:300,1,68.0000012969971,8|2,0:0|0:0,0:0:0:0:
185,228,287989,5,8,0:0:0:0:
208,225,288067,1,8,0:0:0:0:
232,227,288146,1,8,0:0:0:0:
254,234,288225,1,8,0:0:0:0:
275,246,288304,1,8,0:0:0:0:
292,262,288383,1,8,0:0:0:0:
306,282,288462,1,8,0:0:0:0:
314,304,288541,1,8,0:0:0:0:
313,323,288621,38,0,L|446:297,1,136.000002593994,8|0,0:0|1:0,0:0:0:0:
512,237,289094,1,12,0:0:0:0:
467,160,289252,2,0,P|468:149|483:90,1,68.0000012969971,0|0,1:0|0:0,0:0:0:0:
361,0,289568,2,0,L|373:74,1,68.0000012969971,8|0,0:0|0:0,0:0:0:0:
260,210,289884,6,0,P|237:140|89:90,1,238.00000453949,2|0,0:0|3:0,0:0:0:0:
8,46,290515,6,0,L|24:43,1,16,2|0,0:0|0:0,0:0:0:0:
109,19,290988,37,2,0:1:0:0:
101,16,291068,5,2,0:1:0:0:
104,23,291132,6,0,L|94:92,1,68.0000012969971,12|2,0:0|0:0,0:0:0:0:
157,156,291447,1,2,0:0:0:0:
81,218,291605,2,0,P|-2:209|-23:168,1,136.000002593994,8|0,0:0|1:0,0:0:0:0:
161,300,292079,2,0,P|196:288|234:288,1,68.0000012969971,8|4,0:0|0:0,0:0:0:0:
316,362,292395,38,0,P|328:296|341:225,1,136.000002593994,2|8,0:0|0:0,0:0:0:0:
285,162,292789,2,0,P|256:145|281:165,1,102.000001945496,8|0,0:0|1:0,0:0:0:0:
331,67,293105,2,0,P|320:47|312:-2,1,68.0000012969971,0|0,1:0|0:0,0:0:0:0:
219,50,293342,2,0,L|171:42,2,34.0000006484985,0|0|0,1:0|1:0|1:0,0:0:0:0:
219,37,293658,6,0,P|156:48|80:62,1,136.000002593994,4|0,0:0|1:0,0:0:0:0:
1,165,294132,2,0,P|40:178|124:145,1,136.000002593994,8|0,0:0|1:0,0:0:0:0:
207,218,294605,2,0,P|198:253|197:288,1,68.0000012969971,8|4,0:0|0:0,0:0:0:0:
263,364,294921,1,2,0:0:0:0:
372,288,295094,5,8,0:0:0:0:
378,286,295179,1,8,0:0:0:0:
385,285,295264,1,8,0:0:0:0:
392,284,295349,1,8,0:0:0:0:
398,283,295434,1,8,0:0:0:0:
405,282,295520,1,8,0:0:0:0:
413,281,295605,38,0,L|407:309,1,28,2|0,0:0|0:0,0:0:0:0:
