osu file format v14

[General]
AudioFilename: audio.mp3
AudioLeadIn: 0
PreviewTime: 141213
Countdown: 0
SampleSet: Soft
StackLeniency: 0.7
Mode: 0
LetterboxInBreaks: 0
WidescreenStoryboard: 0

[Editor]
DistanceSpacing: 1.3
BeatDivisor: 4
GridSize: 32
TimelineZoom: 3.199999

[Metadata]
Title:Orarion
TitleUnicode:オラリオン
Artist:yanaginagi
ArtistUnicode:やなぎなぎ
Creator:Toyosaki Aki
Version:joker's Hard
Source:終わりのセラフ 名古屋決戦編
Tags:toooooon hohi joker- eir owari no seraph of the end battle in nagoya kessen-hen kessen hen 2nd season two anime japanese ending ed full version
BeatmapID:2256990
BeatmapSetID:1060676

[Difficulty]
HPDrainRate:6
CircleSize:3.8
OverallDifficulty:6.5
ApproachRate:8
SliderMultiplier:1.45
SliderTickRate:1

[Events]
//Background and Video events
0,0,"136759-seraph-of-the-end-vampire-reign-shinoa.jpg",0,0
//Break Periods
2,101005,108309
2,204030,212745
//Storyboard Layer 0 (Background)
//Storyboard Layer 1 (Fail)
//Storyboard Layer 2 (Pass)
//Storyboard Layer 3 (Foreground)
//Storyboard Layer 4 (Overlay)
//Storyboard Sound Samples

[TimingPoints]
1376,555.555555555556,4,2,1,40,1,0
10403,-100,4,2,1,5,0,0
10658,402.684563758389,4,2,1,50,1,0
11064,402.684563758389,4,2,1,60,1,0
17506,-111.111111111111,4,2,1,50,0,0
40057,416.666666666667,4,2,1,50,1,0
40890,461.538461538462,4,2,1,50,1,0
41120,444.444444444444,4,2,1,50,1,0
41342,461.538461538462,4,2,1,50,1,0
41803,521.739130434783,4,2,1,50,1,0
42324,545.454545454546,4,2,1,50,1,0
42596,1000,4,2,1,50,1,0
43096,810.810810810811,4,2,1,50,1,0
43906,555.555555555556,4,2,1,50,1,0
43906,-125,4,2,1,50,0,0
56683,571.428571428571,4,2,1,50,1,0
57254,500,4,2,1,60,1,0
57254,-106.382978723404,4,2,1,60,0,0
57754,521.739130434783,4,2,1,60,1,0
57906,491.803278688525,4,2,1,60,1,0
58275,428.571428571429,4,2,1,60,1,0
58703,-100,4,2,1,60,0,0
59127,402.684563758389,4,2,1,70,1,0
59127,-66.6666666666667,4,2,1,70,0,0
60737,402.684563758389,4,2,1,70,1,0
60737,-90.9090909090909,4,2,1,70,0,1
84093,-76.9230769230769,4,2,1,70,0,1
84696,-100,4,2,1,60,0,0
99395,-100,4,2,1,50,0,0
105838,-100,4,2,1,50,0,0
109059,-111.111111111111,4,2,1,50,0,0
109865,-111.111111111111,4,2,1,60,0,0
110670,-111.111111111111,4,2,1,70,0,0
112281,-111.111111111111,4,2,1,60,0,0
121937,416.666666666667,4,2,1,50,1,0
122770,461.538461538462,4,2,1,50,1,0
123000,444.444444444444,4,2,1,50,1,0
123222,461.538461538462,4,2,1,50,1,0
123683,521.739130434783,4,2,1,50,1,0
124204,545.454545454546,4,2,1,50,1,0
124476,1000,4,2,1,50,1,0
124726,681.818181818182,4,2,1,50,1,0
125237,731.707317073172,4,2,1,50,1,0
125786,555.555555555556,4,2,1,50,1,0
125786,-125,4,2,1,50,0,0
138563,571.428571428571,4,2,1,50,1,0
139134,500,4,2,1,60,1,0
139134,-102.040816326531,4,2,1,60,0,0
139634,521.739130434783,4,2,1,60,1,0
139786,491.803278688525,4,2,1,60,1,0
140155,428.571428571429,4,2,1,60,1,0
140583,-100,4,2,1,60,0,0
141012,402.684563758389,4,2,1,70,1,0
141012,-66.6666666666667,4,2,1,70,0,0
142622,402.684563758389,4,2,1,70,1,0
142622,-90.9090909090909,4,2,1,70,0,1
165978,-76.9230769230769,4,2,1,70,0,1
166581,-100,4,2,1,70,0,0
166985,402.684563758389,4,2,1,60,1,0
174837,402.684563758389,4,2,1,60,1,0
181279,-90.9090909090909,4,2,1,70,0,1
203830,-100,4,2,1,70,0,0
209266,-100,4,2,1,60,0,0
210273,-100,4,2,1,60,0,0
213494,-90.9090909090909,4,2,1,70,0,0
215306,-90.9090909090909,4,2,1,70,0,0
216716,-86.9565217391304,4,2,1,80,0,1
227790,-100,4,2,1,80,0,0
232622,-100,4,2,1,10,0,0

[Colours]
Combo1 : 234,49,100
Combo2 : 227,114,0
Combo3 : 10,194,120
Combo4 : 166,103,241

[HitObjects]
256,192,8042,12,2,10658,0:0:0:0:
421,111,11064,6,0,P|369:144|287:121,1,145,6|2,3:2|0:3,0:0:0:0:
256,95,11567,1,2,0:3:0:0:
246,84,11668,2,0,B|259:132|259:132|233:226,1,145,2|0,0:0|0:0,0:0:0:0:
137,192,12272,1,2,0:0:0:0:
137,192,12473,1,0,3:0:0:0:
183,303,12674,6,0,P|240:261|317:289,1,145,8|0,3:3|0:0,0:0:0:0:
372,341,13278,1,0,3:0:0:0:
426,261,13480,2,0,P|413:221|410:190,1,72.5,2|8,0:0|0:3,0:0:0:0:
314,195,13882,2,0,P|324:155|339:127,1,72.5,2|4,0:0|0:3,0:0:0:0:
417,43,14285,6,0,P|342:51|294:59,1,108.75,2|10,0:3|0:0,0:0:0:0:
227,95,14788,1,0,3:0:0:0:
227,95,14889,2,0,B|236:57|236:57|210:17,2,72.5,10|0|0,0:0|0:0|3:0,0:0:0:0:
170,173,15493,1,10,0:0:0:0:
170,173,15594,1,0,3:0:0:0:
170,173,15694,1,2,3:2:0:0:
74,159,15896,6,0,L|86:267,1,108.75,14|2,0:0|3:2,0:0:0:0:
118,297,16298,2,0,B|153:303|153:303|186:286,1,72.5,0|2,0:0|0:3,0:0:0:0:
269,247,16701,1,0,0:0:0:0:
269,247,16802,1,2,0:3:0:0:
269,247,16902,1,0,3:0:0:0:
306,333,17104,2,0,L|301:385,1,36.25,10|8,0:3|0:3,0:0:0:0:
306,333,17506,6,0,P|351:326|428:317,2,97.8749970130921,2|10|2,3:2|0:2|3:2,0:0:0:0:
218,190,18513,1,0,3:0:0:0:
218,190,18715,2,0,L|233:118,1,65.2499980087281,8|0,0:0|3:0,0:0:0:0:
243,42,19117,6,0,B|219:15|219:15|141:9,2,97.8749970130921,2|10|2,3:2|0:0|3:2,0:0:0:0:
348,178,20124,1,0,3:0:0:0:
348,178,20225,1,0,3:0:0:0:
348,178,20325,1,8,0:0:0:0:
262,193,20527,1,0,3:0:0:0:
180,217,20728,6,0,B|122:233|115:301,2,97.8749970130921,2|8|0,3:2|0:0|3:0,0:0:0:0:
309,326,21735,1,0,3:0:0:0:
309,326,21835,1,0,3:0:0:0:
309,326,21936,2,0,L|225:314,1,65.2499980087281,8|8,0:0|0:0,0:0:0:0:
180,217,22339,5,6,3:2:0:0:
264,209,22540,1,0,3:0:0:0:
348,199,22741,1,8,0:0:0:0:
432,190,22943,2,0,B|455:153|455:153|455:47,1,130.499996017456,2|0,3:2|3:0,0:0:0:0:
454,42,23446,1,0,3:0:0:0:
453,24,23547,1,10,0:0:0:0:
298,118,23949,6,0,B|240:96|240:96|206:108,2,97.8749970130921,6|8|0,3:2|0:0|3:0,0:0:0:0:
322,288,24956,1,0,3:0:0:0:
322,288,25057,1,0,3:0:0:0:
322,288,25157,1,8,0:0:0:0:
344,203,25359,1,0,3:0:0:0:
427,178,25560,6,0,B|436:155|440:132|440:132|436:110|422:84,2,97.8749970130921,2|10|2,3:2|0:0|3:2,0:0:0:0:
344,203,26366,1,2,3:2:0:0:
281,144,26567,1,2,3:0:0:0:
309,61,26768,2,0,P|269:69|241:70,1,65.2499980087281,10|0,0:0|3:0,0:0:0:0:
178,123,27171,6,0,B|158:74|158:74|171:14,2,97.8749970130921,2|10|2,3:2|0:2|3:2,0:0:0:0:
164,208,27976,2,0,L|150:276,1,65.2499980087281,8|0,0:0|3:0,0:0:0:0:
212,330,28379,1,8,0:0:0:0:
212,330,28580,1,0,3:0:0:0:
292,302,28782,6,0,P|397:295|405:296,2,97.8749970130921,6|10|2,3:2|0:0|3:0,0:0:0:0:
270,223,29587,2,0,P|260:179|262:147,1,65.2499980087281,10|10,0:0|0:0,0:0:0:0:
317,95,29990,1,10,0:0:0:0:
317,95,30090,1,10,0:0:0:0:
317,95,30191,1,8,0:3:0:0:
245,47,30392,6,0,P|140:40|132:41,2,97.8749970130921,6|2|2,3:2|3:2|3:2,0:0:0:0:
126,176,31399,1,0,3:0:0:0:
126,176,31600,2,0,P|119:229|119:250,1,65.2499980087281,8|0,0:0|3:0,0:0:0:0:
150,317,32003,6,0,P|110:291|59:294,2,97.8749970130921,2|2|2,3:2|3:2|3:2,0:0:0:0:
315,261,33010,1,0,3:0:0:0:
315,261,33211,1,8,0:0:0:0:
203,126,33614,6,0,P|206:51|224:33,2,97.8749970130921,2|2|2,3:2|3:2|3:2,0:0:0:0:
254,295,34621,1,0,3:0:0:0:
254,295,34822,2,0,P|262:265|250:224,1,65.2499980087281,8|0,0:0|0:0,0:0:0:0:
174,204,35225,6,0,L|55:212,2,97.8749970130921,2|2|2,3:2|3:2|3:2,0:0:0:0:
50,96,36231,1,0,3:0:0:0:
50,96,36433,1,8,0:0:0:0:
107,255,36835,6,0,P|116:292|116:330,2,65.2499980087281,6|0|10,3:2|3:0|0:0,0:0:0:0:
81,173,37439,2,0,P|117:208|194:206,1,130.499996017456,2|0,3:2|3:0,0:0:0:0:
271,160,38043,2,0,L|344:171,1,65.2499980087281,10|0,0:0|0:0,0:0:0:0:
401,223,38446,5,6,3:2:0:0:
323,256,38647,2,0,L|251:266,1,65.2499980087281,2|2,3:2|3:3,0:0:0:0:
201,328,39050,2,0,P|220:282|178:221,1,130.499996017456,6|0,3:2|3:0,0:0:0:0:
106,184,39654,1,10,0:0:0:0:
106,184,40057,6,0,L|90:53,2,108.75,6|2|2,3:2|3:2|3:2,0:0:0:0:
226,329,41120,1,0,3:0:0:0:
226,329,41342,2,0,P|256:309|304:301,1,72.5,10|0,0:0|3:0,0:0:0:0:
363,338,41803,2,0,P|333:294|362:205,1,145,2|2,3:2|3:2,0:0:0:0:
415,166,42596,1,8,0:3:0:0:
415,166,43096,2,0,L|429:109,2,48.3333333333333,8|4|0,0:3|0:3|3:0,0:0:0:0:
398,238,43906,6,0,P|435:281|398:340,2,116,14|2|2,3:2|0:0|0:0,0:0:0:0:
252,192,45572,1,2,0:0:0:0:
317,263,45850,1,4,0:3:0:0:
317,263,45989,1,4,0:3:0:0:
317,263,46128,2,0,P|305:310|303:333,2,58,4|0|2,0:3|0:0|0:0,0:0:0:0:
386,125,47239,2,0,P|346:138|290:83,1,116,8|0,0:3|3:0,0:0:0:0:
133,97,48350,6,0,P|91:132|35:121,2,116,6|2|2,3:2|0:0|0:0,0:0:0:0:
240,8,50017,1,2,0:0:0:0:
267,159,50572,2,0,B|351:120|331:200|443:150,1,174,2|4,0:3|0:3,0:0:0:0:
461,140,51544,1,4,0:3:0:0:
472,134,51683,1,4,0:3:0:0:
386,72,51961,1,4,0:3:0:0:
386,72,52239,2,0,P|352:60|326:60,1,58,8|0,0:3|0:0,0:0:0:0:
268,130,52794,6,0,P|182:147|120:79,1,174,6|4,0:3|0:3,0:0:0:0:
107,67,53767,1,4,0:3:0:0:
102,55,53906,1,4,0:3:0:0:
173,26,54183,1,0,0:0:0:0:
173,26,54461,2,0,P|212:30|242:44,1,58,2|0,0:0|0:0,0:0:0:0:
277,95,55017,2,0,B|364:134|342:50|444:95,1,174,0|0,0:0|0:0,0:0:0:0:
469,163,56128,2,0,P|452:199|482:269,1,116,2|2,0:0|0:0,0:0:0:0:
291,344,57254,6,0,P|272:285|318:227,1,136.299997920227,6|0,0:0|3:0,0:0:0:0:
355,209,57906,1,2,0:3:0:0:
368,204,58028,2,0,L|361:162,2,36.25,2|0|2,0:3|3:0|0:0,0:0:0:0:
126,181,58703,2,0,P|174:158|225:171,1,108.75,8|0,0:3|3:0,0:0:0:0:
256,195,59127,6,0,L|247:257,1,54.3750020742417,12|8,0:0|0:0,0:0:0:0:
248,247,60737,5,6,3:2:0:0:
248,247,60939,1,0,3:0:0:0:
145,234,61140,2,0,P|151:186|171:141,1,79.7500024337769,10|0,0:0|3:0,0:0:0:0:
202,122,61442,2,0,P|253:153|309:133,1,119.625003650665,10|0,0:0|3:0,0:0:0:0:
391,77,61945,1,10,0:0:0:0:
391,77,62147,1,0,3:0:0:0:
454,178,62348,6,0,B|481:222|462:273|462:273|407:306,1,159.500004867554,0|10,3:0|0:0,0:0:0:0:
320,348,62952,1,0,3:0:0:0:
320,348,63053,1,10,0:0:0:0:
320,348,63153,2,0,P|294:307|291:272,1,79.7500024337769,0|0,3:0|3:0,0:0:0:0:
348,191,63556,1,8,0:0:0:0:
348,191,63757,1,0,3:0:0:0:
269,101,63959,6,0,P|230:94|188:93,1,79.7500024337769,4|0,3:2|3:0,0:0:0:0:
101,146,64361,2,0,P|80:187|88:235,1,79.7500024337769,10|0,0:0|3:0,0:0:0:0:
104,266,64663,2,0,P|160:254|218:285,1,119.625003650665,10|0,0:0|3:0,0:0:0:0:
304,348,65167,1,10,0:0:0:0:
304,348,65368,1,0,3:0:0:0:
351,238,65569,6,0,P|360:199|381:162,1,79.7500024337769,0|0,3:0|3:0,0:0:0:0:
368,113,65871,1,0,3:0:0:0:
360,94,65972,1,10,0:0:0:0:
282,162,66173,2,0,P|242:158|110:149,1,159.500004867554,0|2,3:0|0:3,0:0:0:0:
24,116,66778,1,10,0:0:0:0:
29,235,66979,5,2,3:2:0:0:
29,235,67080,1,2,3:2:0:0:
29,235,67180,2,0,P|39:270|45:311,1,79.7500024337769,12|0,0:0|3:0,0:0:0:0:
127,376,67583,1,10,0:0:0:0:
201,304,67784,1,0,3:0:0:0:
201,304,67885,1,0,3:0:0:0:
201,304,67986,2,0,P|284:289|362:279,1,159.500004867554,10|10,0:2|0:0,0:0:0:0:
456,315,68590,1,0,3:0:0:0:
488,201,68790,6,0,P|429:206|384:170,2,119.625003650665,10|2|0,0:0|0:0|3:2,0:0:0:0:
467,104,69596,1,10,0:0:0:0:
467,104,69798,1,0,3:0:0:0:
369,70,69999,2,0,L|280:54,1,79.7500024337769,10|0,0:0|3:0,0:0:0:0:
261,12,70301,1,10,0:0:0:0:
261,12,70402,6,0,P|215:-3|151:38,1,119.625003650665,4|0,3:2|0:0,0:0:0:0:
137,78,70804,1,10,0:0:0:0:
159,179,71006,2,0,B|216:200|216:200|329:166,1,159.500004867554,0|0,3:0|3:0,0:0:0:0:
387,101,71610,1,10,0:0:0:0:
407,218,71811,6,0,B|377:291|456:285|400:385,1,159.500004867554,6|0,3:2|3:0,0:0:0:0:
314,323,72415,2,0,P|295:276|298:233,1,79.7500024337769,10|0,0:0|0:0,0:0:0:0:
307,196,72717,2,0,P|310:121|274:66,1,119.625003650665,8|8,0:0|0:0,0:0:0:0:
256,43,73120,1,8,0:0:0:0:
242,26,73220,2,0,L|191:22,2,39.8750012168885,8|8|8,0:0|0:0|0:3,0:0:0:0:
361,8,73623,6,0,P|411:-3|449:2,1,79.7500024337769,6|0,3:2|3:0,0:0:0:0:
508,77,74026,2,0,L|497:159,1,79.7500024337769,10|0,0:0|3:0,0:0:0:0:
510,206,74328,2,0,P|455:185|402:210,1,119.625003650665,10|0,0:0|3:0,0:0:0:0:
332,285,74831,1,10,0:0:0:0:
332,285,75033,1,0,3:0:0:0:
232,219,75234,6,0,B|273:168|250:107|250:107|202:68,1,159.500004867554,0|10,3:0|0:0,0:0:0:0:
144,24,75838,1,0,3:0:0:0:
144,24,75939,1,10,0:0:0:0:
144,24,76039,2,0,P|122:79|129:111,1,79.7500024337769,0|0,3:0|3:0,0:0:0:0:
61,181,76442,1,10,0:0:0:0:
61,181,76643,1,0,3:0:0:0:
102,293,76845,6,0,P|154:309|192:318,1,79.7500024337769,0|0,3:2|3:0,0:0:0:0:
276,281,77247,2,0,P|327:257|340:234,1,79.7500024337769,10|0,0:0|3:0,0:0:0:0:
377,204,77549,2,0,P|316:189|274:143,1,119.625003650665,10|0,0:0|3:0,0:0:0:0:
234,60,78053,1,10,0:0:0:0:
234,60,78254,1,0,3:0:0:0:
150,145,78455,6,0,P|80:170|63:170,1,79.7500024337769,0|0,3:0|3:0,0:0:0:0:
27,150,78757,1,0,3:0:0:0:
10,142,78858,1,10,0:0:0:0:
15,245,79059,2,0,B|56:293|56:293|167:298,1,159.500004867554,0|0,3:0|3:0,0:0:0:0:
263,273,79663,5,10,0:0:0:0:
263,273,79764,1,0,3:0:0:0:
263,273,79865,1,8,0:3:0:0:
263,273,79965,1,4,0:3:0:0:
263,273,80066,2,0,P|249:328|243:363,1,79.7500024337769,6|0,3:2|3:0,0:0:0:0:
348,351,80469,2,0,L|427:335,1,79.7500024337769,10|0,0:0|3:0,0:0:0:0:
491,254,80871,2,0,P|482:195|507:142,2,119.625003650665,0|2|0,3:0|0:0|3:0,0:0:0:0:
372,241,81677,6,0,P|335:201|227:213,1,159.500004867554,4|10,3:2|0:0,0:0:0:0:
175,289,82281,2,0,P|166:327|140:357,1,79.7500024337769,0|0,3:0|3:0,0:0:0:0:
49,306,82684,2,0,P|20:279|7:241,1,79.7500024337769,0|10,3:0|0:0,0:0:0:0:
82,170,83086,1,2,0:3:0:0:
82,170,83187,1,2,0:3:0:0:
82,170,83288,2,0,P|119:158|158:166,1,79.7500024337769,4|0,3:2|3:0,0:0:0:0:
257,233,83690,1,10,0:0:0:0:
257,233,83791,1,0,3:0:0:0:
257,233,83892,1,0,3:0:0:0:
257,233,83992,1,0,3:0:0:0:
257,233,84093,6,0,B|304:217|304:217|347:230|347:230|392:217,2,141.374993528366,10|10|14,3:2|3:2|3:2,0:0:0:0:
358,259,86509,5,0,3:0:0:0:
358,259,86710,2,0,B|266:248|266:248|238:203,1,145,12|8,0:0|0:3,0:0:0:0:
219,159,87214,1,8,0:3:0:0:
211,146,87314,1,0,3:0:0:0:
279,81,87516,1,0,3:0:0:0:
351,141,87717,2,0,P|395:135|423:113,1,72.5,8|0,0:0|0:0,0:0:0:0:
494,64,88120,6,0,P|504:15|520:-16,2,72.5,0|0|8,3:0|3:0|0:0,0:0:0:0:
506,157,88724,2,0,B|491:244|491:244|444:274,1,145,0|0,3:0|3:0,0:0:0:0:
357,315,89328,1,8,0:0:0:0:
357,315,89529,1,0,0:0:0:0:
289,248,89731,6,0,P|259:209|225:191,1,72.5,2|0,3:0|3:0,0:0:0:0:
314,140,90133,2,0,P|308:91|288:58,1,72.5,8|0,0:0|3:0,0:0:0:0:
207,96,90536,2,0,P|161:78|122:80,1,72.5,0|0,3:0|3:0,0:0:0:0:
63,161,90939,1,8,0:0:0:0:
128,337,91341,6,0,B|132:238|132:238|168:200,1,145,4|8,3:2|0:0,0:0:0:0:
253,261,91945,1,0,3:0:0:0:
253,261,92046,1,8,0:0:0:0:
253,261,92147,2,0,P|305:251|322:240,1,72.5,0|0,3:0|3:0,0:0:0:0:
299,149,92549,2,0,L|285:66,1,72.5,8|0,0:0|3:0,0:0:0:0:
363,19,92952,6,0,P|410:8|479:70,1,145,4|8,3:2|0:0,0:0:0:0:
509,155,93556,2,0,B|482:185|482:185|494:292,1,145,0|0,3:0|3:0,0:0:0:0:
416,343,94160,2,0,L|407:268,1,72.5,8|2,0:0|3:0,0:0:0:0:
346,198,94563,5,0,3:0:0:0:
346,198,94764,1,0,3:0:0:0:
272,257,94965,2,0,B|219:252|219:252|190:225|190:225|109:219,2,145,8|0|8,0:0|3:0|0:0,0:0:0:0:
84,280,96173,6,0,P|111:232|64:157,1,145,4|8,3:2|0:0,0:0:0:0:
1,94,96778,2,0,P|54:105|147:117,1,145,0|0,3:0|3:0,0:0:0:0:
224,66,97382,1,8,0:0:0:0:
224,66,97583,1,0,0:0:0:0:
305,113,97784,6,0,P|328:83|358:62,2,72.5,2|0|8,3:2|3:0|0:0,0:0:0:0:
247,188,98388,1,0,3:0:0:0:
329,234,98590,2,0,P|364:220|400:217,2,72.5,8|8|8,0:0|0:3|0:3,0:0:0:0:
258,296,99194,1,4,0:3:0:0:
172,257,99395,5,4,3:2:0:0:
172,257,109059,6,0,L|328:243,1,130.499996017456,6|8,3:2|0:0,0:0:0:0:
368,192,109663,1,8,0:0:0:0:
368,192,109865,2,0,P|371:140|387:113,1,65.2499980087281,8|8,0:0|0:0,0:0:0:0:
424,59,110267,1,8,0:0:0:0:
424,59,110469,1,8,0:0:0:0:
334,22,110670,6,0,L|223:38,1,97.8749970130921,6|8,3:2|0:0,0:0:0:0:
195,25,111073,1,8,0:0:0:0:
150,112,111274,2,0,B|173:150|173:150|146:253,1,130.499996017456,4|0,3:2|3:0,0:0:0:0:
137,332,111878,1,10,0:0:0:0:
137,332,111979,1,8,0:3:0:0:
137,332,112080,1,4,0:3:0:0:
137,332,112180,1,0,3:0:0:0:
137,332,112281,6,0,L|293:313,1,130.499996017456,6|10,3:2|0:0,0:0:0:0:
311,244,112885,2,0,P|350:204|430:216,1,130.499996017456,0|0,3:0|3:0,0:0:0:0:
492,253,113489,1,8,0:0:0:0:
492,253,113690,1,0,3:2:0:0:
420,208,113892,6,0,L|434:142,1,65.2499980087281,2|0,3:2|3:0,0:0:0:0:
476,71,114294,1,10,0:0:0:0:
476,71,114496,2,0,P|427:103|346:76,1,130.499996017456,2|0,3:2|3:0,0:0:0:0:
291,38,115100,1,10,0:0:0:0:
239,199,115502,6,0,P|118:210|90:215,1,130.499996017456,2|10,3:2|0:0,0:0:0:0:
48,152,116106,2,0,P|25:203|50:277,1,130.499996017456,0|0,3:0|3:0,0:0:0:0:
109,328,116710,1,10,0:0:0:0:
109,328,116912,1,0,3:0:0:0:
179,280,117113,6,0,B|222:260|222:260|311:285,1,130.499996017456,2|10,3:2|0:0,0:0:0:0:
336,360,117717,2,0,B|293:380|293:380|204:355,1,130.499996017456,2|0,3:2|3:0,0:0:0:0:
179,280,118321,1,10,0:0:0:0:
326,196,118724,6,0,L|251:207,1,65.2499980087281,4|0,3:2|3:0,0:0:0:0:
189,160,119126,1,10,0:0:0:0:
189,160,119328,2,0,P|125:173|68:129,1,130.499996017456,2|0,3:2|3:0,0:0:0:0:
30,65,119932,1,10,0:0:0:0:
194,21,120335,6,0,P|226:32|264:37,1,65.2499980087281,6|0,3:2|3:0,0:0:0:0:
337,10,120737,1,10,0:0:0:0:
337,10,120939,2,0,P|311:36|309:127,1,130.499996017456,4|0,3:2|3:0,0:0:0:0:
370,183,121543,1,10,0:0:0:0:
235,299,121937,6,0,P|238:251|244:184,2,108.75,6|2|2,3:2|3:2|3:2,0:0:0:0:
54,345,123000,1,0,3:0:0:0:
54,345,123222,2,0,P|39:297|39:265,1,72.5,8|0,0:0|3:0,0:0:0:0:
87,207,123683,2,0,P|139:243|227:226,1,145,2|2,3:2|3:2,0:0:0:0:
273,181,124476,1,8,0:3:0:0:
273,181,124726,2,0,P|288:141|314:113,1,72.5,8|2,0:0|0:0,0:0:0:0:
384,82,125237,2,0,L|446:70,2,36.25,8|4|0,0:3|0:3|3:0,0:0:0:0:
307,118,125786,6,0,P|271:130|203:88,2,116,14|2|2,3:2|0:0|0:0,0:0:0:0:
427,0,127452,1,2,0:0:0:0:
409,101,127730,1,4,0:3:0:0:
409,101,127869,1,4,0:3:0:0:
409,101,128008,2,0,P|400:135|396:168,2,58,4|0|2,0:3|0:0|0:0,0:0:0:0:
485,212,129119,2,0,B|496:280|496:280|457:334,1,116,8|0,0:3|3:0,0:0:0:0:
319,293,130230,6,0,B|251:282|251:282|197:321,2,116,4|2|2,3:2|0:0|0:0,0:0:0:0:
279,147,131897,1,2,0:0:0:0:
147,220,132452,2,0,P|181:178|99:97,1,174,2|4,0:3|0:3,0:0:0:0:
95,92,133424,1,4,0:3:0:0:
82,94,133563,1,4,0:3:0:0:
33,162,133841,1,4,0:3:0:0:
33,162,134119,2,0,P|21:198|19:220,1,58,8|0,0:3|0:0,0:0:0:0:
59,281,134674,6,0,B|143:242|123:322|235:272,1,174,6|4,0:3|0:3,0:0:0:0:
253,262,135646,1,4,0:3:0:0:
264,256,135785,1,4,0:3:0:0:
337,299,136063,1,0,0:0:0:0:
337,299,136341,2,0,P|383:282|413:278,1,58,2|0,0:0|0:0,0:0:0:0:
435,341,136897,2,0,B|420:227|420:227|463:161,1,174,0|0,0:0|0:0,0:0:0:0:
502,121,138008,2,0,P|456:144|380:116,1,116,2|2,0:0|0:0,0:0:0:0:
189,81,139134,6,0,B|234:49|282:74|282:74|341:49,1,142.099998699036,6|0,0:2|3:0,0:0:0:0:
365,39,139786,1,2,0:3:0:0:
382,35,139908,2,0,L|388:0,2,36.25,2|0|2,0:3|3:0|0:0,0:0:0:0:
337,201,140583,2,0,P|290:233|225:202,1,108.75,8|0,0:3|3:0,0:0:0:0:
197,201,141012,6,0,L|208:268,1,54.3750020742417,12|8,0:0|0:0,0:0:0:0:
205,254,142622,5,4,3:2:0:0:
205,254,142824,1,0,3:0:0:0:
264,169,143025,2,0,P|300:150|352:156,1,79.7500024337769,10|0,0:0|3:0,0:0:0:0:
379,118,143327,2,0,P|354:174|402:240,1,119.625003650665,10|0,0:0|3:0,0:0:0:0:
457,288,143830,1,10,0:0:0:0:
457,288,144032,1,0,3:0:0:0:
360,357,144233,6,0,P|296:346|198:335,1,159.500004867554,0|10,3:0|0:0,0:0:0:0:
112,379,144837,1,0,3:0:0:0:
112,379,144938,1,10,0:0:0:0:
112,379,145038,2,0,P|107:333|86:302,1,79.7500024337769,0|0,3:0|3:0,0:0:0:0:
20,234,145441,1,10,0:0:0:0:
20,234,145642,1,0,3:0:0:0:
129,184,145844,6,0,P|135:145|160:109,1,79.7500024337769,0|0,3:0|3:0,0:0:0:0:
230,184,146246,2,0,P|224:217|216:275,1,79.7500024337769,10|0,0:0|3:0,0:0:0:0:
193,308,146548,2,0,P|252:324|310:292,1,119.625003650665,10|0,0:0|3:0,0:0:0:0:
399,350,147052,1,10,0:0:0:0:
399,350,147253,1,0,3:0:0:0:
450,243,147454,6,0,P|436:205|428:162,1,79.7500024337769,0|0,3:0|3:0,0:0:0:0:
441,116,147756,1,0,3:0:0:0:
447,95,147857,1,10,0:0:0:0:
372,23,148058,2,0,P|291:4|219:76,1,159.500004867554,0|2,3:0|3:3,0:0:0:0:
130,21,148663,1,10,0:0:0:0:
125,139,148864,5,2,3:2:0:0:
125,139,148965,1,2,3:2:0:0:
125,139,149065,2,0,P|151:185|145:235,1,79.7500024337769,12|0,0:0|3:0,0:0:0:0:
95,298,149468,1,10,0:0:0:0:
160,381,149669,1,0,3:0:0:0:
160,381,149770,1,0,3:0:0:0:
160,381,149871,2,0,B|200:348|256:362|256:362|300:320,1,159.500004867554,10|10,0:0|0:0,0:0:0:0:
325,221,150475,1,0,3:0:0:0:
228,152,150676,6,0,B|203:193|203:193|218:277,2,119.625003650665,10|2|0,0:0|0:0|3:0,0:0:0:0:
204,55,151481,1,2,0:0:0:0:
204,55,151682,1,0,3:0:0:0:
300,16,151883,1,10,0:0:0:0:
373,103,152085,5,0,3:0:0:0:
373,103,152186,1,10,0:0:0:0:
373,103,152287,2,0,P|363:161|354:236,1,119.625003650665,4|0,3:2|0:0,0:0:0:0:
350,272,152689,1,10,0:0:0:0:
437,327,152891,2,0,P|365:305|300:356,1,159.500004867554,0|0,3:0|3:0,0:0:0:0:
219,294,153495,1,10,0:0:0:0:
138,383,153696,6,0,B|89:336|122:276|122:276|104:224,1,159.500004867554,4|0,3:2|3:0,0:0:0:0:
43,155,154300,2,0,P|85:134|148:145,1,79.7500024337769,10|0,0:0|0:0,0:0:0:0:
161,160,154602,2,0,P|227:191|295:157,1,119.625003650665,8|10,0:0|0:0,0:0:0:0:
313,151,155005,1,10,0:0:0:0:
331,141,155105,2,0,L|334:96,2,39.8750012168885,8|8|8,0:0|0:0|0:3,0:0:0:0:
310,259,155508,6,0,P|375:251|417:236,1,79.7500024337769,6|0,3:2|3:0,0:0:0:0:
449,331,155911,2,0,P|500:291|528:257,1,79.7500024337769,10|0,0:0|3:0,0:0:0:0:
488,232,156213,2,0,P|462:189|481:111,1,119.625003650665,10|0,0:0|3:0,0:0:0:0:
436,30,156716,1,8,0:0:0:0:
436,30,156918,1,0,3:0:0:0:
362,124,157119,6,0,P|285:115|198:111,1,159.500004867554,0|10,3:0|0:0,0:0:0:0:
140,41,157723,1,0,3:0:0:0:
140,41,157824,1,10,0:0:0:0:
140,41,157924,2,0,P|108:86|106:128,1,79.7500024337769,0|0,3:0|3:0,0:0:0:0:
152,206,158327,1,10,0:0:0:0:
152,206,158528,1,0,3:0:0:0:
66,286,158730,6,0,P|104:295|143:304,1,79.7500024337769,0|0,3:0|3:0,0:0:0:0:
238,262,159132,2,0,P|249:222|277:192,1,79.7500024337769,10|0,0:0|3:0,0:0:0:0:
311,158,159434,2,0,P|260:156|201:113,1,119.625003650665,10|0,0:0|3:0,0:0:0:0:
169,20,159938,2,0,L|66:12,1,79.7500024337769,10|0,0:0|3:0,0:0:0:0:
14,106,160340,6,0,L|7:185,1,79.7500024337769,0|0,3:0|3:0,0:0:0:0:
3,237,160642,1,0,3:0:0:0:
2,256,160743,1,10,0:0:0:0:
90,201,160944,2,0,P|153:182|231:236,1,159.500004867554,0|0,3:0|3:0,0:0:0:0:
298,332,161548,1,10,0:0:0:0:
298,332,161649,1,0,3:0:0:0:
298,332,161750,1,8,3:0:0:0:
298,332,161850,1,4,3:0:0:0:
298,332,161951,6,0,P|363:319|390:315,1,79.7500024337769,6|0,3:2|3:0,0:0:0:0:
364,208,162354,2,0,P|429:221|456:225,1,79.7500024337769,10|0,0:0|3:0,0:0:0:0:
493,133,162756,2,0,B|504:54|504:54|472:14,2,119.625003650665,0|2|0,3:0|0:0|3:0,0:0:0:0:
377,103,163562,6,0,B|327:87|327:87|212:116,1,159.500004867554,4|10,3:2|0:0,0:0:0:0:
136,55,164166,2,0,P|115:106|118:143,1,79.7500024337769,0|0,3:0|3:0,0:0:0:0:
31,191,164569,2,0,P|51:242|48:279,1,79.7500024337769,0|10,3:0|0:0,0:0:0:0:
154,330,164971,5,10,0:0:0:0:
154,330,165072,1,10,0:0:0:0:
154,330,165173,2,0,P|199:314|251:320,1,79.7500024337769,4|0,3:2|3:0,0:0:0:0:
335,279,165575,1,8,0:0:0:0:
335,279,165676,1,0,3:0:0:0:
335,279,165777,1,0,3:0:0:0:
335,279,165877,1,0,3:0:0:0:
335,279,165978,6,0,B|342:172|342:172|295:213,2,141.374993528366,10|10|14,0:0|0:0|0:0,0:0:0:0:
64,307,168394,5,0,3:0:0:0:
64,307,168495,1,0,3:0:0:0:
64,307,168595,2,0,L|225:322,1,145,12|0,0:0|3:0,0:0:0:0:
303,266,169199,2,0,P|258:219|288:133,1,145,12|0,0:0|3:0,0:0:0:0:
302,108,169703,1,0,3:0:0:0:
312,95,169803,6,0,P|268:106|223:103,1,72.5,8|8,0:0|0:3,0:0:0:0:
154,40,170206,2,0,P|140:98|134:134,1,72.5,4|8,3:2|0:0,0:0:0:0:
65,172,170609,2,0,P|79:230|85:266,1,72.5,0|8,3:0|0:0,0:0:0:0:
56,333,171011,1,0,3:0:0:0:
56,333,171112,1,0,3:0:0:0:
56,333,171213,1,8,0:0:0:0:
149,347,171414,2,0,L|198:356,3,36.25,8|8|0|0,0:0|0:3|3:0|3:0,0:0:0:0:
222,324,171817,6,0,P|262:311|307:317,2,72.5,12|0|0,0:0|3:0|3:0,0:0:0:0:
312,182,172421,2,0,P|352:191|388:219,1,72.5,12|0,0:0|3:0,0:0:0:0:
412,240,172723,1,0,3:0:0:0:
420,255,172824,1,0,3:0:0:0:
474,178,173025,2,0,P|490:114|486:94,1,72.5,12|8,0:0|3:0,0:0:0:0:
471,64,173327,1,0,3:0:0:0:
461,48,173428,6,0,P|427:56|372:28,1,72.5,4|8,3:2|0:0,0:0:0:0:
304,10,173830,1,2,3:0:0:0:
304,10,174032,2,0,P|232:0|163:53,1,145,8|8,0:0|0:0,0:0:0:0:
126,119,174636,5,0,3:0:0:0:
126,119,174736,1,0,3:0:0:0:
126,119,174837,2,0,P|186:156|256:146,1,145,4|0,3:2|3:0,0:0:0:0:
340,102,175441,1,0,0:0:0:0:
422,55,175642,2,0,B|393:85|393:85|385:192,1,145,0|0,3:0|3:0,0:0:0:0:
445,260,176246,1,0,0:0:0:0:
445,260,176448,6,0,P|384:226|311:242,1,145,0|0,3:0|3:0,0:0:0:0:
243,304,177052,1,2,0:3:0:0:
243,304,177253,1,0,3:0:0:0:
156,267,177454,1,2,0:3:0:0:
156,267,177555,1,2,0:3:0:0:
156,267,177656,2,0,P|130:216|127:188,1,72.5,0|2,3:0|0:3,0:0:0:0:
169,117,178058,6,0,B|199:89|223:77|223:77|273:88|303:111,1,145,0|0,3:0|3:0,0:0:0:0:
362,171,178663,2,0,P|324:219|343:305,1,145,2|2,0:3|0:3,0:0:0:0:
390,375,179267,2,0,P|330:356|264:348,1,108.75,0|0,3:0|0:0,0:0:0:0:
243,370,179669,6,0,P|181:378|118:313,2,145,0|0|0,3:0|3:0|3:0,0:0:0:0:
278,287,180676,1,8,0:0:0:0:
278,287,180777,1,8,0:0:0:0:
278,287,180877,2,0,L|279:231,3,36.25,2|2|8|8,3:0|0:3|0:0|0:0,0:0:0:0:
284,199,181280,6,0,B|192:146|217:248|103:174,1,159.500004867554,4|8,3:2|0:0,0:0:0:0:
41,141,181884,1,0,3:0:0:0:
78,44,182085,2,0,P|116:29|162:32,1,79.7500024337769,0|0,3:0|3:0,0:0:0:0:
245,89,182488,1,8,0:0:0:0:
245,89,182689,1,0,0:0:0:0:
190,196,182891,6,0,P|232:197|266:182,1,79.7500024337769,0|2,3:0|0:3,0:0:0:0:
343,113,183293,1,0,3:0:0:0:
438,176,183495,1,8,0:0:0:0:
438,176,183595,1,8,0:0:0:0:
438,176,183696,2,0,B|428:232|428:232|446:264|446:264|432:340,1,159.500004867554,0|8,3:0|0:0,0:0:0:0:
344,382,184300,1,0,0:0:0:0:
325,265,184501,6,0,P|280:222|184:233,1,159.500004867554,0|10,3:0|0:0,0:0:0:0:
140,322,185105,2,0,P|97:316|62:293,1,79.7500024337769,0|10,3:0|0:0,0:0:0:0:
6,212,185508,2,0,P|32:177|68:159,1,79.7500024337769,0|0,3:0|3:0,0:0:0:0:
64,56,185910,2,0,P|107:61|140:83,1,79.7500024337769,8|0,0:0|3:0,0:0:0:0:
218,170,186314,6,0,P|180:119|207:27,1,159.500004867554,8|0,0:0|3:0,0:0:0:0:
301,0,186918,1,8,0:0:0:0:
363,81,187118,1,10,0:0:0:0:
363,81,187219,1,10,0:0:0:0:
363,81,187320,2,0,L|366:132,3,39.8750012168885,10|8|10|10,0:0|0:0|0:0|0:0,0:0:0:0:
388,172,187723,6,0,P|299:176|208:184,1,159.500004867554,4|8,3:2|0:0,0:0:0:0:
164,100,188327,1,0,3:3:0:0:
80,161,188528,2,0,P|60:209|57:245,1,79.7500024337769,0|0,3:0|3:0,0:0:0:0:
127,319,188931,1,8,0:0:0:0:
127,319,189132,1,0,0:0:0:0:
195,220,189334,6,0,L|288:230,1,79.7500024337769,0|2,3:0|0:3,0:0:0:0:
369,186,189736,1,0,3:0:0:0:
449,267,189938,1,8,0:0:0:0:
449,267,190038,1,8,0:0:0:0:
449,267,190139,2,0,P|414:212|438:122,1,159.500004867554,8|4,3:3|3:3,0:0:0:0:
499,42,190743,1,4,0:3:0:0:
381,37,190944,6,0,P|329:2|259:13,2,119.625003650665,4|0|8,3:2|3:0|0:0,0:0:0:0:
311,113,191750,1,0,3:0:0:0:
311,113,191850,1,8,0:0:0:0:
311,113,191951,1,0,3:0:0:0:
331,214,192152,2,0,P|281:203|238:202,1,79.7500024337769,8|0,0:0|3:0,0:0:0:0:
139,163,192555,6,0,P|164:220|133:291,2,119.625003650665,2|2|8,3:0|3:0|0:0,0:0:0:0:
76,94,193360,1,0,3:0:0:0:
76,94,193461,1,8,0:0:0:0:
76,94,193562,1,0,3:0:0:0:
155,27,193763,2,0,P|217:35|237:47,1,79.7500024337769,8|0,0:0|3:0,0:0:0:0:
303,139,194166,6,0,B|380:128|380:128|423:143,2,119.625003650665,0|0|8,3:0|3:0|0:0,0:0:0:0:
219,195,194971,1,0,3:0:0:0:
219,195,195072,1,8,0:0:0:0:
219,195,195173,1,0,3:0:0:0:
305,251,195374,2,0,P|288:296|284:333,1,79.7500024337769,8|0,0:0|3:0,0:0:0:0:
372,381,195777,5,2,3:0:0:0:
464,256,196079,1,2,3:0:0:0:
425,108,196381,2,0,P|375:94|338:69,1,79.7500024337769,8|0,0:0|3:0,0:0:0:0:
313,44,196683,1,8,0:0:0:0:
303,30,196783,1,0,3:0:0:0:
229,103,196985,2,0,P|235:170|237:194,1,79.7500024337769,8|0,0:0|3:0,0:0:0:0:
226,233,197287,1,8,0:0:0:0:
220,251,197387,6,0,B|146:223|146:223|94:236,2,119.625003650665,4|0|8,3:2|3:0|0:0,0:0:0:0:
313,297,198193,1,0,3:0:0:0:
313,297,198293,1,8,0:0:0:0:
313,297,198394,1,0,3:0:0:0:
379,217,198595,2,0,P|370:150|362:128,1,79.7500024337769,8|0,0:0|3:0,0:0:0:0:
300,39,198998,6,0,P|364:52|415:12,2,119.625003650665,4|2|8,3:2|3:0|0:0,0:0:0:0:
232,118,199803,1,2,3:3:0:0:
232,118,199904,1,2,0:3:0:0:
232,118,200005,1,0,3:0:0:0:
142,65,200206,2,0,P|87:71|59:86,1,79.7500024337769,8|0,0:0|3:0,0:0:0:0:
38,198,200609,6,0,L|57:344,1,119.625003650665,4|0,3:2|3:0,0:0:0:0:
62,367,201011,1,0,3:0:0:0:
147,281,201213,2,0,P|186:285|221:304,1,79.7500024337769,12|0,0:0|3:3,0:0:0:0:
293,379,201616,1,8,0:0:0:0:
389,330,201817,1,8,0:0:0:0:
389,330,201918,1,8,0:0:0:0:
389,330,202018,1,8,0:0:0:0:
389,330,202119,1,8,0:0:0:0:
389,330,202220,2,0,L|393:280,1,39.8750012168885,10|10,0:0|0:0,0:0:0:0:
225,268,202622,6,0,L|143:281,1,79.7500024337769,10|10,0:0|0:0,0:0:0:0:
94,285,202924,2,0,B|80:234|80:234|111:162,1,119.625003650665,10|8,0:0|0:3,0:0:0:0:
128,71,203428,2,0,L|83:81,3,39.8750012168885,8|8|8|8,0:0|0:0|3:0|3:0,0:0:0:0:
43,89,203830,5,4,3:2:0:0:
104,227,213495,6,0,P|138:205|177:201,1,79.7500024337769,8|0,0:0|0:0,0:0:0:0:
223,225,213797,1,8,0:0:0:0:
241,236,213897,1,8,0:0:0:0:
274,129,214099,2,0,B|389:142|389:142|351:100,1,159.500004867554,12|8,0:0|0:0,0:0:0:0:
303,35,214703,1,8,0:0:0:0:
303,35,214803,1,8,0:0:0:0:
303,35,214904,2,0,P|242:30|215:14,1,79.7500024337769,0|8,3:0|0:0,0:0:0:0:
165,107,215307,5,8,3:3:0:0:
165,107,215407,1,0,3:0:0:0:
165,107,215508,2,0,P|104:112|77:128,1,79.7500024337769,12|12,0:0|0:2,0:0:0:0:
47,222,215911,1,0,3:0:0:0:
47,222,216011,1,0,3:0:0:0:
47,222,216112,1,8,0:0:0:0:
47,222,216213,1,8,0:0:0:0:
47,222,216314,2,0,L|53:282,3,39.8750012168885,0|0|8|8,3:0|3:0|0:0|0:0,0:0:0:0:
57,315,216716,6,0,P|102:315|148:343,1,83.375001590252,4|0,3:2|3:0,0:0:0:0:
218,260,217119,2,0,P|228:214|242:164,1,83.375001590252,10|0,0:0|3:0,0:0:0:0:
221,127,217421,2,0,P|285:138|350:89,1,125.062502385378,10|0,0:0|3:0,0:0:0:0:
391,19,217924,1,10,0:0:0:0:
391,19,218126,1,0,3:0:0:0:
463,121,218327,6,0,B|487:165|487:165|462:285,1,166.750003180504,0|10,3:0|0:0,0:0:0:0:
381,225,218931,1,0,3:0:0:0:
381,225,219032,1,10,0:0:0:0:
381,225,219132,2,0,P|322:202|280:201,1,83.375001590252,0|0,3:0|3:0,0:0:0:0:
217,268,219535,1,10,0:0:0:0:
217,268,219736,1,0,3:0:0:0:
96,236,219938,6,0,P|70:189|65:152,1,83.375001590252,0|0,3:0|3:0,0:0:0:0:
106,60,220340,2,0,P|152:34|189:29,1,83.375001590252,10|0,0:0|3:0,0:0:0:0:
231,7,220642,2,0,L|213:135,1,125.062502385378,10|0,0:0|3:0,0:0:0:0:
290,215,221146,1,10,0:0:0:0:
290,215,221347,1,0,3:0:0:0:
357,110,221548,6,0,P|415:88|450:101,1,83.375001590252,0|0,3:0|3:0,0:0:0:0:
482,118,221850,1,0,3:0:0:0:
498,132,221951,1,10,0:0:0:0:
443,225,222152,2,0,P|339:235|260:244,1,166.750003180504,0|0,3:0|3:0,0:0:0:0:
192,300,222756,1,10,0:0:0:0:
192,300,222857,1,0,3:0:0:0:
192,300,222958,1,8,0:3:0:0:
192,300,223058,1,4,0:3:0:0:
192,300,223159,6,0,P|171:263|177:214,1,83.375001590252,14|0,0:2|3:0,0:0:0:0:
204,114,223561,1,14,0:0:0:0:
204,114,223763,1,0,3:0:0:0:
286,198,223964,2,0,P|348:190|399:184,1,83.375001590252,14|0,0:0|3:0,0:0:0:0:
456,110,224367,1,14,0:0:0:0:
385,31,224568,5,0,3:0:0:0:
385,31,224669,1,0,3:0:0:0:
385,31,224769,2,0,P|323:39|272:45,1,83.375001590252,14|0,0:0|3:0,0:0:0:0:
191,5,225172,1,14,0:0:0:0:
191,5,225373,1,0,3:0:0:0:
219,119,225575,2,0,P|180:103|139:107,1,83.375001590252,14|0,0:0|3:0,0:0:0:0:
36,56,225977,1,14,0:0:0:0:
24,179,226179,5,0,3:0:0:0:
24,179,226279,1,0,3:0:0:0:
24,179,226380,2,0,P|28:230|31:271,1,83.375001590252,14|0,0:0|3:0,0:0:0:0:
149,331,226783,1,10,0:0:0:0:
149,331,226884,1,0,3:0:0:0:
149,331,226985,1,0,3:0:0:0:
149,331,227085,1,0,3:0:0:0:
149,331,227186,5,10,0:0:0:0:
319,288,227488,1,10,0:0:0:0:
213,221,227790,1,14,0:0:0:0:
213,221,229803,5,6,0:0:0:0:
256,192,229904,12,0,232622,0:0:0:0:
