osu file format v14

[General]
AudioFilename: audio.mp3
AudioLeadIn: 0
PreviewTime: 141213
Countdown: 0
SampleSet: Soft
StackLeniency: 0.7
Mode: 0
LetterboxInBreaks: 0
WidescreenStoryboard: 0

[Editor]
Bookmarks: 142622,216716
DistanceSpacing: 1
BeatDivisor: 1
GridSize: 16
TimelineZoom: 3.199999

[Metadata]
Title:Orarion
TitleUnicode:オラリオン
Artist:yanaginagi
ArtistUnicode:やなぎなぎ
Creator:Toyosaki Aki
Version:Normal
Source:終わりのセラフ 名古屋決戦編
Tags:toooooon hohi joker- eir owari no seraph of the end battle in nagoya kessen-hen kessen hen 2nd season two anime japanese ending ed full version
BeatmapID:2375931
BeatmapSetID:1060676

[Difficulty]
HPDrainRate:5
CircleSize:3.5
OverallDifficulty:5
ApproachRate:5.5
SliderMultiplier:1
SliderTickRate:1

[Events]
//Background and Video events
0,0,"136759-seraph-of-the-end-vampire-reign-shinoa.jpg",0,0
//Break Periods
2,89931,91827
2,101005,104713
2,204030,208342
//Storyboard Layer 0 (Background)
//Storyboard Layer 1 (Fail)
//Storyboard Layer 2 (Pass)
//Storyboard Layer 3 (Foreground)
//Storyboard Layer 4 (Overlay)
//Storyboard Sound Samples

[TimingPoints]
1376,555.555555555556,4,2,1,40,1,0
1376,-100,4,2,1,40,0,0
10264,-100,4,2,1,10,0,0
10658,402.684563758389,4,2,1,50,1,0
11064,402.684563758389,4,2,1,60,1,0
17506,-100,4,2,1,50,0,0
40057,416.666666666667,4,2,1,50,1,0
40890,461.538461538462,4,2,1,50,1,0
41120,444.444444444444,4,2,1,50,1,0
41342,461.538461538462,4,2,1,50,1,0
41803,521.739130434783,4,2,1,50,1,0
41803,-101.522842639594,4,2,1,50,0,0
42324,545.454545454546,4,2,1,50,1,0
42596,1000,4,2,1,50,1,0
43096,810.810810810811,4,2,1,50,1,0
43906,555.555555555556,4,2,1,50,1,0
43906,-100,4,2,1,50,0,0
56683,571.428571428571,4,2,1,50,1,0
56683,-100,4,2,1,50,0,0
57254,500,4,2,1,60,1,0
57254,-100,4,2,1,60,0,0
57754,521.739130434783,4,2,1,60,1,0
57906,491.803278688525,4,2,1,60,1,0
58275,428.571428571429,4,2,1,60,1,0
58275,-100,4,2,1,60,0,0
58703,-100,4,2,1,60,0,0
59127,402.684563758389,4,2,1,70,1,0
60737,402.684563758389,4,2,1,60,1,0
60737,-100,4,2,1,70,0,1
84696,-100,4,2,1,60,0,0
99395,-100,4,2,1,50,0,0
105838,-100,4,2,1,50,0,0
109865,-100,4,2,1,60,0,0
110670,-100,4,2,1,70,0,0
112281,-100,4,2,1,60,0,0
121937,416.666666666667,4,2,1,50,1,0
122770,461.538461538462,4,2,1,50,1,0
123000,444.444444444444,4,2,1,50,1,0
123222,461.538461538462,4,2,1,50,1,0
123683,521.739130434783,4,2,1,50,1,0
124204,545.454545454546,4,2,1,50,1,0
124476,1000,4,2,1,50,1,0
124726,681.818181818182,4,2,1,50,1,0
125237,731.707317073172,4,2,1,50,1,0
125786,555.555555555556,4,2,1,50,1,0
125786,-100,4,2,1,50,0,0
138563,571.428571428571,4,2,1,50,1,0
138563,-100,4,2,1,50,0,0
139134,500,4,2,1,60,1,0
139134,-100,4,2,1,60,0,0
139634,521.739130434783,4,2,1,60,1,0
139786,491.803278688525,4,2,1,60,1,0
140155,428.571428571429,4,2,1,60,1,0
140583,-100,4,2,1,60,0,0
141012,402.684563758389,4,2,1,70,1,0
142622,402.684563758389,4,2,1,50,1,0
142622,-100,4,2,1,70,0,1
166581,-100,4,2,1,70,0,0
166985,402.684563758389,4,2,1,60,1,0
174837,402.684563758389,4,2,1,60,1,0
181279,-100,4,2,1,70,0,1
203830,-100,4,2,1,70,0,0
209266,-100,4,2,1,60,0,0
210273,-100,4,2,1,60,0,0
213494,-100,4,2,1,70,0,0
215306,-100,4,2,1,70,0,0
216716,-100,4,2,1,80,0,1
227790,-100,4,2,1,80,0,0
232622,-100,4,2,1,10,0,0

[Colours]
Combo1 : 234,49,100
Combo2 : 227,114,0
Combo3 : 10,194,120
Combo4 : 166,103,241

[HitObjects]
80,104,1376,6,0,L|63:202,2,100,2|2|2,0:0|0:0|0:0,0:0:0:0:
160,45,3042,2,0,L|208:58,1,50,2|0,0:0|0:0,0:0:0:0:
246,91,3598,2,0,L|294:77,1,50,2|0,0:0|0:0,0:0:0:0:
325,38,4153,2,0,P|413:62|401:153,1,200,2|0,0:0|0:0,0:0:0:0:
317,207,5820,6,0,P|272:186|223:193,2,100,2|2|2,0:0|0:0|0:0,0:0:0:0:
386,278,7487,1,2,0:0:0:0:
317,351,8042,1,2,0:0:0:0:
256,192,8181,12,0,10264,0:0:0:0:
126,86,11064,6,0,B|183:99|183:99|216:89|216:89|271:103,1,150,6|2,3:2|0:0,0:0:0:0:
360,151,12070,2,0,P|370:127|372:103,2,50,0|2|0,0:0|0:0|3:0,0:0:0:0:
320,182,12674,1,10,3:3:0:0:
320,182,12876,2,0,P|328:257|337:331,1,150,2|2,0:0|0:0,0:0:0:0:
241,305,13882,1,2,0:0:0:0:
150,348,14285,6,0,L|68:334,2,75,4|10|10,3:2|0:0|0:0,0:0:0:0:
241,305,15292,1,0,3:0:0:0:
241,305,15493,1,10,0:0:0:0:
327,253,15896,2,0,L|409:267,2,75,4|10|8,3:2|0:2|0:0,0:0:0:0:
241,305,16902,1,0,3:0:0:0:
241,305,17103,1,10,0:3:0:0:
157,249,17506,6,0,B|132:203|132:203|159:163,1,100,2|2,3:2|0:0,0:0:0:0:
191,125,18110,1,2,3:2:0:0:
168,27,18513,2,0,P|221:22|259:52,1,100,2|0,3:2|3:0,0:0:0:0:
287,87,19117,2,0,P|339:77|395:67,1,100,2|2,3:2|0:2,0:0:0:0:
431,87,19721,1,2,3:2:0:0:
387,177,20124,1,0,3:0:0:0:
387,177,20325,2,0,L|403:243,1,50,10|0,0:0|3:0,0:0:0:0:
388,274,20728,6,0,P|346:298|300:282,1,100,2|2,3:2|3:2,0:0:0:0:
278,237,21332,1,2,3:2:0:0:
192,288,21735,2,0,P|142:279|93:270,1,100,2|8,3:2|0:0,0:0:0:0:
44,281,22339,2,0,B|18:248|18:248|41:195,1,100,6|8,3:2|0:0,0:0:0:0:
79,162,22943,1,2,3:2:0:0:
51,65,23345,2,0,L|2:76,2,50,0|10|2,3:0|0:0|0:3,0:0:0:0:
81,25,23949,6,0,L|180:43,1,100,6|2,3:2|3:2,0:0:0:0:
229,54,24553,1,2,3:2:0:0:
319,10,24956,2,0,B|344:39|344:39|320:96,1,100,2|0,3:2|3:0,0:0:0:0:
279,125,25560,2,0,P|272:199|267:274,1,150,2|0,3:2|0:0,0:0:0:0:
228,305,26366,1,2,3:2:0:0:
140,257,26768,1,10,0:0:0:0:
79,337,27171,6,0,B|29:291|29:291|20:220|95:170,1,200,2|8,3:2|0:0,0:0:0:0:
184,154,28379,2,0,L|175:104,1,50,10|2,0:2|3:2,0:0:0:0:
201,61,28782,2,0,L|309:83,1,100,6|2,3:2|3:2,0:0:0:0:
330,120,29386,1,2,3:0:0:0:
330,120,29587,2,0,L|378:109,2,50,10|10|10,0:0|0:0|0:0,0:0:0:0:
266,197,30392,6,0,P|274:246|281:295,1,100,6|2,3:2|0:0,0:0:0:0:
258,340,30996,1,2,3:2:0:0:
179,277,31399,1,0,3:0:0:0:
179,277,31600,2,0,L|130:291,1,50,10|2,0:0|3:2,0:0:0:0:
85,311,32003,2,0,B|58:275|58:275|76:223,1,100,0|2,3:2|0:0,0:0:0:0:
116,193,32607,2,0,P|109:143|101:94,1,100,2|0,3:2|3:0,0:0:0:0:
92,44,33211,1,10,0:0:0:0:
186,75,33614,6,0,B|223:91|223:91|251:85|277:67,1,100,2|2,3:2|0:0,0:0:0:0:
314,33,34218,1,2,3:2:0:0:
395,90,34621,1,2,3:2:0:0:
395,90,34822,2,0,L|383:138,1,50,10|0,0:2|0:0,0:0:0:0:
392,188,35225,6,0,P|428:179|465:171,2,75,2|2|2,3:2|3:2|3:2,0:0:0:0:
313,249,36231,1,0,3:0:0:0:
313,249,36433,1,8,0:0:0:0:
229,193,36835,2,0,P|241:144|253:95,1,100,6|10,3:2|0:0,0:0:0:0:
224,54,37439,2,0,B|188:74|188:74|161:70|134:52,1,100,2|2,3:2|3:2,0:0:0:0:
97,18,38043,1,10,0:0:0:0:
15,76,38446,6,0,P|-2:121|19:164,1,100,6|2,3:2|3:2,0:0:0:0:
65,185,39050,2,0,P|113:172|162:163,1,100,6|2,3:2|3:2,0:0:0:0:
204,190,39654,1,8,0:0:0:0:
289,143,40057,6,0,P|302:178|297:215,2,75,6|2|2,3:2|3:2|3:2,0:0:0:0:
209,84,41120,2,0,L|220:24,1,50,0|10,3:0|0:0,0:0:0:0:
131,10,41803,2,0,B|94:37|94:37|123:152,1,150,2|8,3:2|0:3,0:0:0:0:
145,209,43096,6,0,L|189:194,2,33.3333333333333,8|4|0,0:3|0:3|3:0,0:0:0:0:
116,248,43906,6,0,P|85:238|18:218,2,100,14|2|2,3:2|0:0|0:0,0:0:0:0:
195,311,45572,1,2,0:0:0:0:
277,256,46128,2,0,L|325:268,1,50,2|0,0:2|0:0,0:0:0:0:
358,306,46683,2,0,P|437:258|404:172,1,200,2|0,0:0|3:0,0:0:0:0:
382,75,48350,6,0,B|419:88|419:88|454:84|474:64,2,100,6|2|2,3:2|0:0|0:0,0:0:0:0:
303,13,50017,1,2,0:0:0:0:
216,63,50572,2,0,B|174:35|84:42|84:42|131:87,1,200,2|2,0:2|0:3,0:0:0:0:
200,157,52239,1,8,0:3:0:0:
177,254,52794,6,0,P|225:241|380:213,1,200,4|2,0:3|0:3,0:0:0:0:
458,265,54461,1,2,0:0:0:0:
458,265,54739,2,0,B|480:235|480:235|461:175,1,100,2|2,0:0|0:0,0:0:0:0:
401,37,56128,6,0,L|386:135,1,100,2|2,0:0|0:0,0:0:0:0:
366,248,57254,1,6,0:0:0:0:
256,192,57379,12,12,59127,0:0:0:0:
366,248,60737,5,6,3:2:0:0:
366,248,60939,1,2,3:2:0:0:
366,248,61140,2,0,P|317:237|267:230,1,100,10|2,0:0|3:2,0:0:0:0:
222,139,61945,2,0,L|231:89,1,50,10|0,0:0|0:0,0:0:0:0:
208,45,62348,2,0,P|160:36|124:69,1,100,2|8,3:2|0:0,0:0:0:0:
36,117,63153,2,0,P|41:141|48:165,1,50,2|0,3:2|3:0,0:0:0:0:
93,187,63556,2,0,P|87:211|80:235,1,50,10|2,0:0|0:0,0:0:0:0:
65,283,63959,5,6,3:2:0:0:
164,278,64361,2,0,P|169:316|175:353,2,75,10|10|2,0:0|0:0|3:2,0:0:0:0:
225,200,65368,1,2,3:2:0:0:
225,200,65569,2,0,P|271:186|315:207,1,100,2|10,3:2|0:0,0:0:0:0:
399,262,66375,2,0,P|435:252|472:247,2,75,2|2|0,3:0|3:0|3:2,0:0:0:0:
362,296,67180,5,12,0:0:0:0:
315,207,67583,1,10,0:0:0:0:
406,166,67986,1,10,0:2:0:0:
366,75,68388,1,10,0:0:0:0:
274,114,68791,2,0,P|241:99|205:105,2,75,2|10|2,3:2|0:2|3:2,0:0:0:0:
355,171,69798,1,2,3:2:0:0:
355,171,69999,2,0,L|403:157,1,50,10|0,0:0|0:2,0:0:0:0:
450,174,70402,6,0,P|445:211|438:256,1,75,6|2,3:2|0:0,0:0:0:0:
370,287,71005,2,0,L|313:275,1,50,2|2,0:0|3:3,0:0:0:0:
297,233,71408,2,0,L|248:244,1,50,0|10,3:2|0:0,0:0:0:0:
197,257,71811,2,0,L|182:158,1,100,4|0,3:2|3:0,0:0:0:0:
151,117,72415,1,10,0:0:0:0:
211,37,72818,2,0,L|260:45,1,50,10|8,0:0|0:0,0:0:0:0:
287,86,73220,2,0,L|336:77,1,50,8|4,0:3|0:3,0:0:0:0:
386,71,73623,5,6,3:2:0:0:
386,71,73824,1,2,3:2:0:0:
386,71,74026,2,0,B|416:101|416:101|397:155,1,100,10|0,0:0|3:2,0:0:0:0:
308,201,74831,2,0,L|319:249,1,50,10|2,0:0|0:0,0:0:0:0:
331,298,75234,2,0,P|291:325|246:308,1,100,2|8,3:2|0:0,0:0:0:0:
206,216,76039,2,0,L|149:233,1,50,2|0,3:2|3:0,0:0:0:0:
132,272,76442,2,0,L|84:257,1,50,10|2,0:0|0:0,0:0:0:0:
35,243,76845,5,2,3:2:0:0:
73,151,77247,2,0,P|38:138|2:148,2,75,10|10|2,0:0|0:0|3:2,0:0:0:0:
166,114,78254,1,2,3:2:0:0:
166,114,78455,2,0,P|214:103|263:94,1,100,2|10,3:2|0:2,0:0:0:0:
335,24,79261,1,10,0:0:0:0:
405,96,79663,1,10,0:0:0:0:
333,166,80066,5,6,3:2:0:0:
403,238,80469,2,0,P|451:227|500:216,2,100,10|2|10,0:0|3:2|0:0,0:0:0:0:
325,300,81677,2,0,B|295:269|295:269|314:214,1,100,6|10,3:2|0:0,0:0:0:0:
333,166,82281,1,2,3:2:0:0:
263,94,82684,1,2,3:2:0:0:
190,162,83086,1,2,0:2:0:0:
190,162,83288,6,0,P|160:125|165:76,1,100,4|10,3:2|0:0,0:0:0:0:
263,94,84093,2,0,P|299:86|339:79,2,75,10|10|14,3:2|3:2|3:2,0:0:0:0:
263,94,86710,5,12,0:0:0:0:
256,192,86811,12,2,89731,0:0:0:0:
141,92,92952,6,0,L|124:44,2,50,4|0|8,3:2|3:0|0:0,0:0:0:0:
183,118,93556,2,0,P|168:165|158:214,1,100,0|0,3:0|3:0,0:0:0:0:
148,264,94160,1,8,0:0:0:0:
232,317,94563,2,0,L|238:367,2,50,0|0|8,3:0|3:0|0:0,0:0:0:0:
274,226,95368,2,0,B|371:249,1,100,0|8,3:0|0:0,0:0:0:0:
444,316,96173,6,0,B|478:292|478:292|462:231,1,100,4|8,3:2|0:0,0:0:0:0:
451,186,96778,1,0,3:0:0:0:
362,139,97180,1,0,3:0:0:0:
362,139,97382,2,0,L|375:89,1,50,8|0,0:0|0:0,0:0:0:0:
360,42,97784,2,0,P|314:26|271:49,1,100,2|8,3:2|0:0,0:0:0:0:
180,92,98590,2,0,L|193:140,1,50,8|8,0:0|0:3,0:0:0:0:
233,169,98992,2,0,P|221:217|211:266,1,100,8|4,0:3|3:2,0:0:0:0:
74,314,105838,6,0,P|126:322|165:289,1,100,2|2,3:2|3:2,0:0:0:0:
182,249,106442,1,10,0:0:0:0:
269,268,106845,2,0,P|268:218|238:179,1,100,2|2,3:2|0:0,0:0:0:0:
195,152,107449,2,0,P|159:161|122:167,2,75,10|0|14,0:0|3:0|0:0,0:0:0:0:
239,62,108455,1,2,3:2:0:0:
239,62,108657,2,0,L|293:76,1,50,10|2,0:0|3:2,0:0:0:0:
313,116,109059,6,0,P|361:103|410:95,1,100,6|8,3:2|0:0,0:0:0:0:
456,116,109663,1,8,0:0:0:0:
456,116,109865,2,0,L|446:165,1,50,8|8,0:0|0:0,0:0:0:0:
411,200,110267,2,0,L|420:249,1,50,8|8,0:0|0:0,0:0:0:0:
429,298,110670,5,6,3:2:0:0:
350,360,111073,1,10,0:0:0:0:
350,360,111274,2,0,P|309:349|186:326,1,150,6|0,3:2|0:0,0:0:0:0:
113,372,112281,6,0,B|91:339|91:339|111:282,1,100,6|10,3:2|0:0,0:0:0:0:
129,235,112885,1,2,3:2:0:0:
35,198,113288,2,0,P|27:148|18:99,1,100,2|10,3:2|0:2,0:0:0:0:
40,54,113892,2,0,P|87:38|131:60,1,100,2|10,3:2|0:0,0:0:0:0:
155,103,114496,1,2,3:2:0:0:
254,93,114898,1,0,3:0:0:0:
254,93,115100,2,0,L|238:152,1,50,10|0,0:0|0:0,0:0:0:0:
211,181,115502,6,0,P|220:229|230:279,1,100,2|10,3:2|0:0,0:0:0:0:
224,328,116106,1,2,3:2:0:0:
317,363,116509,1,2,3:2:0:0:
317,363,116710,2,0,L|328:314,1,50,10|2,0:0|3:2,0:0:0:0:
337,265,117113,2,0,P|376:257|413:251,2,75,2|2|2,3:2|3:2|3:2,0:0:0:0:
230,279,118120,1,0,3:0:0:0:
230,279,118321,1,10,0:0:0:0:
136,315,118724,6,0,B|114:270|114:270|142:228,1,100,6|10,3:2|0:0,0:0:0:0:
184,201,119328,2,0,P|176:151|166:102,1,100,2|2,3:2|3:2,0:0:0:0:
153,52,119932,1,10,0:0:0:0:
248,21,120335,2,0,B|281:47|281:47|346:32,1,100,6|10,3:2|0:0,0:0:0:0:
385,21,120939,2,0,P|423:50|422:98,1,100,6|2,3:2|3:2,0:0:0:0:
389,136,121543,1,8,0:0:0:0:
375,228,121937,6,0,P|411:218|447:211,2,75,6|2|2,3:2|3:2|3:2,0:0:0:0:
282,264,123000,2,0,L|288:205,1,50,0|8,3:0|0:0,0:0:0:0:
205,180,123683,2,0,L|194:279,1,100,2|2,3:2|3:2,0:0:0:0:
170,307,124476,1,8,0:3:0:0:
146,335,124726,2,0,L|72:320,1,75,8|8,0:0|0:3,0:0:0:0:
102,226,125786,6,0,P|92:176|80:128,2,100,14|2|2,3:2|0:0|0:0,0:0:0:0:
182,285,127452,1,2,0:0:0:0:
251,210,128008,2,0,L|236:144,1,50,2|0,0:2|0:0,0:0:0:0:
232,111,128563,2,0,B|301:123|301:123|338:167|338:167|411:181,1,200,2|0,0:0|3:0,0:0:0:0:
461,265,130230,6,0,P|417:285|370:272,2,100,4|2|2,3:2|0:0|0:0,0:0:0:0:
409,180,131897,1,2,0:0:0:0:
310,197,132452,2,0,P|212:173|113:159,1,200,2|2,0:3|0:3,0:0:0:0:
128,259,134119,1,8,0:3:0:0:
70,339,134674,6,0,P|164:354|225:281,1,200,6|2,0:3|0:3,0:0:0:0:
324,292,136341,1,2,0:0:0:0:
324,292,136619,2,0,P|309:244|295:196,1,100,2|2,0:0|0:0,0:0:0:0:
361,61,138008,2,0,P|387:103|379:152,1,100,2|2,0:0|0:0,0:0:0:0:
268,128,139134,1,6,0:2:0:0:
256,192,139259,12,12,141012,0:0:0:0:
268,128,142622,5,6,3:2:0:0:
268,128,142824,1,2,3:2:0:0:
268,128,143025,2,0,B|315:146|315:146|357:120,1,100,10|2,0:0|3:2,0:0:0:0:
445,167,143830,2,0,L|431:215,1,50,10|2,0:0|0:0,0:0:0:0:
387,240,144233,2,0,P|400:289|409:338,1,100,2|8,3:2|0:0,0:0:0:0:
311,321,145038,2,0,L|261:330,1,50,2|0,3:2|3:0,0:0:0:0:
227,366,145441,2,0,L|170:355,1,50,10|2,0:0|0:0,0:0:0:0:
128,345,145844,5,2,3:2:0:0:
75,259,146246,2,0,P|45:279|31:314,2,75,10|10|2,0:0|0:0|3:2,0:0:0:0:
169,224,147253,1,2,3:2:0:0:
169,224,147454,2,0,L|151:126,1,100,2|10,3:2|0:0,0:0:0:0:
87,47,148260,2,0,P|53:64|16:62,2,75,2|2|2,3:3|0:3|3:2,0:0:0:0:
124,14,149064,5,12,0:0:0:0:
217,50,149467,1,10,0:0:0:0:
150,125,149870,1,10,0:0:0:0:
243,161,150273,1,10,0:0:0:0:
310,87,150676,2,0,L|384:98,2,75,2|10|2,3:2|0:0|3:2,0:0:0:0:
243,161,151683,1,2,3:2:0:0:
243,161,151884,2,0,L|188:152,1,50,10|0,0:0|0:0,0:0:0:0:
145,168,152286,6,0,P|133:202|141:239,1,75,6|2,3:2|0:0,0:0:0:0:
198,299,152890,2,0,L|265:282,1,50,2|2,0:0|3:0,0:0:0:0:
274,245,153293,2,0,L|325:256,1,50,2|10,3:2|0:2,0:0:0:0:
372,263,153695,2,0,P|391:218|372:173,1,100,4|0,3:2|3:0,0:0:0:0:
348,128,154300,1,10,0:0:0:0:
368,30,154703,2,0,L|319:42,1,50,10|10,0:0|0:0,0:0:0:0:
277,68,155105,2,0,L|228:55,1,50,8|4,0:3|0:3,0:0:0:0:
180,41,155508,5,6,3:2:0:0:
180,41,155709,1,2,3:2:0:0:
180,41,155911,2,0,B|151:65|151:65|166:125,1,100,10|2,0:0|3:2,0:0:0:0:
249,180,156716,2,0,L|236:228,1,50,10|2,0:0|3:2,0:0:0:0:
222,276,157119,2,0,P|173:263|124:253,1,100,2|8,3:2|0:0,0:0:0:0:
25,266,157924,2,0,L|34:217,1,50,2|0,3:2|3:0,0:0:0:0:
72,184,158327,2,0,L|63:135,1,50,10|2,0:0|0:0,0:0:0:0:
52,85,158730,5,2,3:2:0:0:
151,96,159132,2,0,P|157:59|165:22,2,75,10|10|2,0:0|0:0|3:2,0:0:0:0:
229,157,160139,1,2,3:2:0:0:
229,157,160340,2,0,P|238:206|246:255,1,100,2|10,3:2|0:0,0:0:0:0:
284,348,161146,1,10,0:0:0:0:
382,335,161548,1,10,0:0:0:0:
348,240,161951,5,6,3:2:0:0:
246,255,162354,2,0,B|206:268|206:268|147:245,2,100,10|2|10,0:0|3:2|0:0,0:0:0:0:
348,240,163562,2,0,P|337:191|328:141,1,100,6|10,3:2|0:0,0:0:0:0:
345,93,164166,1,2,3:2:0:0:
269,26,164569,1,2,3:2:0:0:
207,104,164971,1,10,0:0:0:0:
207,104,165173,6,0,P|158:94|109:82,1,100,4|8,3:2|0:0,0:0:0:0:
16,97,165978,2,0,P|13:61|31:29,2,75,10|10|14,0:0|0:0|0:0,0:0:0:0:
16,97,168595,6,0,P|60:117|102:94,1,100,12|0,0:0|3:0,0:0:0:0:
137,58,169199,2,0,P|179:34|222:54,1,100,12|0,0:0|3:0,0:0:0:0:
249,96,169803,1,12,0:0:0:0:
321,164,170206,2,0,L|369:151,1,50,4|8,3:2|0:0,0:0:0:0:
418,139,170609,1,0,3:0:0:0:
495,201,171011,2,0,L|481:258,1,50,0|8,3:0|0:0,0:0:0:0:
436,268,171414,2,0,L|447:316,1,50,8|0,0:0|3:0,0:0:0:0:
423,360,171817,6,0,P|375:345|326:335,1,100,12|0,0:0|3:0,0:0:0:0:
276,345,172421,2,0,P|255:302|277:259,1,100,12|0,0:0|3:0,0:0:0:0:
321,236,173025,1,12,0:0:0:0:
247,168,173427,2,0,L|256:109,1,50,4|8,3:2|0:0,0:0:0:0:
261,68,173830,1,2,3:0:0:0:
261,68,174031,2,0,P|216:76|159:86,1,100,8|8,0:0|0:0,0:0:0:0:
116,65,174636,1,0,3:0:0:0:
116,65,174837,6,0,B|84:92|84:92|103:146,1,100,4|0,3:2|3:0,0:0:0:0:
182,208,175642,1,0,3:0:0:0:
114,281,176045,1,0,3:0:0:0:
173,361,176447,2,0,P|221:347|269:336,1,100,0|0,3:0|3:0,0:0:0:0:
366,306,177253,1,0,3:0:0:0:
464,295,177655,2,0,P|460:271|447:250,1,50,0|2,3:0|0:3,0:0:0:0:
410,217,178058,6,0,P|416:167|423:117,1,100,0|0,3:0|3:0,0:0:0:0:
355,44,178863,1,0,3:0:0:0:
269,95,179266,1,0,3:0:0:0:
184,43,179669,2,0,L|86:63,1,100,0|0,3:0|3:0,0:0:0:0:
55,158,180474,1,0,3:0:0:0:
55,158,180675,1,8,0:0:0:0:
55,158,180877,2,0,L|103:147,1,50,2|8,3:0|0:0,0:0:0:0:
153,141,181279,6,0,P|143:190|136:239,1,100,6|10,3:2|0:0,0:0:0:0:
177,331,182085,1,2,3:2:0:0:
177,331,182286,2,0,L|234:318,1,50,2|8,3:2|0:0,0:0:0:0:
274,332,182689,2,0,P|294:288|278:243,1,100,2|2,0:0|0:2,0:0:0:0:
232,222,183293,1,2,3:2:0:0:
273,131,183696,2,0,L|321:141,1,50,0|0,3:0|3:0,0:0:0:0:
355,178,184098,2,0,L|403:167,1,50,8|0,0:0|0:0,0:0:0:0:
452,158,184501,6,0,P|442:207|430:256,1,100,2|10,3:2|0:0,0:0:0:0:
442,305,185105,1,2,3:2:0:0:
361,364,185508,2,0,L|301:345,1,50,2|0,3:2|3:0,0:0:0:0:
282,309,185910,2,0,L|183:327,2,100,10|10|0,0:0|0:0|3:0,0:0:0:0:
312,269,186917,1,8,0:0:0:0:
242,196,187320,1,8,0:0:0:0:
242,196,187521,1,8,0:0:0:0:
242,196,187722,6,0,L|258:97,1,100,6|10,3:2|0:0,0:0:0:0:
176,39,188528,1,2,3:2:0:0:
176,39,188729,2,0,L|121:27,1,50,2|8,3:2|0:0,0:0:0:0:
77,18,189132,2,0,B|48:47|48:47|65:103,1,100,2|2,0:0|0:2,0:0:0:0:
84,149,189736,1,2,3:2:0:0:
183,139,190139,2,0,L|170:187,1,50,8|8,3:3|3:3,0:0:0:0:
157,235,190541,1,4,3:3:0:0:
157,235,190743,1,4,0:3:0:0:
157,235,190944,6,0,P|202:217|243:242,1,100,6|2,3:2|0:0,0:0:0:0:
257,290,191548,1,10,0:0:0:0:
257,290,191749,2,0,P|305:279|354:269,1,100,2|8,3:2|0:0,0:0:0:0:
433,207,192555,2,0,P|455:237|455:273,2,75,2|2|10,3:0|3:0|0:0,0:0:0:0:
388,185,193360,2,0,P|395:135|404:86,1,100,2|10,3:2|0:2,0:0:0:0:
387,39,193964,1,2,3:2:0:0:
387,39,194165,6,0,B|351:58|351:58|293:42,1,100,2|0,3:2|0:0,0:0:0:0:
253,12,194769,1,10,0:0:0:0:
253,12,194971,2,0,L|155:31,1,100,2|8,3:2|0:0,0:0:0:0:
67,80,195776,2,0,P|52:45|57:9,2,75,2|2|8,3:0|3:0|0:0,0:0:0:0:
105,111,196581,1,0,3:0:0:0:
79,207,196984,1,10,0:0:0:0:
79,207,197185,1,2,3:2:0:0:
79,207,197387,6,0,P|127:195|176:185,1,100,6|2,3:2|0:0,0:0:0:0:
221,208,197991,1,10,0:0:0:0:
221,208,198192,2,0,P|244:166|229:120,1,100,2|10,3:2|0:0,0:0:0:0:
205,22,198998,2,0,P|169:32|147:61,2,75,6|2|8,3:2|3:0|0:0,0:0:0:0:
252,38,199803,2,0,P|303:30|354:24,1,100,2|10,3:2|0:0,0:0:0:0:
401,23,200407,1,2,3:2:0:0:
401,23,200608,6,0,L|383:123,1,100,6|2,3:2|3:2,0:0:0:0:
373,170,201212,1,12,0:0:0:0:
273,164,201615,2,0,L|285:214,1,50,10|8,0:0|0:0,0:0:0:0:
297,261,202018,1,10,0:0:0:0:
297,261,202219,1,10,0:0:0:0:
263,355,202622,2,0,B|299:367|299:367|332:353,2,75,10|10|8,0:0|0:0|0:3,0:0:0:0:
229,318,203427,2,0,L|174:331,1,50,8|8,0:0|3:3,0:0:0:0:
132,343,203830,5,4,3:2:0:0:
316,313,209467,6,0,P|352:305|389:300,2,75,12|8|0,0:0|3:3|3:0,0:0:0:0:
278,345,210273,1,6,3:2:0:0:
183,314,210675,2,0,L|198:261,1,50,2|0,0:0|0:0,0:0:0:0:
241,242,211078,2,0,L|222:143,1,100,10|2,0:0|0:0,0:0:0:0:
190,49,211883,2,0,B|226:36|226:36|259:50,2,75,6|2|2,3:2|3:2|3:2,0:0:0:0:
149,78,212689,2,0,L|45:61,1,100,10|2,0:0|0:3,0:0:0:0:
0,153,213494,6,0,L|16:227,1,75,10|10,0:0|0:0,0:0:0:0:
62,294,214098,2,0,L|90:198,1,100,14|10,0:0|0:0,0:0:0:0:
106,150,214702,1,8,0:0:0:0:
106,150,214904,2,0,B|146:170|146:170|200:154,1,100,2|8,3:2|3:3,0:0:0:0:
226,115,215508,1,14,0:0:0:0:
311,165,215910,2,0,L|295:222,1,50,2|8,3:2|0:0,0:0:0:0:
252,236,216313,2,0,L|265:284,1,50,2|8,3:2|0:0,0:0:0:0:
278,332,216716,5,6,3:2:0:0:
278,332,216917,1,2,3:2:0:0:
278,332,217118,2,0,P|326:320|375:311,1,100,10|2,0:0|3:2,0:0:0:0:
475,297,217924,2,0,L|462:248,1,50,10|2,0:0|3:2,0:0:0:0:
416,228,218326,2,0,P|425:178|437:130,1,100,2|8,3:2|0:0,0:0:0:0:
401,36,219132,2,0,L|352:47,1,50,2|0,3:2|3:0,0:0:0:0:
318,84,219534,2,0,L|269:72,1,50,10|2,0:0|3:2,0:0:0:0:
220,61,219937,5,2,3:2:0:0:
136,116,220340,2,0,L|46:137,2,75,10|10|2,0:0|0:0|3:2,0:0:0:0:
220,61,221347,1,2,3:2:0:0:
220,61,221548,2,0,P|240:105|229:153,1,100,2|10,3:2|0:0,0:0:0:0:
145,207,222353,2,0,L|157:255,1,50,10|0,0:0|3:0,0:0:0:0:
204,270,222756,2,0,L|191:318,1,50,10|8,0:0|0:3,0:0:0:0:
179,367,223159,5,14,0:2:0:0:
278,361,223561,2,0,L|290:312,1,50,14|0,0:0|0:0,0:0:0:0:
304,264,223964,1,14,0:0:0:0:
401,242,224367,1,14,0:0:0:0:
401,242,224568,1,0,3:0:0:0:
401,242,224769,2,0,L|379:136,1,100,14|14,0:0|0:0,0:0:0:0:
327,59,225575,2,0,L|278:70,1,50,14|0,0:0|3:0,3:0:0:0:
249,111,225977,2,0,L|200:99,1,50,14|0,0:0|3:0,3:0:0:0:
151,90,226380,5,14,0:0:0:0:
76,156,226783,1,10,0:0:0:0:
136,235,227185,2,0,L|120:317,2,75,10|10|14,0:0|0:0|0:0,0:0:0:0:
136,235,229803,5,6,0:0:0:0:
256,192,230004,12,0,232622,0:0:0:0:
