osu file format v14

[General]
AudioFilename: audio.mp3
AudioLeadIn: 0
PreviewTime: 52858
Countdown: 1
SampleSet: None
StackLeniency: 0.7
Mode: 1
LetterboxInBreaks: 0
WidescreenStoryboard: 0

[Editor]
Bookmarks: 9429,18572,27715,36858,46001,55144,64287,73429,82572,91858,100858,110001,119144,128358,137429,146572,160287,178572,183144,194572,208287,217429,226572,235715,244858,254001,263144,272287,284179,295088
DistanceSpacing: 1
BeatDivisor: 4
GridSize: 32
TimelineZoom: 2.999999

[Metadata]
Title:Muteki no Soldier
TitleUnicode:無敵のSoldier
Artist:yanaginagi
ArtistUnicode:やなぎなぎ
Creator:gaston_2199
Version:Oni
Source:
Tags:owari no hoshi no love song 終わりの惑星のLove Song maeda jun 麻枝 准 yanagi nagi flaming-june
BeatmapID:1827658
BeatmapSetID:874471

[Difficulty]
HPDrainRate:5
CircleSize:2
OverallDifficulty:6
ApproachRate:10
SliderMultiplier:1.4
SliderTickRate:1

[Events]
//Background and Video events
0,0,"BG.png",0,-80
//Break Periods
//Storyboard Layer 0 (Background)
//Storyboard Layer 1 (Fail)
//Storyboard Layer 2 (Pass)
//Storyboard Layer 3 (Foreground)
//Storyboard Sound Samples

[TimingPoints]
287,285.714285714286,4,1,0,80,1,0
55144,-100,4,1,0,80,0,1
73429,-100,4,1,0,80,0,0
119144,-100,4,1,0,80,0,1
137429,-100,4,1,0,80,0,0
244858,-100,4,1,0,80,0,1
263144,-100,4,1,0,80,0,0
272287,-100,4,1,0,80,0,1
281287,-100,4,1,0,80,0,0
283715,285.714285714286,4,1,0,80,1,8
284179,340.909090909091,4,1,0,50,1,0
284179,-133.333333333333,4,1,0,50,0,0

[HitObjects]
256,192,287,5,4,0:0:0:0:
256,192,715,1,0,0:0:0:0:
256,192,858,1,8,0:0:0:0:
256,192,1144,1,0,0:0:0:0:
256,192,1287,1,0,0:0:0:0:
256,192,1572,1,0,0:0:0:0:
256,192,1715,1,8,0:0:0:0:
256,192,2001,1,8,0:0:0:0:
256,192,2144,1,0,0:0:0:0:
256,192,2287,1,8,0:0:0:0:
256,192,2572,1,4,0:0:0:0:
256,192,2858,1,8,0:0:0:0:
256,192,3144,1,0,0:0:0:0:
256,192,3287,1,8,0:0:0:0:
256,192,3572,1,0,0:0:0:0:
256,192,3858,1,8,0:0:0:0:
256,192,4001,1,0,0:0:0:0:
252,184,4144,1,8,0:0:0:0:
256,192,4429,1,0,0:0:0:0:
243,194,4572,1,8,0:0:0:0:
256,192,4858,1,4,0:0:0:0:
256,192,5144,1,0,0:0:0:0:
256,192,5287,1,0,0:0:0:0:
256,192,5429,1,8,0:0:0:0:
256,192,5715,1,0,0:0:0:0:
256,192,5858,1,0,0:0:0:0:
256,192,6144,1,0,0:0:0:0:
256,192,6287,1,8,0:0:0:0:
256,192,6572,1,8,0:0:0:0:
256,192,6715,1,0,0:0:0:0:
256,192,6858,1,8,0:0:0:0:
256,192,7144,1,4,0:0:0:0:
256,192,7429,1,8,0:0:0:0:
256,192,7715,1,0,0:0:0:0:
256,192,7858,1,8,0:0:0:0:
256,192,8144,1,8,0:0:0:0:
256,192,8215,1,8,0:0:0:0:
256,192,8287,1,8,0:0:0:0:
256,192,8429,1,8,0:0:0:0:
256,192,8572,1,0,0:0:0:0:
256,192,8715,1,8,0:0:0:0:
256,192,8858,1,8,0:0:0:0:
256,192,8929,1,0,0:0:0:0:
256,192,9001,1,8,0:0:0:0:
256,192,9072,1,8,0:0:0:0:
256,192,9144,1,0,0:0:0:0:
256,192,9215,1,0,0:0:0:0:
256,192,9287,1,8,0:0:0:0:
256,192,9429,1,4,0:0:0:0:
256,192,9572,1,0,0:0:0:0:
256,192,9715,1,8,0:0:0:0:
256,192,9858,1,0,0:0:0:0:
256,192,10001,1,8,0:0:0:0:
256,192,10072,1,0,0:0:0:0:
256,192,10144,1,0,0:0:0:0:
256,192,10287,1,8,0:0:0:0:
256,192,10429,1,0,0:0:0:0:
256,192,10715,1,0,0:0:0:0:
256,192,10858,1,8,0:0:0:0:
256,192,11001,1,0,0:0:0:0:
256,192,11072,1,0,0:0:0:0:
256,192,11144,1,8,0:0:0:0:
256,192,11287,1,0,0:0:0:0:
256,192,11429,1,8,0:0:0:0:
256,192,11501,1,0,0:0:0:0:
256,192,11572,1,8,0:0:0:0:
256,192,11715,1,0,0:0:0:0:
256,192,11858,1,0,0:0:0:0:
256,192,11929,1,0,0:0:0:0:
256,192,12001,1,8,0:0:0:0:
256,192,12144,1,8,0:0:0:0:
256,192,12429,1,0,0:0:0:0:
256,192,12572,1,8,0:0:0:0:
256,192,12715,1,8,0:0:0:0:
256,192,12787,1,8,0:0:0:0:
256,192,12858,1,0,0:0:0:0:
256,192,13001,1,0,0:0:0:0:
256,192,13144,1,8,0:0:0:0:
256,192,13287,1,0,0:0:0:0:
256,192,13358,1,0,0:0:0:0:
256,192,13429,1,8,0:0:0:0:
256,192,13572,1,0,0:0:0:0:
256,192,13715,1,8,0:0:0:0:
256,192,13787,1,0,0:0:0:0:
256,192,13858,1,8,0:0:0:0:
256,192,14001,5,0,0:0:0:0:
224,192,14144,1,0,0:0:0:0:
256,192,14287,1,8,0:0:0:0:
256,192,14429,1,0,0:0:0:0:
256,192,14572,1,8,0:0:0:0:
256,192,14644,1,0,0:0:0:0:
256,192,14715,1,0,0:0:0:0:
256,192,14858,1,8,0:0:0:0:
256,192,15001,1,0,0:0:0:0:
256,192,15287,1,0,0:0:0:0:
256,192,15429,1,8,0:0:0:0:
256,192,15572,1,0,0:0:0:0:
256,192,15644,1,0,0:0:0:0:
256,192,15715,1,8,0:0:0:0:
256,192,15858,1,0,0:0:0:0:
256,192,16001,1,8,0:0:0:0:
256,192,16072,1,0,0:0:0:0:
256,192,16144,1,8,0:0:0:0:
256,192,16287,1,0,0:0:0:0:
256,192,16429,1,0,0:0:0:0:
256,192,16501,1,0,0:0:0:0:
256,192,16572,1,8,0:0:0:0:
256,192,16715,1,8,0:0:0:0:
256,192,17001,1,0,0:0:0:0:
256,192,17144,1,8,0:0:0:0:
256,192,17287,1,8,0:0:0:0:
256,192,17358,1,8,0:0:0:0:
256,192,17429,1,0,0:0:0:0:
256,192,17572,1,0,0:0:0:0:
256,192,17715,1,8,0:0:0:0:
256,192,17858,1,0,0:0:0:0:
256,192,17929,1,0,0:0:0:0:
256,192,18001,1,8,0:0:0:0:
256,192,18144,1,0,0:0:0:0:
256,192,18287,1,8,0:0:0:0:
256,192,18358,1,0,0:0:0:0:
256,192,18429,1,8,0:0:0:0:
256,192,18572,5,0,0:0:0:0:
256,192,18715,5,0,0:0:0:0:
256,192,18858,1,8,0:0:0:0:
256,192,19001,1,0,0:0:0:0:
256,192,19287,1,0,0:0:0:0:
256,192,19429,1,8,0:0:0:0:
256,192,19572,1,0,0:0:0:0:
256,192,19858,1,0,0:0:0:0:
256,192,20001,1,8,0:0:0:0:
256,192,20144,1,8,0:0:0:0:
256,192,20215,1,0,0:0:0:0:
256,192,20287,1,0,0:0:0:0:
256,192,20429,1,0,0:0:0:0:
256,192,20572,1,8,0:0:0:0:
256,192,20644,1,0,0:0:0:0:
256,192,20715,1,8,0:0:0:0:
256,192,20858,1,0,0:0:0:0:
256,192,21001,1,0,0:0:0:0:
256,192,21144,1,8,0:0:0:0:
256,192,21287,1,0,0:0:0:0:
256,192,21572,1,0,0:0:0:0:
256,192,21715,1,8,0:0:0:0:
256,192,21858,1,0,0:0:0:0:
256,192,22144,1,0,0:0:0:0:
256,192,22287,1,8,0:0:0:0:
256,192,22429,1,0,0:0:0:0:
256,192,22501,1,8,0:0:0:0:
256,192,22572,1,0,0:0:0:0:
256,192,22715,1,0,0:0:0:0:
256,192,22858,1,8,0:0:0:0:
256,192,23001,1,0,0:0:0:0:
256,192,23072,1,0,0:0:0:0:
256,192,23144,1,8,0:0:0:0:
256,192,23287,1,0,0:0:0:0:
256,192,23429,1,8,0:0:0:0:
256,192,23572,1,8,0:0:0:0:
256,192,23858,1,0,0:0:0:0:
256,192,24001,1,8,0:0:0:0:
256,192,24144,1,0,0:0:0:0:
256,192,24429,1,0,0:0:0:0:
256,192,24572,1,8,0:0:0:0:
256,192,24715,1,8,0:0:0:0:
256,192,24787,1,8,0:0:0:0:
256,192,24858,1,0,0:0:0:0:
256,192,25001,1,0,0:0:0:0:
256,192,25144,1,8,0:0:0:0:
256,192,25215,1,0,0:0:0:0:
256,192,25287,1,8,0:0:0:0:
256,192,25429,1,0,0:0:0:0:
256,192,25572,1,0,0:0:0:0:
256,192,25715,1,8,0:0:0:0:
256,192,25858,1,0,0:0:0:0:
256,192,26144,1,0,0:0:0:0:
256,192,26287,1,8,0:0:0:0:
256,192,26429,1,0,0:0:0:0:
256,192,26715,1,0,0:0:0:0:
256,192,26858,1,8,0:0:0:0:
256,192,27001,1,8,0:0:0:0:
256,192,27072,1,0,0:0:0:0:
256,192,27144,1,8,0:0:0:0:
250,197,27215,1,8,0:0:0:0:
256,192,27287,1,0,0:0:0:0:
256,192,27429,1,8,0:0:0:0:
256,192,27572,1,8,0:0:0:0:
256,192,27715,1,0,0:0:0:0:
256,192,27858,1,0,0:0:0:0:
256,192,28001,1,8,0:0:0:0:
256,192,28144,1,0,0:0:0:0:
256,192,28215,1,0,0:0:0:0:
256,192,28287,1,8,0:0:0:0:
256,192,28429,1,0,0:0:0:0:
256,192,28572,1,8,0:0:0:0:
256,192,28715,1,8,0:0:0:0:
256,192,29001,1,0,0:0:0:0:
256,192,29144,1,8,0:0:0:0:
256,192,29287,1,8,0:0:0:0:
256,192,29358,1,0,0:0:0:0:
256,192,29429,1,8,0:0:0:0:
256,192,29572,1,0,0:0:0:0:
256,192,29715,1,8,0:0:0:0:
256,192,29858,1,8,0:0:0:0:
256,192,30001,1,0,0:0:0:0:
256,192,30287,1,8,0:0:0:0:
256,192,30429,1,0,0:0:0:0:
256,192,30501,1,0,0:0:0:0:
256,192,30572,1,8,0:0:0:0:
256,192,30644,1,8,0:0:0:0:
256,192,30715,1,0,0:0:0:0:
256,192,30858,1,8,0:0:0:0:
256,192,31001,1,0,0:0:0:0:
256,192,31072,1,0,0:0:0:0:
256,192,31144,1,0,0:0:0:0:
256,192,31287,1,0,0:0:0:0:
256,192,31429,1,8,0:0:0:0:
256,192,31572,1,8,0:0:0:0:
256,192,31644,1,8,0:0:0:0:
256,192,31715,1,0,0:0:0:0:
252,184,31858,1,8,0:0:0:0:
256,192,32001,1,0,0:0:0:0:
256,192,32144,1,8,0:0:0:0:
256,192,32287,1,0,0:0:0:0:
256,192,32572,1,8,0:0:0:0:
256,192,32715,1,0,0:0:0:0:
252,183,32787,1,0,0:0:0:0:
256,192,32858,1,0,0:0:0:0:
256,192,33001,1,0,0:0:0:0:
256,192,33144,1,8,0:0:0:0:
256,192,33287,1,0,0:0:0:0:
256,192,33358,1,0,0:0:0:0:
256,192,33429,1,8,0:0:0:0:
256,192,33501,1,0,0:0:0:0:
256,192,33572,1,0,0:0:0:0:
256,192,33715,1,8,0:0:0:0:
256,192,33858,1,0,0:0:0:0:
256,192,34001,1,8,0:0:0:0:
256,192,34072,1,0,0:0:0:0:
256,192,34144,1,0,0:0:0:0:
256,192,34287,1,8,0:0:0:0:
256,192,34429,1,0,0:0:0:0:
256,192,34572,1,0,0:0:0:0:
256,192,34858,1,8,0:0:0:0:
256,192,35001,1,0,0:0:0:0:
256,192,35072,1,0,0:0:0:0:
256,192,35144,1,8,0:0:0:0:
256,192,35287,1,0,0:0:0:0:
256,192,35429,1,8,0:0:0:0:
256,192,35572,1,0,0:0:0:0:
256,192,35858,1,0,0:0:0:0:
256,192,36001,1,8,0:0:0:0:
256,192,36144,1,0,0:0:0:0:
256,192,36215,1,0,0:0:0:0:
256,192,36287,1,8,0:0:0:0:
256,192,36429,1,0,0:0:0:0:
256,192,36572,1,8,0:0:0:0:
256,192,36715,1,8,0:0:0:0:
256,192,36858,1,0,0:0:0:0:
256,192,37001,1,0,0:0:0:0:
256,192,37144,5,8,0:0:0:0:
256,192,37287,1,0,0:0:0:0:
256,192,37429,1,8,0:0:0:0:
256,192,37572,1,8,0:0:0:0:
256,192,37858,1,8,0:0:0:0:
256,192,38001,1,8,0:0:0:0:
256,192,38144,1,0,0:0:0:0:
256,192,38287,1,8,0:0:0:0:
256,192,38429,1,0,0:0:0:0:
256,192,38715,1,12,0:0:0:0:
256,192,39001,1,12,0:0:0:0:
256,192,39287,1,0,0:0:0:0:
256,192,39429,1,8,0:0:0:0:
256,192,39572,1,0,0:0:0:0:
256,192,39715,1,0,0:0:0:0:
256,192,39858,1,8,0:0:0:0:
256,160,40144,1,8,0:0:0:0:
256,192,40287,1,0,0:0:0:0:
241,186,40429,1,0,0:0:0:0:
256,192,40572,1,8,0:0:0:0:
256,192,40715,1,0,0:0:0:0:
256,192,41001,1,12,0:0:0:0:
256,192,41287,1,12,0:0:0:0:
254,180,41572,1,0,0:0:0:0:
254,180,41715,1,8,0:0:0:0:
254,180,41858,1,8,0:0:0:0:
256,192,42001,1,0,0:0:0:0:
256,192,42144,1,8,0:0:0:0:
256,192,42429,1,8,0:0:0:0:
254,180,42572,1,0,0:0:0:0:
256,192,42715,1,8,0:0:0:0:
256,192,42858,1,8,0:0:0:0:
256,192,43001,1,0,0:0:0:0:
256,192,43287,1,12,0:0:0:0:
256,192,43572,1,12,0:0:0:0:
256,192,43715,1,0,0:0:0:0:
256,192,43787,1,0,0:0:0:0:
256,192,43858,1,0,0:0:0:0:
256,192,44001,1,8,0:0:0:0:
256,192,44144,1,0,0:0:0:0:
256,192,44215,1,0,0:0:0:0:
256,192,44287,1,8,0:0:0:0:
256,192,44429,1,0,0:0:0:0:
256,192,44572,1,8,0:0:0:0:
256,192,44715,1,4,0:0:0:0:
256,192,45001,1,0,0:0:0:0:
256,192,45144,1,8,0:0:0:0:
256,192,45287,1,8,0:0:0:0:
256,192,45358,1,0,0:0:0:0:
256,192,45429,1,8,0:0:0:0:
256,192,45501,1,8,0:0:0:0:
256,192,45572,1,0,0:0:0:0:
256,192,45715,1,8,0:0:0:0:
256,192,45858,1,8,0:0:0:0:
245,185,46001,1,0,0:0:0:0:
256,192,46144,1,0,0:0:0:0:
256,192,46287,5,8,0:0:0:0:
256,192,46429,1,0,0:0:0:0:
256,192,46572,1,0,0:0:0:0:
256,192,46715,1,8,0:0:0:0:
256,192,47001,1,8,0:0:0:0:
256,192,47144,1,0,0:0:0:0:
256,192,47287,1,0,0:0:0:0:
256,192,47429,1,8,0:0:0:0:
256,192,47572,1,0,0:0:0:0:
256,192,47858,1,12,0:0:0:0:
256,192,48144,1,12,0:0:0:0:
256,192,48429,1,0,0:0:0:0:
256,192,48572,1,8,0:0:0:0:
256,192,48715,1,0,0:0:0:0:
256,192,48858,1,8,0:0:0:0:
256,192,49001,1,8,0:0:0:0:
256,160,49287,1,8,0:0:0:0:
256,192,49429,1,8,0:0:0:0:
256,192,49572,1,0,0:0:0:0:
256,192,49715,1,8,0:0:0:0:
256,192,49858,1,0,0:0:0:0:
256,192,50144,1,12,0:0:0:0:
256,192,50429,1,12,0:0:0:0:
256,192,50715,1,0,0:0:0:0:
256,192,50858,1,8,0:0:0:0:
256,192,51001,1,8,0:0:0:0:
256,192,51144,1,0,0:0:0:0:
256,192,51287,1,8,0:0:0:0:
256,192,51572,1,8,0:0:0:0:
256,192,51715,1,0,0:0:0:0:
256,192,51858,1,8,0:0:0:0:
256,192,52001,1,8,0:0:0:0:
256,192,52144,1,0,0:0:0:0:
256,192,52429,1,12,0:0:0:0:
256,192,52715,1,12,0:0:0:0:
256,192,52858,1,8,0:0:0:0:
256,192,52929,1,8,0:0:0:0:
256,192,53001,1,0,0:0:0:0:
256,192,53144,1,8,0:0:0:0:
256,192,53287,1,0,0:0:0:0:
256,192,53358,1,0,0:0:0:0:
256,192,53429,1,8,0:0:0:0:
256,192,53501,1,8,0:0:0:0:
256,192,53572,1,0,0:0:0:0:
256,192,53715,1,8,0:0:0:0:
256,192,53858,1,0,0:0:0:0:
256,192,53929,1,0,0:0:0:0:
256,192,54001,1,8,0:0:0:0:
256,192,54144,1,0,0:0:0:0:
256,192,54287,1,8,0:0:0:0:
256,192,54429,1,0,0:0:0:0:
256,192,54572,1,8,0:0:0:0:
256,192,54644,1,8,0:0:0:0:
256,192,54715,5,0,0:0:0:0:
256,192,54787,1,0,0:0:0:0:
256,192,54858,1,8,0:0:0:0:
256,192,54929,1,0,0:0:0:0:
256,192,55001,1,8,0:0:0:0:
256,192,55144,5,4,0:0:0:0:
256,192,55287,1,0,0:0:0:0:
256,192,55358,1,0,0:0:0:0:
256,192,55429,1,8,0:0:0:0:
256,192,55572,1,0,0:0:0:0:
256,192,55715,1,8,0:0:0:0:
256,192,55787,1,0,0:0:0:0:
256,192,55858,1,8,0:0:0:0:
256,192,56001,1,0,0:0:0:0:
256,192,56144,1,8,0:0:0:0:
256,192,56287,1,8,0:0:0:0:
256,192,56358,1,0,0:0:0:0:
256,192,56429,1,0,0:0:0:0:
256,192,56501,1,0,0:0:0:0:
256,192,56572,1,8,0:0:0:0:
256,192,56715,1,0,0:0:0:0:
256,192,56858,1,8,0:0:0:0:
256,192,56929,1,8,0:0:0:0:
256,192,57001,1,0,0:0:0:0:
256,192,57072,1,0,0:0:0:0:
256,192,57144,1,8,0:0:0:0:
256,192,57287,1,8,0:0:0:0:
256,192,57429,1,0,0:0:0:0:
256,192,57572,1,0,0:0:0:0:
256,192,57644,1,0,0:0:0:0:
256,192,57715,1,8,0:0:0:0:
256,192,57858,1,0,0:0:0:0:
256,192,58001,1,8,0:0:0:0:
256,192,58144,1,8,0:0:0:0:
256,192,58215,1,8,0:0:0:0:
256,192,58287,1,0,0:0:0:0:
256,192,58429,1,8,0:0:0:0:
256,192,58572,1,8,0:0:0:0:
256,192,58644,1,8,0:0:0:0:
256,192,58715,1,0,0:0:0:0:
256,192,58787,1,0,0:0:0:0:
256,192,58858,1,8,0:0:0:0:
256,192,59001,1,0,0:0:0:0:
256,192,59144,1,8,0:0:0:0:
256,192,59287,1,0,0:0:0:0:
256,192,59358,1,0,0:0:0:0:
256,192,59429,1,8,0:0:0:0:
256,192,59501,1,0,0:0:0:0:
256,192,59572,1,8,0:0:0:0:
256,192,59715,1,0,0:0:0:0:
256,192,59858,1,0,0:0:0:0:
256,192,59929,1,0,0:0:0:0:
256,192,60001,1,8,0:0:0:0:
256,192,60144,1,0,0:0:0:0:
256,192,60287,1,8,0:0:0:0:
256,192,60429,1,8,0:0:0:0:
256,192,60501,1,8,0:0:0:0:
256,192,60572,1,0,0:0:0:0:
256,192,60715,1,8,0:0:0:0:
256,192,60858,1,8,0:0:0:0:
256,192,60929,1,8,0:0:0:0:
256,192,61001,1,0,0:0:0:0:
256,192,61072,1,0,0:0:0:0:
256,192,61144,1,8,0:0:0:0:
256,192,61287,1,0,0:0:0:0:
256,192,61429,1,8,0:0:0:0:
256,192,61501,1,0,0:0:0:0:
256,192,61572,1,8,0:0:0:0:
256,192,61644,1,0,0:0:0:0:
256,192,61715,1,8,0:0:0:0:
256,192,61858,1,0,0:0:0:0:
256,192,62001,1,8,0:0:0:0:
256,192,62072,1,8,0:0:0:0:
256,192,62144,1,0,0:0:0:0:
256,192,62287,1,8,0:0:0:0:
256,192,62429,1,0,0:0:0:0:
256,192,62572,1,0,0:0:0:0:
256,192,62644,1,8,0:0:0:0:
256,192,62715,1,0,0:0:0:0:
256,192,62858,1,8,0:0:0:0:
256,192,63001,1,0,0:0:0:0:
256,192,63144,1,8,0:0:0:0:
256,192,63215,1,8,0:0:0:0:
256,192,63287,1,0,0:0:0:0:
256,192,63429,1,8,0:0:0:0:
256,192,63572,1,0,0:0:0:0:
256,192,63715,1,8,0:0:0:0:
256,192,63787,1,0,0:0:0:0:
256,192,63858,1,8,0:0:0:0:
256,192,63929,1,8,0:0:0:0:
256,192,64001,1,0,0:0:0:0:
256,192,64072,1,0,0:0:0:0:
256,192,64144,1,8,0:0:0:0:
256,192,64287,5,4,0:0:0:0:
256,192,64429,1,0,0:0:0:0:
256,192,64501,1,0,0:0:0:0:
256,192,64572,1,8,0:0:0:0:
256,192,64715,1,0,0:0:0:0:
256,192,64858,1,8,0:0:0:0:
256,192,65001,1,8,0:0:0:0:
256,192,65072,1,8,0:0:0:0:
256,192,65144,1,0,0:0:0:0:
256,192,65287,1,8,0:0:0:0:
256,192,65429,1,8,0:0:0:0:
256,192,65501,1,8,0:0:0:0:
256,192,65572,1,0,0:0:0:0:
256,192,65644,1,0,0:0:0:0:
256,192,65715,1,8,0:0:0:0:
256,192,65858,1,0,0:0:0:0:
256,192,66001,1,8,0:0:0:0:
256,192,66072,1,0,0:0:0:0:
256,192,66144,1,0,0:0:0:0:
256,192,66215,1,0,0:0:0:0:
256,192,66287,1,8,0:0:0:0:
256,192,66429,1,8,0:0:0:0:
256,192,66572,1,0,0:0:0:0:
256,192,66715,1,0,0:0:0:0:
256,192,66787,1,0,0:0:0:0:
256,192,66858,1,8,0:0:0:0:
256,192,67001,1,0,0:0:0:0:
256,192,67144,1,8,0:0:0:0:
256,192,67215,1,0,0:0:0:0:
256,192,67287,1,8,0:0:0:0:
256,192,67429,1,0,0:0:0:0:
256,192,67572,1,8,0:0:0:0:
256,192,67715,1,8,0:0:0:0:
256,192,67787,1,0,0:0:0:0:
256,192,67858,1,0,0:0:0:0:
256,192,67929,1,0,0:0:0:0:
256,192,68001,1,8,0:0:0:0:
256,192,68144,1,0,0:0:0:0:
256,192,68287,1,8,0:0:0:0:
256,192,68429,1,0,0:0:0:0:
256,192,68501,1,0,0:0:0:0:
256,192,68572,1,8,0:0:0:0:
256,192,68644,1,0,0:0:0:0:
256,192,68715,1,8,0:0:0:0:
256,192,68858,1,0,0:0:0:0:
256,192,69001,1,0,0:0:0:0:
256,192,69072,1,0,0:0:0:0:
256,192,69144,1,8,0:0:0:0:
256,192,69287,1,0,0:0:0:0:
256,192,69429,1,8,0:0:0:0:
256,192,69572,1,8,0:0:0:0:
256,192,69644,1,8,0:0:0:0:
256,192,69715,1,0,0:0:0:0:
256,192,69858,1,8,0:0:0:0:
256,192,70001,1,8,0:0:0:0:
256,192,70072,1,8,0:0:0:0:
256,192,70144,1,0,0:0:0:0:
256,192,70215,1,0,0:0:0:0:
256,192,70287,1,8,0:0:0:0:
256,192,70429,1,0,0:0:0:0:
256,192,70572,1,8,0:0:0:0:
256,192,70644,1,0,0:0:0:0:
256,192,70715,1,8,0:0:0:0:
256,192,70787,1,0,0:0:0:0:
256,192,70858,1,8,0:0:0:0:
256,192,71001,1,0,0:0:0:0:
256,192,71144,1,8,0:0:0:0:
256,160,71215,1,0,0:0:0:0:
256,192,71287,1,0,0:0:0:0:
256,192,71429,1,8,0:0:0:0:
256,192,71572,1,0,0:0:0:0:
256,192,71715,1,8,0:0:0:0:
256,192,71787,1,8,0:0:0:0:
256,192,71858,1,0,0:0:0:0:
256,192,72001,1,8,0:0:0:0:
256,192,72144,1,0,0:0:0:0:
256,192,72287,1,8,0:0:0:0:
256,192,72358,1,8,0:0:0:0:
256,192,72429,1,0,0:0:0:0:
256,192,72501,1,0,0:0:0:0:
256,192,72572,1,8,0:0:0:0:
256,192,72715,1,8,0:0:0:0:
256,192,72787,1,8,0:0:0:0:
256,192,72858,1,0,0:0:0:0:
256,192,73001,1,8,0:0:0:0:
256,192,73072,1,0,0:0:0:0:
256,192,73144,1,8,0:0:0:0:
256,192,73215,1,0,0:0:0:0:
256,192,73287,5,8,0:0:0:0:
256,192,73429,1,4,0:0:0:0:
249,180,73572,1,0,0:0:0:0:
256,192,73715,1,8,0:0:0:0:
256,192,73858,1,0,0:0:0:0:
256,192,74001,1,8,0:0:0:0:
256,192,74072,1,0,0:0:0:0:
256,192,74144,1,0,0:0:0:0:
256,192,74287,1,8,0:0:0:0:
256,192,74429,1,0,0:0:0:0:
256,192,74715,1,0,0:0:0:0:
256,192,74858,1,8,0:0:0:0:
256,192,75001,1,0,0:0:0:0:
256,192,75072,1,0,0:0:0:0:
256,192,75144,1,8,0:0:0:0:
256,192,75287,1,0,0:0:0:0:
256,192,75429,1,8,0:0:0:0:
256,192,75501,1,0,0:0:0:0:
256,192,75572,1,8,0:0:0:0:
256,192,75715,1,0,0:0:0:0:
256,192,75858,1,0,0:0:0:0:
256,192,75929,1,0,0:0:0:0:
256,192,76001,1,8,0:0:0:0:
256,192,76144,1,8,0:0:0:0:
256,192,76429,1,0,0:0:0:0:
256,192,76572,1,8,0:0:0:0:
256,192,76715,1,8,0:0:0:0:
256,192,76787,1,8,0:0:0:0:
256,192,76858,1,0,0:0:0:0:
256,192,77001,1,0,0:0:0:0:
256,192,77144,1,8,0:0:0:0:
256,192,77287,1,0,0:0:0:0:
256,192,77358,1,0,0:0:0:0:
256,192,77429,1,8,0:0:0:0:
256,192,77572,1,0,0:0:0:0:
256,192,77715,1,8,0:0:0:0:
256,192,77787,1,0,0:0:0:0:
256,192,77858,1,8,0:0:0:0:
256,192,78001,1,0,0:0:0:0:
256,192,78144,1,0,0:0:0:0:
256,192,78287,1,8,0:0:0:0:
256,192,78429,1,0,0:0:0:0:
256,192,78572,1,8,0:0:0:0:
256,192,78644,1,0,0:0:0:0:
256,192,78715,1,0,0:0:0:0:
256,192,78858,1,8,0:0:0:0:
256,192,79001,1,0,0:0:0:0:
256,192,79287,1,0,0:0:0:0:
256,192,79429,1,8,0:0:0:0:
256,192,79572,1,0,0:0:0:0:
256,192,79644,1,0,0:0:0:0:
256,192,79715,1,8,0:0:0:0:
256,192,79858,1,0,0:0:0:0:
256,192,80001,1,8,0:0:0:0:
256,192,80072,1,0,0:0:0:0:
256,192,80144,1,8,0:0:0:0:
256,192,80287,1,0,0:0:0:0:
256,192,80429,1,0,0:0:0:0:
256,192,80501,1,0,0:0:0:0:
256,192,80572,1,8,0:0:0:0:
256,192,80715,1,8,0:0:0:0:
256,192,81001,1,0,0:0:0:0:
256,192,81144,1,8,0:0:0:0:
256,192,81287,1,8,0:0:0:0:
256,192,81358,1,8,0:0:0:0:
256,192,81429,1,0,0:0:0:0:
256,192,81572,1,0,0:0:0:0:
256,192,81715,1,8,0:0:0:0:
256,192,81858,1,0,0:0:0:0:
256,192,81929,1,0,0:0:0:0:
256,192,82001,1,8,0:0:0:0:
256,192,82144,1,0,0:0:0:0:
256,192,82287,1,8,0:0:0:0:
256,192,82358,1,0,0:0:0:0:
256,192,82429,1,8,0:0:0:0:
256,192,82572,5,4,0:0:0:0:
254,201,82858,1,0,0:0:0:0:
256,192,83144,1,0,0:0:0:0:
254,201,83429,1,0,0:0:0:0:
256,192,83715,1,0,0:0:0:0:
254,201,84001,1,0,0:0:0:0:
256,192,84287,1,0,0:0:0:0:
256,192,84429,1,8,0:0:0:0:
256,192,84572,1,0,0:0:0:0:
256,192,84715,1,8,0:0:0:0:
256,192,84858,1,0,0:0:0:0:
254,201,85144,1,8,0:0:0:0:
256,192,85429,1,8,0:0:0:0:
254,201,85715,1,8,0:0:0:0:
256,192,86001,1,8,0:0:0:0:
254,201,86287,1,8,0:0:0:0:
256,192,86572,1,8,0:0:0:0:
256,192,86715,1,8,0:0:0:0:
256,192,86858,1,0,0:0:0:0:
256,192,87001,1,8,0:0:0:0:
256,192,87144,1,0,0:0:0:0:
254,201,87429,1,0,0:0:0:0:
256,192,87715,1,0,0:0:0:0:
254,201,88001,1,0,0:0:0:0:
256,192,88287,1,0,0:0:0:0:
254,201,88572,1,0,0:0:0:0:
256,192,88858,1,0,0:0:0:0:
256,192,89001,1,8,0:0:0:0:
256,192,89097,1,8,0:0:0:0:
256,192,89192,1,0,0:0:0:0:
254,186,89287,1,8,0:0:0:0:
256,192,89429,1,0,0:0:0:0:
255,193,89572,1,0,0:0:0:0:
254,201,89715,1,8,0:0:0:0:
250,198,89858,1,0,0:0:0:0:
250,198,90144,1,0,0:0:0:0:
256,192,90287,1,8,0:0:0:0:
256,192,90429,1,0,0:0:0:0:
256,192,90715,1,12,0:0:0:0:
256,192,91001,1,12,0:0:0:0:
256,192,91287,1,12,0:0:0:0:
256,192,91572,1,12,0:0:0:0:
248,197,91858,1,0,0:0:0:0:
256,192,92001,1,8,0:0:0:0:
256,192,92144,1,0,0:0:0:0:
256,192,92215,1,0,0:0:0:0:
256,192,92287,1,8,0:0:0:0:
256,192,92429,1,0,0:0:0:0:
256,192,92572,1,8,0:0:0:0:
256,192,92715,1,8,0:0:0:0:
256,192,93001,1,0,0:0:0:0:
256,192,93144,1,8,0:0:0:0:
256,192,93287,1,0,0:0:0:0:
256,192,93358,1,0,0:0:0:0:
256,192,93429,1,8,0:0:0:0:
256,192,93572,1,0,0:0:0:0:
256,192,93715,1,8,0:0:0:0:
256,192,93858,1,8,0:0:0:0:
256,192,94001,1,0,0:0:0:0:
256,192,94287,1,8,0:0:0:0:
256,192,94429,1,0,0:0:0:0:
256,192,94501,1,0,0:0:0:0:
256,192,94572,1,8,0:0:0:0:
256,192,94644,1,8,0:0:0:0:
256,192,94715,1,0,0:0:0:0:
256,192,94858,1,8,0:0:0:0:
256,192,95001,1,0,0:0:0:0:
256,192,95072,1,0,0:0:0:0:
256,192,95144,1,0,0:0:0:0:
256,192,95287,1,0,0:0:0:0:
256,192,95429,1,8,0:0:0:0:
256,192,95572,1,8,0:0:0:0:
256,192,95644,1,8,0:0:0:0:
256,192,95715,1,0,0:0:0:0:
256,192,95858,1,8,0:0:0:0:
256,192,96001,1,0,0:0:0:0:
256,192,96144,1,8,0:0:0:0:
256,192,96287,1,0,0:0:0:0:
256,192,96572,1,8,0:0:0:0:
256,192,96715,1,0,0:0:0:0:
252,183,96787,1,0,0:0:0:0:
256,192,96858,1,0,0:0:0:0:
256,192,97001,1,0,0:0:0:0:
256,192,97144,1,8,0:0:0:0:
256,192,97287,1,0,0:0:0:0:
256,192,97358,1,0,0:0:0:0:
256,192,97429,1,8,0:0:0:0:
256,192,97501,1,8,0:0:0:0:
256,192,97572,1,0,0:0:0:0:
256,192,97715,1,8,0:0:0:0:
256,192,97858,1,0,0:0:0:0:
256,192,98001,1,8,0:0:0:0:
256,192,98072,1,8,0:0:0:0:
256,192,98144,1,0,0:0:0:0:
256,192,98287,1,8,0:0:0:0:
256,192,98429,1,8,0:0:0:0:
256,192,98572,1,0,0:0:0:0:
256,192,98858,1,8,0:0:0:0:
256,192,99001,1,0,0:0:0:0:
256,192,99072,1,0,0:0:0:0:
256,192,99144,1,8,0:0:0:0:
256,192,99287,1,0,0:0:0:0:
256,192,99429,1,8,0:0:0:0:
256,192,99572,1,0,0:0:0:0:
256,192,99858,1,0,0:0:0:0:
256,192,100001,1,8,0:0:0:0:
256,192,100144,1,0,0:0:0:0:
256,192,100215,1,0,0:0:0:0:
256,192,100287,1,8,0:0:0:0:
256,192,100429,1,0,0:0:0:0:
256,192,100572,1,8,0:0:0:0:
256,192,100715,1,8,0:0:0:0:
256,192,100858,1,0,0:0:0:0:
256,192,101001,1,0,0:0:0:0:
256,192,101144,5,8,0:0:0:0:
256,192,101287,1,0,0:0:0:0:
256,192,101429,1,8,0:0:0:0:
256,192,101572,1,8,0:0:0:0:
256,192,101858,1,8,0:0:0:0:
256,192,102001,1,0,0:0:0:0:
256,192,102144,1,8,0:0:0:0:
256,192,102287,1,8,0:0:0:0:
256,192,102429,1,0,0:0:0:0:
256,192,102715,1,12,0:0:0:0:
256,192,103001,1,12,0:0:0:0:
256,192,103287,1,0,0:0:0:0:
256,192,103429,1,8,0:0:0:0:
256,192,103572,1,0,0:0:0:0:
256,192,103715,1,0,0:0:0:0:
256,192,103858,1,8,0:0:0:0:
256,160,104144,1,8,0:0:0:0:
256,192,104287,1,8,0:0:0:0:
241,186,104429,1,0,0:0:0:0:
256,192,104572,1,8,0:0:0:0:
256,192,104715,1,0,0:0:0:0:
256,192,105001,1,12,0:0:0:0:
256,192,105287,1,12,0:0:0:0:
254,180,105572,1,0,0:0:0:0:
254,180,105715,1,8,0:0:0:0:
254,180,105858,1,8,0:0:0:0:
256,192,106001,1,0,0:0:0:0:
256,192,106144,1,8,0:0:0:0:
256,192,106429,1,8,0:0:0:0:
254,180,106572,1,0,0:0:0:0:
256,192,106715,1,0,0:0:0:0:
256,192,106858,1,8,0:0:0:0:
256,192,107001,1,0,0:0:0:0:
256,192,107287,1,12,0:0:0:0:
256,192,107572,1,12,0:0:0:0:
256,192,107715,1,0,0:0:0:0:
256,192,107787,1,0,0:0:0:0:
256,192,107858,1,0,0:0:0:0:
256,192,108001,1,8,0:0:0:0:
256,192,108144,1,0,0:0:0:0:
256,192,108215,1,0,0:0:0:0:
256,192,108287,1,8,0:0:0:0:
256,192,108429,1,0,0:0:0:0:
256,192,108572,1,8,0:0:0:0:
255,198,108715,1,4,0:0:0:0:
256,192,109001,1,0,0:0:0:0:
256,192,109144,1,8,0:0:0:0:
256,192,109287,1,8,0:0:0:0:
256,192,109358,1,0,0:0:0:0:
256,192,109429,1,8,0:0:0:0:
255,182,109501,1,8,0:0:0:0:
256,192,109572,1,0,0:0:0:0:
256,192,109715,1,8,0:0:0:0:
256,192,109858,1,8,0:0:0:0:
256,192,110001,1,0,0:0:0:0:
256,192,110144,1,0,0:0:0:0:
256,192,110287,5,8,0:0:0:0:
256,192,110429,1,0,0:0:0:0:
256,192,110572,1,8,0:0:0:0:
256,192,110715,1,8,0:0:0:0:
256,192,111001,1,8,0:0:0:0:
256,192,111144,1,0,0:0:0:0:
256,192,111287,1,0,0:0:0:0:
256,192,111429,1,8,0:0:0:0:
256,192,111572,1,0,0:0:0:0:
256,192,111858,1,12,0:0:0:0:
256,192,112144,1,12,0:0:0:0:
256,192,112429,1,0,0:0:0:0:
256,192,112572,1,8,0:0:0:0:
256,192,112715,1,8,0:0:0:0:
256,192,112858,1,0,0:0:0:0:
256,192,113001,1,8,0:0:0:0:
256,160,113287,1,8,0:0:0:0:
256,192,113429,1,8,0:0:0:0:
256,192,113572,1,0,0:0:0:0:
256,192,113715,1,8,0:0:0:0:
256,192,113858,1,0,0:0:0:0:
256,192,114144,1,12,0:0:0:0:
256,192,114429,1,12,0:0:0:0:
256,192,114715,1,0,0:0:0:0:
256,192,114858,1,8,0:0:0:0:
256,192,115001,1,0,0:0:0:0:
256,192,115144,1,0,0:0:0:0:
256,192,115287,1,8,0:0:0:0:
256,192,115572,1,8,0:0:0:0:
256,192,115715,1,0,0:0:0:0:
256,192,115858,1,8,0:0:0:0:
256,192,116001,1,8,0:0:0:0:
256,192,116144,1,0,0:0:0:0:
256,192,116429,5,12,0:0:0:0:
256,192,116715,1,12,0:0:0:0:
256,192,116858,5,8,0:0:0:0:
256,192,116929,1,8,0:0:0:0:
256,192,117001,1,0,0:0:0:0:
256,192,117144,1,8,0:0:0:0:
256,192,117287,1,0,0:0:0:0:
256,192,117358,1,0,0:0:0:0:
256,192,117429,1,8,0:0:0:0:
256,192,117501,1,8,0:0:0:0:
256,192,117572,1,0,0:0:0:0:
256,192,117715,1,8,0:0:0:0:
256,192,117858,1,0,0:0:0:0:
256,192,117929,1,0,0:0:0:0:
256,192,118001,1,8,0:0:0:0:
256,192,118144,1,0,0:0:0:0:
256,192,118287,1,8,0:0:0:0:
256,192,118429,1,0,0:0:0:0:
256,192,118572,1,8,0:0:0:0:
256,192,118644,1,8,0:0:0:0:
256,192,118715,5,0,0:0:0:0:
256,192,118787,1,0,0:0:0:0:
256,192,118858,1,8,0:0:0:0:
256,192,118929,1,0,0:0:0:0:
256,192,119001,1,8,0:0:0:0:
256,192,119144,5,4,0:0:0:0:
256,192,119287,1,0,0:0:0:0:
256,192,119358,1,0,0:0:0:0:
256,192,119429,1,8,0:0:0:0:
256,192,119572,1,0,0:0:0:0:
256,192,119715,1,8,0:0:0:0:
256,192,119787,1,0,0:0:0:0:
256,192,119858,1,8,0:0:0:0:
256,160,119929,1,0,0:0:0:0:
256,192,120001,1,0,0:0:0:0:
256,192,120144,1,8,0:0:0:0:
256,192,120287,1,8,0:0:0:0:
256,192,120358,1,0,0:0:0:0:
256,192,120429,1,0,0:0:0:0:
256,192,120501,1,0,0:0:0:0:
256,192,120572,1,8,0:0:0:0:
256,192,120715,1,0,0:0:0:0:
256,192,120858,1,8,0:0:0:0:
256,192,120929,1,8,0:0:0:0:
256,192,121001,1,0,0:0:0:0:
256,192,121072,1,0,0:0:0:0:
256,192,121144,1,8,0:0:0:0:
256,192,121287,1,8,0:0:0:0:
256,192,121429,1,0,0:0:0:0:
256,192,121572,1,0,0:0:0:0:
256,192,121644,1,0,0:0:0:0:
256,192,121715,1,8,0:0:0:0:
256,192,121858,1,0,0:0:0:0:
256,192,122001,1,8,0:0:0:0:
256,192,122072,1,0,0:0:0:0:
256,192,122144,1,8,0:0:0:0:
256,192,122215,1,8,0:0:0:0:
256,192,122287,1,0,0:0:0:0:
256,192,122429,1,8,0:0:0:0:
256,192,122572,1,8,0:0:0:0:
256,192,122644,1,8,0:0:0:0:
256,192,122715,1,0,0:0:0:0:
256,192,122787,1,0,0:0:0:0:
256,192,122858,1,8,0:0:0:0:
256,192,123001,1,0,0:0:0:0:
256,192,123144,1,8,0:0:0:0:
256,192,123287,1,0,0:0:0:0:
256,192,123358,1,0,0:0:0:0:
256,192,123429,1,8,0:0:0:0:
256,192,123501,1,0,0:0:0:0:
256,192,123572,1,8,0:0:0:0:
256,192,123715,1,0,0:0:0:0:
256,192,123858,1,0,0:0:0:0:
256,192,123929,1,0,0:0:0:0:
256,192,124001,1,8,0:0:0:0:
256,192,124144,1,0,0:0:0:0:
256,192,124287,1,8,0:0:0:0:
256,160,124358,1,0,0:0:0:0:
256,192,124429,1,8,0:0:0:0:
256,192,124501,1,8,0:0:0:0:
256,192,124572,1,0,0:0:0:0:
256,192,124715,1,8,0:0:0:0:
256,192,124858,1,8,0:0:0:0:
256,192,124929,1,8,0:0:0:0:
256,192,125001,1,0,0:0:0:0:
256,192,125072,1,0,0:0:0:0:
256,192,125144,1,8,0:0:0:0:
256,192,125287,1,0,0:0:0:0:
256,192,125429,1,8,0:0:0:0:
256,192,125501,1,0,0:0:0:0:
256,192,125572,1,8,0:0:0:0:
256,192,125644,1,0,0:0:0:0:
256,192,125715,1,8,0:0:0:0:
256,192,125858,1,0,0:0:0:0:
256,192,126001,1,8,0:0:0:0:
256,192,126072,1,8,0:0:0:0:
256,192,126144,1,0,0:0:0:0:
256,192,126287,1,8,0:0:0:0:
256,192,126429,1,0,0:0:0:0:
256,192,126572,1,0,0:0:0:0:
256,192,126644,1,8,0:0:0:0:
256,192,126715,1,0,0:0:0:0:
256,192,126787,1,0,0:0:0:0:
256,192,126858,1,8,0:0:0:0:
256,192,127001,1,0,0:0:0:0:
256,192,127144,1,8,0:0:0:0:
256,192,127215,1,8,0:0:0:0:
256,192,127287,1,0,0:0:0:0:
256,192,127429,1,8,0:0:0:0:
256,192,127572,1,0,0:0:0:0:
256,192,127715,1,8,0:0:0:0:
256,192,127787,1,0,0:0:0:0:
256,192,127858,1,8,0:0:0:0:
256,192,127929,1,8,0:0:0:0:
256,192,128001,1,0,0:0:0:0:
256,192,128072,1,0,0:0:0:0:
256,192,128144,1,8,0:0:0:0:
256,192,128287,5,4,0:0:0:0:
256,192,128429,1,0,0:0:0:0:
256,192,128501,1,0,0:0:0:0:
256,192,128572,1,8,0:0:0:0:
256,192,128715,1,0,0:0:0:0:
256,192,128858,1,8,0:0:0:0:
256,192,128929,1,0,0:0:0:0:
256,192,129001,1,8,0:0:0:0:
256,192,129072,1,8,0:0:0:0:
256,192,129144,1,0,0:0:0:0:
256,192,129287,1,8,0:0:0:0:
256,192,129429,1,8,0:0:0:0:
256,192,129501,1,8,0:0:0:0:
256,192,129572,1,0,0:0:0:0:
256,192,129644,1,0,0:0:0:0:
256,192,129715,1,8,0:0:0:0:
256,192,129858,1,0,0:0:0:0:
256,192,130001,1,8,0:0:0:0:
256,192,130072,1,0,0:0:0:0:
256,192,130144,1,0,0:0:0:0:
256,192,130215,1,0,0:0:0:0:
256,192,130287,1,8,0:0:0:0:
256,192,130429,1,8,0:0:0:0:
256,192,130572,1,0,0:0:0:0:
256,192,130715,1,0,0:0:0:0:
256,192,130787,1,0,0:0:0:0:
256,192,130858,1,8,0:0:0:0:
256,192,131001,1,0,0:0:0:0:
256,192,131144,1,8,0:0:0:0:
256,192,131215,1,0,0:0:0:0:
256,192,131287,1,8,0:0:0:0:
256,192,131358,1,0,0:0:0:0:
256,192,131429,1,0,0:0:0:0:
256,192,131572,1,8,0:0:0:0:
256,192,131715,1,8,0:0:0:0:
256,192,131787,1,0,0:0:0:0:
256,192,131858,1,0,0:0:0:0:
256,192,131929,1,0,0:0:0:0:
256,192,132001,1,8,0:0:0:0:
256,192,132144,1,0,0:0:0:0:
256,192,132287,1,8,0:0:0:0:
256,192,132429,1,0,0:0:0:0:
256,192,132501,1,0,0:0:0:0:
256,192,132572,1,8,0:0:0:0:
256,192,132644,1,0,0:0:0:0:
256,192,132715,1,8,0:0:0:0:
256,192,132858,1,0,0:0:0:0:
256,192,133001,1,0,0:0:0:0:
256,192,133072,1,0,0:0:0:0:
256,192,133144,1,8,0:0:0:0:
256,192,133287,1,0,0:0:0:0:
256,192,133429,1,8,0:0:0:0:
256,192,133501,1,0,0:0:0:0:
256,192,133572,1,8,0:0:0:0:
256,192,133644,1,8,0:0:0:0:
256,192,133715,1,0,0:0:0:0:
256,192,133858,1,8,0:0:0:0:
256,192,134001,1,8,0:0:0:0:
256,192,134072,1,8,0:0:0:0:
256,192,134144,1,0,0:0:0:0:
256,192,134215,1,0,0:0:0:0:
256,192,134287,1,8,0:0:0:0:
256,192,134429,1,0,0:0:0:0:
256,192,134572,1,8,0:0:0:0:
256,192,134644,1,0,0:0:0:0:
256,192,134715,1,8,0:0:0:0:
256,192,134787,1,0,0:0:0:0:
256,192,134858,1,8,0:0:0:0:
256,192,135001,1,0,0:0:0:0:
256,192,135144,1,8,0:0:0:0:
256,160,135215,1,0,0:0:0:0:
256,192,135287,1,0,0:0:0:0:
256,192,135429,1,8,0:0:0:0:
256,192,135572,1,0,0:0:0:0:
256,192,135715,1,8,0:0:0:0:
256,192,135787,1,8,0:0:0:0:
256,192,135858,1,0,0:0:0:0:
256,192,135929,1,0,0:0:0:0:
256,192,136001,1,8,0:0:0:0:
256,192,136144,1,0,0:0:0:0:
256,192,136287,1,8,0:0:0:0:
256,192,136358,1,8,0:0:0:0:
256,192,136429,1,0,0:0:0:0:
256,192,136501,1,0,0:0:0:0:
256,192,136572,1,8,0:0:0:0:
256,192,136644,1,0,0:0:0:0:
256,192,136715,1,8,0:0:0:0:
260,184,136787,1,8,0:0:0:0:
256,192,136858,1,0,0:0:0:0:
256,192,137001,1,8,0:0:0:0:
256,192,137072,1,0,0:0:0:0:
256,192,137144,1,8,0:0:0:0:
256,192,137215,1,0,0:0:0:0:
256,192,137287,5,8,0:0:0:0:
256,192,137429,1,4,0:0:0:0:
256,192,137715,5,0,0:0:0:0:
260,184,137858,1,0,0:0:0:0:
256,192,138001,1,8,0:0:0:0:
256,192,138287,1,0,0:0:0:0:
256,192,138429,1,8,0:0:0:0:
256,192,138715,1,8,0:0:0:0:
256,192,138858,1,0,0:0:0:0:
256,192,139144,1,8,0:0:0:0:
256,192,139429,1,8,0:0:0:0:
256,192,139572,1,8,0:0:0:0:
256,192,139715,1,0,0:0:0:0:
256,192,139858,1,0,0:0:0:0:
256,192,140001,1,8,0:0:0:0:
256,192,140144,1,0,0:0:0:0:
256,192,140287,1,0,0:0:0:0:
256,192,140572,1,8,0:0:0:0:
256,192,140715,1,0,0:0:0:0:
256,192,141001,1,0,0:0:0:0:
256,192,141144,1,8,0:0:0:0:
256,192,141429,1,8,0:0:0:0:
256,192,141572,1,0,0:0:0:0:
256,192,141715,1,8,0:0:0:0:
256,192,141858,1,8,0:0:0:0:
256,192,142001,1,0,0:0:0:0:
256,192,142287,1,0,0:0:0:0:
257,178,142429,1,0,0:0:0:0:
256,192,142572,1,8,0:0:0:0:
256,192,142858,1,0,0:0:0:0:
256,192,143001,1,0,0:0:0:0:
256,192,143287,1,8,0:0:0:0:
256,192,143429,1,0,0:0:0:0:
256,192,143715,1,8,0:0:0:0:
256,192,144001,1,8,0:0:0:0:
256,192,144144,1,8,0:0:0:0:
256,192,144287,1,0,0:0:0:0:
256,192,144572,1,0,0:0:0:0:
257,173,144715,1,0,0:0:0:0:
248,188,144787,1,0,0:0:0:0:
256,192,144858,1,8,0:0:0:0:
248,188,145001,1,0,0:0:0:0:
256,192,145144,1,8,0:0:0:0:
256,192,145287,1,0,0:0:0:0:
256,192,145572,1,0,0:0:0:0:
256,192,145715,1,8,0:0:0:0:
256,192,145858,1,0,0:0:0:0:
256,192,145929,1,0,0:0:0:0:
256,192,146001,1,8,0:0:0:0:
248,188,146072,1,8,0:0:0:0:
248,188,146144,1,0,0:0:0:0:
248,188,146215,1,0,0:0:0:0:
256,160,146287,1,8,0:0:0:0:
248,188,146358,1,0,0:0:0:0:
256,192,146429,1,8,0:0:0:0:
256,192,146572,1,4,0:0:0:0:
256,192,146715,1,0,0:0:0:0:
256,192,146858,5,8,0:0:0:0:
253,182,147001,1,0,0:0:0:0:
256,192,147144,1,8,0:0:0:0:
265,202,147429,1,8,0:0:0:0:
265,202,147572,1,0,0:0:0:0:
256,192,147858,1,0,0:0:0:0:
256,192,148001,1,8,0:0:0:0:
260,202,148144,1,0,0:0:0:0:
265,202,148215,1,0,0:0:0:0:
256,192,148287,1,8,0:0:0:0:
265,202,148429,1,0,0:0:0:0:
256,192,148572,1,8,0:0:0:0:
256,192,148715,1,8,0:0:0:0:
256,192,148858,1,0,0:0:0:0:
256,192,149001,1,0,0:0:0:0:
256,192,149144,1,8,0:0:0:0:
256,192,149287,1,0,0:0:0:0:
256,192,149429,1,8,0:0:0:0:
256,192,149501,1,0,0:0:0:0:
256,192,149572,1,0,0:0:0:0:
256,192,149715,1,8,0:0:0:0:
256,192,149858,1,0,0:0:0:0:
256,192,150144,1,0,0:0:0:0:
256,192,150287,1,8,0:0:0:0:
256,192,150429,1,0,0:0:0:0:
256,192,150501,1,0,0:0:0:0:
256,192,150572,1,8,0:0:0:0:
256,192,150715,1,0,0:0:0:0:
256,192,150858,1,8,0:0:0:0:
256,192,151001,1,8,0:0:0:0:
256,192,151144,1,0,0:0:0:0:
256,192,151429,1,0,0:0:0:0:
256,192,151572,1,0,0:0:0:0:
256,192,151715,1,8,0:0:0:0:
256,192,152001,1,8,0:0:0:0:
256,192,152144,1,0,0:0:0:0:
256,192,152215,1,0,0:0:0:0:
256,192,152287,1,0,0:0:0:0:
256,192,152429,1,8,0:0:0:0:
256,192,152572,1,0,0:0:0:0:
256,192,152715,1,0,0:0:0:0:
256,192,152858,1,8,0:0:0:0:
256,192,153001,1,0,0:0:0:0:
256,192,153144,1,8,0:0:0:0:
256,192,153287,1,8,0:0:0:0:
256,192,153429,1,0,0:0:0:0:
256,192,153715,1,0,0:0:0:0:
256,192,153858,1,0,0:0:0:0:
256,192,154001,1,8,0:0:0:0:
256,192,154287,1,8,0:0:0:0:
256,192,154429,1,0,0:0:0:0:
256,192,154501,1,0,0:0:0:0:
256,192,154572,1,0,0:0:0:0:
251,169,154715,1,8,0:0:0:0:
251,169,154858,1,0,0:0:0:0:
256,192,155001,1,0,0:0:0:0:
256,192,155144,1,8,0:0:0:0:
256,160,155287,5,0,0:0:0:0:
256,160,155358,1,0,0:0:0:0:
256,160,155429,1,8,0:0:0:0:
256,192,155572,1,8,0:0:0:0:
256,128,155715,5,0,0:0:0:0:
256,128,156001,1,0,0:0:0:0:
263,163,156144,1,0,0:0:0:0:
256,128,156287,1,8,0:0:0:0:
256,160,156572,1,8,0:0:0:0:
256,160,156715,1,0,0:0:0:0:
256,160,156787,1,0,0:0:0:0:
256,128,156858,1,0,0:0:0:0:
251,169,157001,1,8,0:0:0:0:
256,128,157144,1,8,0:0:0:0:
256,128,157287,1,0,0:0:0:0:
256,128,157358,1,0,0:0:0:0:
256,160,157429,1,8,0:0:0:0:
256,128,157572,1,0,0:0:0:0:
256,128,157715,1,8,0:0:0:0:
256,128,157858,1,8,0:0:0:0:
256,128,158001,1,0,0:0:0:0:
256,128,158287,1,8,0:0:0:0:
256,160,158429,1,0,0:0:0:0:
251,170,158572,1,8,0:0:0:0:
256,128,158858,1,8,0:0:0:0:
253,166,159001,1,0,0:0:0:0:
256,128,159287,1,0,0:0:0:0:
256,128,159429,1,8,0:0:0:0:
256,128,159572,1,0,0:0:0:0:
256,128,159644,1,0,0:0:0:0:
256,128,159715,1,8,0:0:0:0:
256,128,159858,1,0,0:0:0:0:
256,128,160001,1,8,0:0:0:0:
256,128,160144,1,8,0:0:0:0:
256,128,160287,1,0,0:0:0:0:
256,128,160429,1,0,0:0:0:0:
256,128,160572,1,8,0:0:0:0:
256,128,160715,1,0,0:0:0:0:
256,128,160858,1,8,0:0:0:0:
263,161,161144,1,8,0:0:0:0:
263,161,161287,1,0,0:0:0:0:
256,128,161572,1,8,0:0:0:0:
256,128,161715,1,0,0:0:0:0:
256,128,162001,1,8,0:0:0:0:
256,128,162287,1,8,0:0:0:0:
256,128,162429,1,8,0:0:0:0:
256,128,162572,1,0,0:0:0:0:
256,128,162715,1,0,0:0:0:0:
256,128,162858,1,8,0:0:0:0:
256,128,163001,1,8,0:0:0:0:
256,128,163144,1,0,0:0:0:0:
256,128,163429,1,8,0:0:0:0:
256,128,163572,1,0,0:0:0:0:
256,128,163858,1,8,0:0:0:0:
256,128,164001,1,0,0:0:0:0:
256,128,164144,1,0,0:0:0:0:
256,128,164215,1,0,0:0:0:0:
256,128,164287,1,8,0:0:0:0:
256,128,164429,1,0,0:0:0:0:
256,128,164572,1,8,0:0:0:0:
256,128,164715,1,8,0:0:0:0:
256,128,164858,1,0,0:0:0:0:
256,128,165001,1,0,0:0:0:0:
256,128,165144,1,8,0:0:0:0:
256,128,165287,1,0,0:0:0:0:
256,128,165429,1,8,0:0:0:0:
263,161,165715,1,8,0:0:0:0:
263,161,165858,1,0,0:0:0:0:
256,128,166144,1,8,0:0:0:0:
256,128,166287,1,0,0:0:0:0:
256,128,166572,1,8,0:0:0:0:
256,128,166858,1,8,0:0:0:0:
256,128,167001,1,8,0:0:0:0:
256,128,167144,1,0,0:0:0:0:
256,128,167287,1,0,0:0:0:0:
256,128,167429,1,8,0:0:0:0:
256,128,167572,1,8,0:0:0:0:
256,128,167715,1,0,0:0:0:0:
256,128,168001,1,8,0:0:0:0:
256,128,168144,1,0,0:0:0:0:
256,128,168429,1,8,0:0:0:0:
256,128,168572,1,0,0:0:0:0:
256,128,168715,1,0,0:0:0:0:
256,128,168787,1,0,0:0:0:0:
256,128,168858,1,8,0:0:0:0:
256,128,169001,1,0,0:0:0:0:
256,128,169144,1,8,0:0:0:0:
256,128,169287,1,8,0:0:0:0:
256,128,169429,1,0,0:0:0:0:
256,128,169501,1,0,0:0:0:0:
256,128,169572,1,0,0:0:0:0:
256,128,169715,1,8,0:0:0:0:
256,128,169858,1,0,0:0:0:0:
256,128,169929,1,0,0:0:0:0:
256,128,170001,1,0,0:0:0:0:
256,128,170144,1,8,0:0:0:0:
256,128,170287,1,0,0:0:0:0:
256,128,170358,1,8,0:0:0:0:
256,128,170429,1,0,0:0:0:0:
256,128,170572,1,8,0:0:0:0:
256,128,170715,1,0,0:0:0:0:
256,128,170787,1,8,0:0:0:0:
256,128,170858,1,0,0:0:0:0:
256,128,171001,1,8,0:0:0:0:
256,128,171144,1,8,0:0:0:0:
252,137,171215,1,8,0:0:0:0:
256,128,171287,1,0,0:0:0:0:
256,128,171429,1,8,0:0:0:0:
256,128,171572,1,8,0:0:0:0:
256,128,171715,1,0,0:0:0:0:
256,128,172001,1,0,0:0:0:0:
256,128,172144,1,0,0:0:0:0:
256,128,172287,1,8,0:0:0:0:
256,128,172358,1,8,0:0:0:0:
256,128,172429,1,0,0:0:0:0:
256,128,172572,1,8,0:0:0:0:
256,128,172715,1,0,0:0:0:0:
256,128,173001,1,8,0:0:0:0:
256,128,173144,1,0,0:0:0:0:
256,128,173287,1,0,0:0:0:0:
256,128,173358,1,0,0:0:0:0:
256,128,173429,1,8,0:0:0:0:
256,128,173572,1,0,0:0:0:0:
256,128,173715,1,8,0:0:0:0:
256,128,173787,1,0,0:0:0:0:
256,128,173858,1,8,0:0:0:0:
256,128,174001,1,0,0:0:0:0:
256,128,174096,1,8,0:0:0:0:
256,128,174191,1,0,0:0:0:0:
256,128,174287,1,0,0:0:0:0:
256,128,174382,1,8,0:0:0:0:
256,128,174477,1,0,0:0:0:0:
256,128,174572,1,8,0:0:0:0:
256,128,174644,1,8,0:0:0:0:
256,128,174715,1,0,0:0:0:0:
256,128,174858,1,0,0:0:0:0:
256,128,175001,1,8,0:0:0:0:
256,128,175287,1,8,0:0:0:0:
256,128,175429,1,0,0:0:0:0:
256,128,175572,1,0,0:0:0:0:
256,128,175644,1,0,0:0:0:0:
256,128,175715,1,8,0:0:0:0:
256,128,175858,1,0,0:0:0:0:
256,128,176001,1,8,0:0:0:0:
256,128,176144,1,8,0:0:0:0:
256,128,176287,1,0,0:0:0:0:
256,128,176358,1,8,0:0:0:0:
256,128,176429,1,0,0:0:0:0:
256,128,176572,1,0,0:0:0:0:
256,128,176715,1,8,0:0:0:0:
256,128,176858,1,8,0:0:0:0:
256,128,176929,1,0,0:0:0:0:
256,128,177001,1,0,0:0:0:0:
256,128,177072,1,8,0:0:0:0:
256,128,177144,1,0,0:0:0:0:
256,128,177287,1,8,0:0:0:0:
256,128,177429,1,8,0:0:0:0:
256,128,177501,1,0,0:0:0:0:
256,128,177572,1,0,0:0:0:0:
256,128,177644,1,8,0:0:0:0:
256,128,177715,1,0,0:0:0:0:
256,128,177787,1,0,0:0:0:0:
256,128,177858,1,8,0:0:0:0:
256,128,177929,1,0,0:0:0:0:
256,128,178001,1,8,0:0:0:0:
256,128,178072,1,8,0:0:0:0:
256,128,178144,1,0,0:0:0:0:
256,128,178215,1,8,0:0:0:0:
256,128,178287,1,0,0:0:0:0:
256,128,178358,1,0,0:0:0:0:
256,128,178429,1,8,0:0:0:0:
256,128,178572,1,4,0:0:0:0:
261,135,178858,1,0,0:0:0:0:
265,175,179001,1,0,0:0:0:0:
256,192,179144,1,8,0:0:0:0:
251,135,179429,1,0,0:0:0:0:
256,192,179715,1,0,0:0:0:0:
256,192,179858,1,8,0:0:0:0:
251,135,180144,1,0,0:0:0:0:
251,135,180287,1,8,0:0:0:0:
256,192,180572,1,8,0:0:0:0:
256,192,180858,1,0,0:0:0:0:
254,160,181144,1,0,0:0:0:0:
255,154,181287,1,0,0:0:0:0:
256,192,181429,1,8,0:0:0:0:
256,192,181715,1,0,0:0:0:0:
270,171,182001,1,0,0:0:0:0:
256,192,182144,1,8,0:0:0:0:
256,192,182429,1,0,0:0:0:0:
256,192,182572,1,8,0:0:0:0:
256,192,182858,1,8,0:0:0:0:
256,192,183144,1,4,0:0:0:0:
256,192,183429,1,8,0:0:0:0:
256,192,183715,1,8,0:0:0:0:
256,192,183858,1,0,0:0:0:0:
256,192,184001,1,8,0:0:0:0:
265,184,184144,1,0,0:0:0:0:
256,192,184429,1,8,0:0:0:0:
246,205,184572,1,0,0:0:0:0:
256,192,184715,1,0,0:0:0:0:
256,192,184858,1,8,0:0:0:0:
256,192,185001,1,0,0:0:0:0:
261,194,185072,1,0,0:0:0:0:
256,192,185144,1,8,0:0:0:0:
256,192,185287,1,8,0:0:0:0:
256,192,185429,1,0,0:0:0:0:
256,192,185715,1,8,0:0:0:0:
256,192,186001,1,8,0:0:0:0:
256,192,186144,1,0,0:0:0:0:
256,192,186287,1,8,0:0:0:0:
265,181,186429,1,0,0:0:0:0:
256,192,186715,1,8,0:0:0:0:
256,192,186858,1,8,0:0:0:0:
256,192,187001,1,0,0:0:0:0:
256,192,187072,1,0,0:0:0:0:
256,192,187144,1,8,0:0:0:0:
256,192,187287,1,0,0:0:0:0:
261,194,187429,1,8,0:0:0:0:
256,192,187572,1,8,0:0:0:0:
256,192,187715,12,0,189858,0:0:0:0:
256,192,190001,5,4,0:0:0:0:
256,192,192287,1,12,0:0:0:0:
256,192,193287,1,4,0:0:0:0:
256,192,194001,1,12,0:0:0:0:
256,192,194572,1,4,0:0:0:0:
272,186,194715,1,0,0:0:0:0:
272,191,194787,1,0,0:0:0:0:
256,192,194858,1,8,0:0:0:0:
256,192,195001,1,0,0:0:0:0:
256,192,195144,1,8,0:0:0:0:
256,192,195215,1,0,0:0:0:0:
256,192,195287,1,0,0:0:0:0:
256,192,195429,1,8,0:0:0:0:
256,192,195572,1,0,0:0:0:0:
256,192,195858,1,0,0:0:0:0:
256,192,196001,1,8,0:0:0:0:
256,192,196144,1,0,0:0:0:0:
256,192,196215,1,0,0:0:0:0:
256,192,196287,1,8,0:0:0:0:
256,192,196429,1,0,0:0:0:0:
256,192,196572,1,8,0:0:0:0:
256,192,196644,1,0,0:0:0:0:
256,192,196715,1,8,0:0:0:0:
256,192,196858,1,0,0:0:0:0:
256,192,197001,1,0,0:0:0:0:
256,192,197072,1,0,0:0:0:0:
256,192,197144,1,8,0:0:0:0:
256,192,197287,1,8,0:0:0:0:
256,192,197572,1,0,0:0:0:0:
256,192,197715,1,8,0:0:0:0:
256,192,197858,1,8,0:0:0:0:
256,192,197929,1,8,0:0:0:0:
256,192,198001,1,0,0:0:0:0:
256,192,198144,1,0,0:0:0:0:
256,192,198287,1,8,0:0:0:0:
256,192,198429,1,0,0:0:0:0:
256,192,198501,1,0,0:0:0:0:
256,192,198572,1,8,0:0:0:0:
256,192,198715,1,0,0:0:0:0:
256,192,198858,1,8,0:0:0:0:
256,192,198929,1,0,0:0:0:0:
256,192,199001,1,8,0:0:0:0:
256,192,199144,5,0,0:0:0:0:
224,192,199287,1,0,0:0:0:0:
250,211,199358,1,0,0:0:0:0:
256,192,199429,1,8,0:0:0:0:
256,192,199572,1,0,0:0:0:0:
256,192,199715,1,8,0:0:0:0:
256,192,199787,1,0,0:0:0:0:
256,192,199858,1,0,0:0:0:0:
256,192,200001,1,8,0:0:0:0:
256,192,200144,1,0,0:0:0:0:
256,192,200429,1,0,0:0:0:0:
256,192,200572,1,8,0:0:0:0:
256,192,200715,1,0,0:0:0:0:
256,192,200787,1,0,0:0:0:0:
256,192,200858,1,8,0:0:0:0:
256,192,201001,1,0,0:0:0:0:
256,192,201144,1,8,0:0:0:0:
256,192,201215,1,0,0:0:0:0:
256,192,201287,1,8,0:0:0:0:
256,192,201429,1,0,0:0:0:0:
256,192,201572,1,0,0:0:0:0:
256,192,201644,1,0,0:0:0:0:
256,192,201715,1,8,0:0:0:0:
256,192,201858,1,8,0:0:0:0:
256,192,202144,1,0,0:0:0:0:
256,192,202287,1,8,0:0:0:0:
256,192,202429,1,8,0:0:0:0:
256,192,202501,1,8,0:0:0:0:
256,192,202572,1,0,0:0:0:0:
256,192,202715,1,0,0:0:0:0:
256,192,202858,1,8,0:0:0:0:
256,192,203001,1,0,0:0:0:0:
256,192,203072,1,0,0:0:0:0:
256,192,203144,1,8,0:0:0:0:
256,192,203287,1,0,0:0:0:0:
256,192,203429,1,8,0:0:0:0:
256,192,203501,1,0,0:0:0:0:
256,192,203572,1,8,0:0:0:0:
256,192,203715,5,0,0:0:0:0:
224,192,203858,1,0,0:0:0:0:
236,182,203929,1,0,0:0:0:0:
256,192,204001,1,8,0:0:0:0:
256,192,204144,1,0,0:0:0:0:
256,192,204287,1,8,0:0:0:0:
256,192,204358,1,0,0:0:0:0:
256,192,204429,1,0,0:0:0:0:
256,192,204572,1,8,0:0:0:0:
256,192,204715,1,0,0:0:0:0:
256,192,205001,1,0,0:0:0:0:
256,192,205144,1,8,0:0:0:0:
256,192,205287,1,0,0:0:0:0:
256,192,205358,1,0,0:0:0:0:
256,192,205429,1,8,0:0:0:0:
256,192,205572,1,0,0:0:0:0:
256,192,205715,1,8,0:0:0:0:
256,192,205787,1,0,0:0:0:0:
256,192,205858,1,8,0:0:0:0:
256,192,206001,1,0,0:0:0:0:
256,192,206144,1,0,0:0:0:0:
256,192,206215,1,0,0:0:0:0:
256,192,206287,1,8,0:0:0:0:
256,192,206429,1,8,0:0:0:0:
256,192,206715,1,0,0:0:0:0:
256,192,206858,1,8,0:0:0:0:
256,192,207001,1,8,0:0:0:0:
256,192,207072,1,8,0:0:0:0:
256,192,207144,1,0,0:0:0:0:
256,192,207287,1,0,0:0:0:0:
256,192,207429,1,8,0:0:0:0:
256,192,207572,1,0,0:0:0:0:
256,192,207644,1,0,0:0:0:0:
256,192,207715,1,8,0:0:0:0:
256,192,207858,1,0,0:0:0:0:
256,192,208001,1,8,0:0:0:0:
256,192,208072,1,0,0:0:0:0:
256,192,208144,1,8,0:0:0:0:
256,192,208287,5,0,0:0:0:0:
256,192,208429,5,0,0:0:0:0:
256,192,208572,1,8,0:0:0:0:
256,192,208715,1,8,0:0:0:0:
256,192,209001,1,0,0:0:0:0:
256,192,209144,1,8,0:0:0:0:
256,192,209287,1,0,0:0:0:0:
256,192,209358,1,8,0:0:0:0:
256,192,209429,1,0,0:0:0:0:
256,192,209572,1,0,0:0:0:0:
256,192,209715,1,8,0:0:0:0:
256,192,209858,1,8,0:0:0:0:
256,192,209929,1,0,0:0:0:0:
256,192,210001,1,0,0:0:0:0:
256,192,210144,1,0,0:0:0:0:
256,192,210287,1,8,0:0:0:0:
256,192,210358,1,0,0:0:0:0:
256,192,210429,1,8,0:0:0:0:
256,192,210501,1,8,0:0:0:0:
256,192,210572,1,0,0:0:0:0:
256,192,210715,1,0,0:0:0:0:
256,192,210858,1,8,0:0:0:0:
256,192,211001,1,0,0:0:0:0:
256,192,211287,1,0,0:0:0:0:
256,192,211429,1,8,0:0:0:0:
256,192,211572,1,0,0:0:0:0:
256,192,211644,1,0,0:0:0:0:
256,192,211715,1,0,0:0:0:0:
256,192,211858,1,0,0:0:0:0:
256,192,212001,1,8,0:0:0:0:
256,192,212144,1,0,0:0:0:0:
256,192,212215,1,8,0:0:0:0:
256,192,212287,1,0,0:0:0:0:
256,192,212429,1,0,0:0:0:0:
256,192,212572,1,8,0:0:0:0:
256,192,212715,1,0,0:0:0:0:
256,192,212787,1,0,0:0:0:0:
256,192,212858,1,8,0:0:0:0:
256,192,213001,1,0,0:0:0:0:
256,192,213144,1,8,0:0:0:0:
256,192,213287,1,8,0:0:0:0:
256,192,213572,1,0,0:0:0:0:
256,192,213715,1,8,0:0:0:0:
256,192,213858,1,0,0:0:0:0:
250,197,213929,1,8,0:0:0:0:
250,197,214001,1,0,0:0:0:0:
256,192,214144,1,0,0:0:0:0:
256,192,214287,1,8,0:0:0:0:
256,192,214429,1,8,0:0:0:0:
256,192,214501,1,8,0:0:0:0:
256,192,214572,1,0,0:0:0:0:
256,192,214715,1,0,0:0:0:0:
250,197,214787,1,0,0:0:0:0:
256,192,214858,1,8,0:0:0:0:
256,192,214929,1,0,0:0:0:0:
256,192,215001,1,8,0:0:0:0:
256,192,215144,1,0,0:0:0:0:
256,192,215287,1,0,0:0:0:0:
256,192,215429,1,8,0:0:0:0:
256,192,215572,1,0,0:0:0:0:
256,192,215858,1,0,0:0:0:0:
256,192,216001,1,8,0:0:0:0:
256,192,216144,1,0,0:0:0:0:
250,197,216215,1,0,0:0:0:0:
250,197,216287,1,0,0:0:0:0:
256,192,216429,1,0,0:0:0:0:
256,192,216572,1,8,0:0:0:0:
256,192,216715,1,8,0:0:0:0:
256,192,216787,1,0,0:0:0:0:
256,192,216858,1,8,0:0:0:0:
250,197,216929,1,8,0:0:0:0:
256,192,217001,1,0,0:0:0:0:
250,197,217072,1,0,0:0:0:0:
256,192,217144,1,8,0:0:0:0:
256,192,217287,1,8,0:0:0:0:
256,192,217429,1,0,0:0:0:0:
256,192,217572,1,0,0:0:0:0:
256,192,217715,1,8,0:0:0:0:
256,192,217858,1,0,0:0:0:0:
256,192,217929,1,0,0:0:0:0:
256,192,218001,1,8,0:0:0:0:
256,192,218144,1,0,0:0:0:0:
256,192,218287,1,8,0:0:0:0:
256,192,218429,1,8,0:0:0:0:
256,192,218715,1,0,0:0:0:0:
256,192,218858,1,8,0:0:0:0:
256,192,219001,1,8,0:0:0:0:
256,192,219072,1,0,0:0:0:0:
256,192,219144,1,8,0:0:0:0:
250,197,219215,1,8,0:0:0:0:
256,192,219287,1,0,0:0:0:0:
256,192,219429,1,8,0:0:0:0:
256,192,219572,1,8,0:0:0:0:
256,192,219715,1,0,0:0:0:0:
256,192,220001,1,8,0:0:0:0:
256,192,220144,1,0,0:0:0:0:
256,192,220215,1,0,0:0:0:0:
256,192,220287,1,8,0:0:0:0:
256,192,220358,1,8,0:0:0:0:
256,192,220429,1,0,0:0:0:0:
256,192,220572,1,8,0:0:0:0:
256,192,220715,1,0,0:0:0:0:
256,192,220787,1,0,0:0:0:0:
256,192,220858,1,0,0:0:0:0:
256,192,221001,1,0,0:0:0:0:
256,192,221144,1,8,0:0:0:0:
256,192,221287,1,8,0:0:0:0:
256,192,221358,1,8,0:0:0:0:
256,192,221429,1,0,0:0:0:0:
252,184,221572,1,8,0:0:0:0:
256,192,221715,1,0,0:0:0:0:
256,192,221858,1,8,0:0:0:0:
256,192,222001,1,0,0:0:0:0:
256,192,222287,1,8,0:0:0:0:
256,192,222429,1,0,0:0:0:0:
252,183,222501,1,0,0:0:0:0:
256,192,222572,1,0,0:0:0:0:
256,192,222715,1,0,0:0:0:0:
256,192,222858,1,8,0:0:0:0:
256,192,223001,1,0,0:0:0:0:
256,192,223072,1,0,0:0:0:0:
256,192,223144,1,8,0:0:0:0:
250,197,223215,1,8,0:0:0:0:
256,192,223287,1,0,0:0:0:0:
256,192,223429,1,8,0:0:0:0:
256,192,223572,1,0,0:0:0:0:
256,192,223715,1,8,0:0:0:0:
256,192,223787,1,0,0:0:0:0:
256,192,223858,1,0,0:0:0:0:
250,197,223929,1,0,0:0:0:0:
256,192,224001,1,8,0:0:0:0:
250,197,224144,1,8,0:0:0:0:
256,192,224287,1,0,0:0:0:0:
256,192,224572,1,8,0:0:0:0:
256,192,224715,1,0,0:0:0:0:
256,192,224787,1,0,0:0:0:0:
256,192,224858,1,8,0:0:0:0:
256,192,225001,1,0,0:0:0:0:
256,192,225144,1,8,0:0:0:0:
256,192,225287,1,0,0:0:0:0:
256,192,225572,1,0,0:0:0:0:
256,192,225715,1,8,0:0:0:0:
256,192,225858,1,0,0:0:0:0:
256,192,225929,1,0,0:0:0:0:
256,192,226001,1,8,0:0:0:0:
256,192,226144,1,0,0:0:0:0:
256,192,226287,1,8,0:0:0:0:
250,197,226358,1,0,0:0:0:0:
256,192,226429,1,8,0:0:0:0:
256,192,226572,1,0,0:0:0:0:
256,192,226715,1,0,0:0:0:0:
256,192,226858,5,8,0:0:0:0:
256,192,227001,1,0,0:0:0:0:
250,197,227072,1,0,0:0:0:0:
256,192,227144,1,8,0:0:0:0:
256,192,227287,1,8,0:0:0:0:
256,192,227572,1,8,0:0:0:0:
256,192,227715,1,8,0:0:0:0:
250,197,227787,1,8,0:0:0:0:
256,192,227858,1,0,0:0:0:0:
256,192,228001,1,8,0:0:0:0:
256,192,228144,1,0,0:0:0:0:
256,192,228429,1,12,0:0:0:0:
256,192,228715,1,12,0:0:0:0:
256,192,229001,1,0,0:0:0:0:
256,192,229144,1,8,0:0:0:0:
256,192,229287,1,0,0:0:0:0:
250,197,229358,1,0,0:0:0:0:
256,192,229429,1,0,0:0:0:0:
256,192,229572,1,8,0:0:0:0:
256,160,229858,1,8,0:0:0:0:
256,192,230001,1,0,0:0:0:0:
250,197,230072,1,0,0:0:0:0:
241,186,230144,1,0,0:0:0:0:
256,192,230287,1,8,0:0:0:0:
256,192,230429,1,0,0:0:0:0:
256,192,230715,1,12,0:0:0:0:
256,192,231001,1,12,0:0:0:0:
254,180,231287,1,0,0:0:0:0:
254,180,231429,1,8,0:0:0:0:
250,197,231501,1,0,0:0:0:0:
254,180,231572,1,8,0:0:0:0:
256,192,231715,1,0,0:0:0:0:
256,192,231858,1,8,0:0:0:0:
256,192,232144,1,8,0:0:0:0:
254,180,232287,1,0,0:0:0:0:
256,192,232429,1,8,0:0:0:0:
250,197,232501,1,0,0:0:0:0:
256,192,232572,1,8,0:0:0:0:
256,192,232715,1,0,0:0:0:0:
256,192,233001,1,12,0:0:0:0:
256,192,233287,1,12,0:0:0:0:
256,192,233429,1,0,0:0:0:0:
256,192,233501,1,0,0:0:0:0:
256,192,233572,1,0,0:0:0:0:
256,192,233715,1,8,0:0:0:0:
256,192,233858,1,0,0:0:0:0:
256,192,233929,1,0,0:0:0:0:
256,192,234001,1,8,0:0:0:0:
256,192,234144,1,0,0:0:0:0:
256,192,234287,1,8,0:0:0:0:
256,192,234429,1,4,0:0:0:0:
256,192,234715,1,0,0:0:0:0:
256,192,234858,1,8,0:0:0:0:
256,192,235001,1,8,0:0:0:0:
256,192,235072,1,0,0:0:0:0:
256,192,235144,1,8,0:0:0:0:
250,197,235215,1,8,0:0:0:0:
256,192,235287,1,0,0:0:0:0:
250,197,235358,1,0,0:0:0:0:
256,192,235429,1,8,0:0:0:0:
256,192,235572,1,8,0:0:0:0:
245,185,235715,1,0,0:0:0:0:
256,192,235858,1,0,0:0:0:0:
256,192,236001,5,8,0:0:0:0:
256,192,236144,1,0,0:0:0:0:
264,196,236215,1,0,0:0:0:0:
264,196,236287,1,0,0:0:0:0:
256,192,236429,1,8,0:0:0:0:
256,192,236715,1,8,0:0:0:0:
256,192,236858,1,0,0:0:0:0:
264,196,236929,1,0,0:0:0:0:
256,192,237001,1,0,0:0:0:0:
256,192,237144,1,8,0:0:0:0:
256,192,237287,1,0,0:0:0:0:
256,192,237572,1,12,0:0:0:0:
256,192,237858,1,12,0:0:0:0:
256,192,238144,1,0,0:0:0:0:
256,192,238287,1,8,0:0:0:0:
256,192,238429,1,0,0:0:0:0:
264,196,238501,1,0,0:0:0:0:
256,192,238572,1,8,0:0:0:0:
256,192,238715,1,8,0:0:0:0:
256,160,239001,1,8,0:0:0:0:
256,192,239144,1,8,0:0:0:0:
264,196,239215,1,8,0:0:0:0:
256,192,239287,1,0,0:0:0:0:
256,192,239429,1,8,0:0:0:0:
256,192,239572,1,0,0:0:0:0:
256,192,239858,1,12,0:0:0:0:
256,192,240144,1,12,0:0:0:0:
256,192,240429,1,0,0:0:0:0:
256,192,240572,1,8,0:0:0:0:
251,173,240644,1,0,0:0:0:0:
256,192,240715,1,8,0:0:0:0:
256,192,240858,1,0,0:0:0:0:
256,192,241001,1,8,0:0:0:0:
256,192,241287,1,8,0:0:0:0:
256,192,241429,1,0,0:0:0:0:
256,192,241572,1,8,0:0:0:0:
255,181,241644,1,0,0:0:0:0:
256,192,241715,1,8,0:0:0:0:
256,192,241858,1,0,0:0:0:0:
256,192,242144,1,12,0:0:0:0:
256,192,242429,1,12,0:0:0:0:
256,192,242572,1,8,0:0:0:0:
256,192,242644,1,8,0:0:0:0:
256,192,242715,1,0,0:0:0:0:
256,192,242858,1,8,0:0:0:0:
256,192,243001,1,0,0:0:0:0:
256,192,243072,1,0,0:0:0:0:
256,192,243144,1,8,0:0:0:0:
256,192,243215,1,8,0:0:0:0:
256,192,243287,1,0,0:0:0:0:
256,192,243429,1,8,0:0:0:0:
256,192,243572,1,8,0:0:0:0:
256,192,243644,1,8,0:0:0:0:
256,192,243715,1,0,0:0:0:0:
256,192,243787,1,0,0:0:0:0:
256,192,243858,1,0,0:0:0:0:
256,192,244001,1,8,0:0:0:0:
256,192,244144,1,0,0:0:0:0:
256,192,244287,1,8,0:0:0:0:
256,192,244358,1,8,0:0:0:0:
256,192,244429,5,0,0:0:0:0:
256,192,244501,1,0,0:0:0:0:
256,192,244572,1,8,0:0:0:0:
256,192,244644,1,0,0:0:0:0:
256,192,244715,1,8,0:0:0:0:
256,192,244858,5,4,0:0:0:0:
256,192,245001,1,0,0:0:0:0:
256,192,245072,1,0,0:0:0:0:
256,192,245144,1,8,0:0:0:0:
256,192,245287,1,0,0:0:0:0:
256,160,245358,1,0,0:0:0:0:
256,192,245429,1,8,0:0:0:0:
256,192,245501,1,0,0:0:0:0:
256,192,245572,1,8,0:0:0:0:
256,160,245644,1,0,0:0:0:0:
256,192,245715,1,0,0:0:0:0:
256,192,245858,1,8,0:0:0:0:
256,192,246001,1,8,0:0:0:0:
256,192,246072,1,0,0:0:0:0:
256,192,246144,1,0,0:0:0:0:
256,192,246215,1,0,0:0:0:0:
256,192,246287,1,8,0:0:0:0:
256,192,246429,1,0,0:0:0:0:
256,192,246572,1,8,0:0:0:0:
256,192,246644,1,8,0:0:0:0:
256,192,246715,1,0,0:0:0:0:
256,192,246787,1,0,0:0:0:0:
256,192,246858,1,8,0:0:0:0:
256,192,246929,1,8,0:0:0:0:
256,192,247001,1,8,0:0:0:0:
256,192,247144,1,0,0:0:0:0:
256,192,247287,1,0,0:0:0:0:
256,192,247358,1,0,0:0:0:0:
256,192,247429,1,8,0:0:0:0:
256,192,247572,1,0,0:0:0:0:
256,192,247715,1,8,0:0:0:0:
256,192,247787,1,0,0:0:0:0:
256,192,247858,1,8,0:0:0:0:
256,192,247929,1,8,0:0:0:0:
256,192,248001,1,0,0:0:0:0:
256,192,248072,1,0,0:0:0:0:
256,192,248144,1,8,0:0:0:0:
256,192,248287,1,8,0:0:0:0:
256,192,248358,1,8,0:0:0:0:
256,192,248429,1,0,0:0:0:0:
256,192,248501,1,0,0:0:0:0:
256,192,248572,1,8,0:0:0:0:
256,192,248715,1,0,0:0:0:0:
256,192,248858,1,8,0:0:0:0:
256,192,249001,1,0,0:0:0:0:
256,192,249072,1,0,0:0:0:0:
256,192,249144,1,8,0:0:0:0:
256,192,249215,1,0,0:0:0:0:
256,192,249287,1,8,0:0:0:0:
256,192,249358,1,8,0:0:0:0:
256,192,249429,1,0,0:0:0:0:
256,192,249572,1,0,0:0:0:0:
256,192,249644,1,0,0:0:0:0:
256,192,249715,1,8,0:0:0:0:
256,192,249858,1,0,0:0:0:0:
256,192,250001,1,8,0:0:0:0:
256,160,250072,1,0,0:0:0:0:
256,192,250144,1,8,0:0:0:0:
256,192,250215,1,8,0:0:0:0:
256,192,250287,1,0,0:0:0:0:
256,192,250429,1,8,0:0:0:0:
256,192,250501,1,0,0:0:0:0:
256,192,250572,1,8,0:0:0:0:
256,192,250644,1,8,0:0:0:0:
256,192,250715,1,0,0:0:0:0:
256,192,250787,1,0,0:0:0:0:
256,192,250858,1,8,0:0:0:0:
256,192,251001,1,0,0:0:0:0:
256,192,251144,1,8,0:0:0:0:
256,192,251215,1,0,0:0:0:0:
256,192,251287,1,8,0:0:0:0:
256,192,251358,1,0,0:0:0:0:
256,192,251429,1,8,0:0:0:0:
256,192,251572,1,0,0:0:0:0:
256,192,251715,1,8,0:0:0:0:
256,192,251787,1,8,0:0:0:0:
256,192,251858,1,0,0:0:0:0:
256,192,251929,1,0,0:0:0:0:
256,192,252001,1,8,0:0:0:0:
256,192,252144,1,0,0:0:0:0:
256,192,252287,1,0,0:0:0:0:
256,192,252358,1,8,0:0:0:0:
256,192,252429,1,0,0:0:0:0:
256,192,252501,1,0,0:0:0:0:
256,192,252572,1,8,0:0:0:0:
256,192,252715,1,0,0:0:0:0:
256,192,252858,1,8,0:0:0:0:
256,192,252929,1,8,0:0:0:0:
256,192,253001,1,0,0:0:0:0:
256,192,253072,1,0,0:0:0:0:
256,192,253144,1,8,0:0:0:0:
256,192,253287,1,0,0:0:0:0:
256,192,253429,1,8,0:0:0:0:
256,192,253501,1,0,0:0:0:0:
256,192,253572,1,8,0:0:0:0:
256,192,253644,1,8,0:0:0:0:
256,192,253715,1,0,0:0:0:0:
256,192,253787,1,0,0:0:0:0:
256,192,253858,1,8,0:0:0:0:
256,192,254001,5,4,0:0:0:0:
256,192,254144,1,0,0:0:0:0:
256,192,254215,1,0,0:0:0:0:
256,192,254287,1,8,0:0:0:0:
256,192,254429,1,0,0:0:0:0:
256,192,254572,1,8,0:0:0:0:
256,192,254644,1,0,0:0:0:0:
256,192,254715,1,8,0:0:0:0:
256,192,254787,1,8,0:0:0:0:
256,192,254858,1,0,0:0:0:0:
256,192,254929,1,0,0:0:0:0:
256,192,255001,1,8,0:0:0:0:
256,192,255144,1,8,0:0:0:0:
256,192,255215,1,8,0:0:0:0:
256,192,255287,1,0,0:0:0:0:
256,192,255358,1,0,0:0:0:0:
256,192,255429,1,8,0:0:0:0:
256,192,255572,1,0,0:0:0:0:
256,192,255715,1,8,0:0:0:0:
256,192,255787,1,0,0:0:0:0:
256,192,255858,1,0,0:0:0:0:
256,192,255929,1,0,0:0:0:0:
256,192,256001,1,8,0:0:0:0:
256,192,256072,1,8,0:0:0:0:
256,192,256144,1,8,0:0:0:0:
256,192,256287,1,0,0:0:0:0:
256,192,256429,1,0,0:0:0:0:
256,192,256501,1,0,0:0:0:0:
256,192,256572,1,8,0:0:0:0:
256,192,256715,1,0,0:0:0:0:
256,192,256787,1,0,0:0:0:0:
256,192,256858,1,8,0:0:0:0:
256,192,256929,1,0,0:0:0:0:
256,192,257001,1,8,0:0:0:0:
256,192,257072,1,0,0:0:0:0:
256,192,257144,1,0,0:0:0:0:
256,192,257287,1,8,0:0:0:0:
256,192,257358,1,0,0:0:0:0:
256,192,257429,1,8,0:0:0:0:
256,192,257501,1,0,0:0:0:0:
256,192,257572,1,0,0:0:0:0:
256,192,257644,1,0,0:0:0:0:
256,192,257715,1,8,0:0:0:0:
256,192,257858,1,0,0:0:0:0:
256,192,258001,1,8,0:0:0:0:
256,192,258144,1,0,0:0:0:0:
256,192,258215,1,0,0:0:0:0:
256,192,258287,1,8,0:0:0:0:
256,192,258358,1,0,0:0:0:0:
256,192,258429,1,8,0:0:0:0:
256,192,258501,1,8,0:0:0:0:
256,192,258572,1,0,0:0:0:0:
256,192,258715,1,0,0:0:0:0:
256,192,258787,1,0,0:0:0:0:
256,192,258858,1,8,0:0:0:0:
256,192,259001,1,0,0:0:0:0:
256,192,259144,1,8,0:0:0:0:
256,192,259215,1,0,0:0:0:0:
256,192,259287,1,8,0:0:0:0:
256,192,259358,1,8,0:0:0:0:
256,192,259429,1,0,0:0:0:0:
256,192,259572,1,8,0:0:0:0:
256,192,259644,1,0,0:0:0:0:
256,192,259715,1,8,0:0:0:0:
256,192,259787,1,8,0:0:0:0:
256,192,259858,1,0,0:0:0:0:
256,192,259929,1,0,0:0:0:0:
256,192,260001,1,8,0:0:0:0:
256,192,260144,1,0,0:0:0:0:
256,192,260287,1,8,0:0:0:0:
256,192,260358,1,0,0:0:0:0:
256,192,260429,1,8,0:0:0:0:
256,192,260501,1,0,0:0:0:0:
256,192,260572,1,8,0:0:0:0:
256,192,260715,1,0,0:0:0:0:
256,192,260858,1,8,0:0:0:0:
256,160,260929,1,0,0:0:0:0:
256,192,261001,1,0,0:0:0:0:
256,192,261072,1,0,0:0:0:0:
256,192,261144,1,8,0:0:0:0:
256,192,261287,1,0,0:0:0:0:
256,192,261429,1,8,0:0:0:0:
256,192,261501,1,8,0:0:0:0:
256,192,261572,1,0,0:0:0:0:
256,192,261644,1,0,0:0:0:0:
256,192,261715,1,8,0:0:0:0:
256,192,261858,1,0,0:0:0:0:
256,192,262001,1,8,0:0:0:0:
256,192,262072,1,8,0:0:0:0:
256,192,262144,1,0,0:0:0:0:
256,192,262215,1,0,0:0:0:0:
256,192,262287,1,8,0:0:0:0:
256,192,262358,1,0,0:0:0:0:
256,192,262429,1,8,0:0:0:0:
256,192,262501,1,8,0:0:0:0:
256,192,262572,1,0,0:0:0:0:
256,192,262644,1,0,0:0:0:0:
256,192,262715,1,8,0:0:0:0:
256,192,262787,1,0,0:0:0:0:
256,192,262858,1,8,0:0:0:0:
256,192,262929,1,0,0:0:0:0:
256,192,263001,1,8,0:0:0:0:
256,192,263144,1,4,0:0:0:0:
256,192,263287,1,0,0:0:0:0:
256,192,263358,1,0,0:0:0:0:
256,192,263429,1,8,0:0:0:0:
256,192,263572,1,0,0:0:0:0:
256,192,263715,1,8,0:0:0:0:
256,192,263787,1,0,0:0:0:0:
256,192,263858,1,0,0:0:0:0:
256,192,264001,1,8,0:0:0:0:
256,192,264144,1,0,0:0:0:0:
256,192,264429,1,0,0:0:0:0:
256,192,264572,1,8,0:0:0:0:
256,192,264715,1,0,0:0:0:0:
256,192,264787,1,0,0:0:0:0:
256,192,264858,1,8,0:0:0:0:
256,192,264929,1,8,0:0:0:0:
256,192,265001,1,0,0:0:0:0:
256,192,265144,1,8,0:0:0:0:
256,192,265215,1,0,0:0:0:0:
256,192,265287,1,8,0:0:0:0:
256,192,265429,1,0,0:0:0:0:
256,192,265572,1,0,0:0:0:0:
256,192,265644,1,0,0:0:0:0:
256,192,265715,1,8,0:0:0:0:
256,192,265858,1,8,0:0:0:0:
256,192,265929,1,8,0:0:0:0:
256,192,266001,1,0,0:0:0:0:
256,192,266144,1,0,0:0:0:0:
256,192,266287,1,8,0:0:0:0:
256,192,266429,1,8,0:0:0:0:
256,192,266501,1,8,0:0:0:0:
256,192,266572,1,0,0:0:0:0:
256,192,266715,1,0,0:0:0:0:
256,192,266858,1,8,0:0:0:0:
256,192,267001,1,0,0:0:0:0:
256,192,267072,1,0,0:0:0:0:
256,192,267144,1,8,0:0:0:0:
256,192,267215,1,8,0:0:0:0:
256,192,267287,1,0,0:0:0:0:
256,192,267429,1,8,0:0:0:0:
256,192,267501,1,0,0:0:0:0:
256,192,267572,1,8,0:0:0:0:
256,192,267715,5,0,0:0:0:0:
256,192,267858,1,0,0:0:0:0:
256,192,267929,1,0,0:0:0:0:
256,192,268001,1,8,0:0:0:0:
256,192,268144,1,0,0:0:0:0:
256,192,268287,1,8,0:0:0:0:
256,192,268358,1,0,0:0:0:0:
256,192,268429,1,0,0:0:0:0:
256,192,268572,1,8,0:0:0:0:
256,192,268715,1,0,0:0:0:0:
256,192,269001,1,0,0:0:0:0:
256,192,269144,1,8,0:0:0:0:
256,192,269287,1,0,0:0:0:0:
256,192,269358,1,0,0:0:0:0:
256,192,269429,1,8,0:0:0:0:
256,192,269501,1,8,0:0:0:0:
256,192,269572,1,0,0:0:0:0:
256,192,269715,1,8,0:0:0:0:
256,192,269787,1,0,0:0:0:0:
256,192,269858,1,8,0:0:0:0:
256,192,270001,1,0,0:0:0:0:
256,192,270144,1,0,0:0:0:0:
256,192,270215,1,0,0:0:0:0:
256,192,270287,1,8,0:0:0:0:
256,192,270429,1,8,0:0:0:0:
256,192,270501,1,8,0:0:0:0:
256,192,270572,1,0,0:0:0:0:
256,192,270715,1,0,0:0:0:0:
256,192,270858,1,8,0:0:0:0:
256,192,271001,1,8,0:0:0:0:
256,192,271072,1,8,0:0:0:0:
256,192,271144,1,0,0:0:0:0:
256,192,271287,1,0,0:0:0:0:
256,192,271429,1,8,0:0:0:0:
256,192,271572,1,0,0:0:0:0:
256,192,271644,1,0,0:0:0:0:
256,192,271715,1,8,0:0:0:0:
256,192,271787,1,8,0:0:0:0:
256,192,271858,1,0,0:0:0:0:
256,192,271929,1,0,0:0:0:0:
256,192,272001,1,8,0:0:0:0:
256,192,272072,1,0,0:0:0:0:
256,192,272144,1,8,0:0:0:0:
256,192,272287,5,4,0:0:0:0:
256,192,272429,1,0,0:0:0:0:
256,192,272501,1,0,0:0:0:0:
256,192,272572,1,8,0:0:0:0:
256,192,272715,1,0,0:0:0:0:
256,192,272858,1,8,0:0:0:0:
256,192,272929,1,0,0:0:0:0:
256,192,273001,1,0,0:0:0:0:
256,160,273072,1,0,0:0:0:0:
256,192,273144,1,8,0:0:0:0:
256,192,273287,1,0,0:0:0:0:
256,192,273358,1,0,0:0:0:0:
256,192,273429,1,0,0:0:0:0:
256,192,273572,1,0,0:0:0:0:
256,192,273715,1,8,0:0:0:0:
256,192,273858,1,0,0:0:0:0:
256,192,273929,1,0,0:0:0:0:
256,192,274001,1,8,0:0:0:0:
256,192,274072,1,8,0:0:0:0:
256,192,274144,1,0,0:0:0:0:
256,192,274287,1,8,0:0:0:0:
256,192,274358,1,0,0:0:0:0:
256,192,274429,1,8,0:0:0:0:
256,192,274572,1,0,0:0:0:0:
256,192,274715,1,0,0:0:0:0:
256,192,274787,1,0,0:0:0:0:
256,192,274858,1,8,0:0:0:0:
256,192,274929,1,0,0:0:0:0:
256,192,275001,1,8,0:0:0:0:
256,192,275072,1,8,0:0:0:0:
256,192,275144,1,0,0:0:0:0:
256,192,275287,1,0,0:0:0:0:
256,192,275429,1,8,0:0:0:0:
256,192,275501,1,0,0:0:0:0:
256,192,275572,1,8,0:0:0:0:
256,192,275644,1,8,0:0:0:0:
256,192,275715,1,0,0:0:0:0:
256,192,275858,1,0,0:0:0:0:
256,192,276001,1,8,0:0:0:0:
256,192,276144,1,0,0:0:0:0:
256,192,276215,1,0,0:0:0:0:
256,192,276287,1,8,0:0:0:0:
256,192,276358,1,8,0:0:0:0:
256,192,276429,1,0,0:0:0:0:
256,192,276572,1,8,0:0:0:0:
256,192,276644,1,0,0:0:0:0:
256,192,276715,1,8,0:0:0:0:
256,192,276858,5,0,0:0:0:0:
256,192,277001,1,0,0:0:0:0:
256,192,277072,1,0,0:0:0:0:
256,192,277144,1,8,0:0:0:0:
256,192,277287,1,0,0:0:0:0:
256,192,277429,1,8,0:0:0:0:
256,192,277501,1,0,0:0:0:0:
256,192,277572,1,0,0:0:0:0:
256,160,277644,1,0,0:0:0:0:
256,192,277715,1,8,0:0:0:0:
256,192,277858,1,0,0:0:0:0:
256,192,277929,1,0,0:0:0:0:
256,192,278001,1,0,0:0:0:0:
256,192,278144,1,0,0:0:0:0:
256,192,278287,1,8,0:0:0:0:
256,192,278429,1,0,0:0:0:0:
256,192,278501,1,0,0:0:0:0:
256,192,278572,1,8,0:0:0:0:
256,192,278644,1,8,0:0:0:0:
256,192,278715,1,0,0:0:0:0:
256,192,278858,1,8,0:0:0:0:
256,192,278929,1,0,0:0:0:0:
256,192,279001,1,8,0:0:0:0:
256,192,279144,1,0,0:0:0:0:
256,192,279287,1,0,0:0:0:0:
256,192,279358,1,0,0:0:0:0:
256,192,279429,1,8,0:0:0:0:
256,192,279501,1,0,0:0:0:0:
256,192,279572,1,8,0:0:0:0:
256,192,279644,1,8,0:0:0:0:
256,192,279715,1,0,0:0:0:0:
256,192,279858,1,0,0:0:0:0:
256,192,280001,1,8,0:0:0:0:
256,192,280072,1,0,0:0:0:0:
256,192,280144,1,8,0:0:0:0:
256,192,280215,1,8,0:0:0:0:
256,192,280287,1,0,0:0:0:0:
256,192,280429,1,0,0:0:0:0:
256,192,280572,1,8,0:0:0:0:
256,192,280715,1,0,0:0:0:0:
256,192,280787,1,0,0:0:0:0:
256,192,280858,1,8,0:0:0:0:
256,192,280929,1,8,0:0:0:0:
256,192,281001,1,0,0:0:0:0:
256,192,281072,1,0,0:0:0:0:
256,192,281144,1,8,0:0:0:0:
256,192,281215,1,0,0:0:0:0:
256,192,281287,1,8,0:0:0:0:
256,192,284179,5,8,0:0:0:0:
256,192,284519,1,0,0:0:0:0:
256,192,284860,1,8,0:0:0:0:
256,192,285201,1,0,0:0:0:0:
256,192,285542,1,8,0:0:0:0:
256,192,285883,1,8,0:0:0:0:
256,192,286224,1,0,0:0:0:0:
248,191,286565,1,0,0:0:0:0:
248,191,286735,1,8,0:0:0:0:
256,192,286906,1,0,0:0:0:0:
256,192,287247,1,0,0:0:0:0:
256,192,287588,1,8,0:0:0:0:
248,195,287929,1,8,0:0:0:0:
248,191,288269,1,8,0:0:0:0:
256,192,288610,1,0,0:0:0:0:
248,195,288951,1,8,0:0:0:0:
248,191,289292,1,8,0:0:0:0:
248,195,289633,1,0,0:0:0:0:
248,195,289974,1,0,0:0:0:0:
256,160,290315,1,0,0:0:0:0:
256,160,290656,1,8,0:0:0:0:
256,160,291338,1,0,0:0:0:0:
256,160,291679,1,8,0:0:0:0:
256,160,292019,1,0,0:0:0:0:
256,160,292360,1,8,0:0:0:0:
248,195,292701,1,8,0:0:0:0:
248,195,293042,1,0,0:0:0:0:
256,160,293383,1,8,0:0:0:0:
256,160,293724,1,0,0:0:0:0:
248,195,294065,1,0,0:0:0:0:
256,160,294406,1,8,0:0:0:0:
256,160,294747,1,0,0:0:0:0:
256,160,295088,1,8,0:0:0:0:
256,192,295429,1,0,0:0:0:0:
256,192,295769,1,0,0:0:0:0:
248,191,296110,1,8,0:0:0:0:
248,191,296451,1,8,0:0:0:0:
256,192,296792,1,0,0:0:0:0:
256,192,297133,1,8,0:0:0:0:
256,192,297474,1,0,0:0:0:0:
248,191,297644,1,8,0:0:0:0:
248,191,297815,1,0,0:0:0:0:
256,192,298156,1,8,0:0:0:0:
256,192,298497,1,0,0:0:0:0:
248,191,298838,1,0,0:0:0:0:
248,191,299179,1,8,0:0:0:0:
256,192,299519,1,0,0:0:0:0:
256,192,299860,1,8,0:0:0:0:
248,191,300201,1,8,0:0:0:0:
256,192,300542,1,0,0:0:0:0:
248,195,300883,1,0,0:0:0:0:
256,192,301224,1,8,0:0:0:0:
252,202,301565,1,8,0:0:0:0:
256,192,301906,1,0,0:0:0:0:
248,195,302247,1,0,0:0:0:0:
248,195,302588,1,8,0:0:0:0:
256,192,302929,1,0,0:0:0:0:
248,195,303269,1,4,0:0:0:0:
256,192,303440,12,0,305997,0:0:0:0:
248,195,306125,5,0,0:0:0:0:
256,192,306210,1,0,0:0:0:0:
248,195,306295,1,8,0:0:0:0:
