osu file format v14

[General]
AudioFilename: audio.mp3
AudioLeadIn: 0
PreviewTime: 237189
Countdown: 0
SampleSet: Soft
StackLeniency: 0.7
Mode: 0
LetterboxInBreaks: 0
WidescreenStoryboard: 0

[Editor]
Bookmarks: 28189,51462,74734,98007
DistanceSpacing: 2
BeatDivisor: 4
GridSize: 4
TimelineZoom: 2.1

[Metadata]
Title:Mizu no Naka no Kumo
TitleUnicode:水の中の雲
Artist:yanaginagi
ArtistUnicode:やなぎなぎ
Creator:Hikari-
Version:Insane
Source:
Tags:
BeatmapID:1266996
BeatmapSetID:599505

[Difficulty]
HPDrainRate:5
CircleSize:4
OverallDifficulty:9
ApproachRate:8.5
SliderMultiplier:1.3
SliderTickRate:1

[Events]
//Background and Video events
0,0,"bg.jpg",0,0
//Break Periods
2,214571,216423
2,217479,219150
2,220388,221696
2,223297,224605
//Storyboard Layer 0 (Background)
//Storyboard Layer 1 (Fail)
//Storyboard Layer 2 (Pass)
//Storyboard Layer 3 (Foreground)
//Storyboard Sound Samples

[TimingPoints]
553,363.636363636364,4,2,1,70,1,0
1280,-133.333333333333,4,2,1,70,0,0
26734,-100,4,2,1,70,0,0
52553,-133.333333333333,4,2,1,40,0,0
54371,-100,4,2,1,70,0,0
55098,-133.333333333333,4,2,1,40,0,0
57189,-100,4,2,1,70,0,0
58371,-133.333333333333,4,2,1,40,0,0
60189,-100,4,2,1,70,0,0
60916,-133.333333333333,4,2,1,40,0,0
63098,-100,4,2,1,70,0,0
63553,-133.333333333333,4,2,1,40,0,0
66007,-100,4,2,1,70,0,0
66734,-133.333333333333,4,2,1,40,0,0
68825,-100,4,2,1,70,0,0
69371,-133.333333333333,4,2,1,40,0,0
71825,-100,4,2,1,70,0,0
72553,-133.333333333333,4,2,1,40,0,0
74734,-100,4,2,1,70,0,0
74734,-100,4,2,1,70,0,0
84916,-83.3333333333333,4,2,1,70,0,0
86371,-100,4,2,1,70,0,0
92189,-133.333333333333,4,2,1,70,0,0
95098,-100,4,2,1,70,0,0
98007,-100,4,2,1,70,0,1
120916,-133.333333333333,4,2,1,70,0,0
121280,-100,4,2,1,70,0,0
122007,-133.333333333333,4,2,1,40,0,0
124189,-100,4,2,1,70,0,0
124916,-133.333333333333,4,2,1,40,0,0
127007,-100,4,2,1,70,0,0
128189,-133.333333333333,4,2,1,40,0,0
130007,-100,4,2,1,70,0,0
130734,-133.333333333333,4,2,1,40,0,0
132825,-100,4,2,1,70,0,0
133643,-133.333333333333,4,2,1,40,0,0
135825,-100,4,2,1,70,0,0
136553,-133.333333333333,4,2,1,40,0,0
138643,-100,4,2,1,70,0,0
139462,-133.333333333333,4,2,1,40,0,0
141643,-100,4,2,1,70,0,0
142371,-133.333333333333,4,2,1,40,0,0
144462,-100,4,2,1,70,0,0
154734,-83.3333333333333,4,2,1,70,0,0
156189,-100,4,2,1,70,0,0
162007,-133.333333333333,4,2,1,70,0,0
164916,-100,4,2,1,70,0,0
167825,-100,4,2,1,70,0,1
190734,-133.333333333333,4,2,1,70,0,1
191098,-100,4,2,1,70,0,0
214553,-200,4,2,1,40,0,0
225280,-133.333333333333,4,2,1,70,0,0
226007,-100,4,2,1,70,0,0
237280,-200,4,2,1,20,0,0
237643,-133.333333333333,4,2,1,70,0,1
260553,-100,4,2,1,70,0,0
278462,-200,4,2,1,70,0,0

[Colours]
Combo1 : 255,128,128
Combo2 : 64,128,128
Combo3 : 0,64,128
Combo4 : 128,255,255
Combo5 : 85,170,255
Combo6 : 255,169,83

[HitObjects]
108,317,1280,6,0,P|156:310|203:336,1,97.50000371933
390,134,2007,2,0,P|379:183|348:225,1,97.50000371933,0|0,0:0|0:0,0:0:0:0:
279,171,2553,2,0,L|175:182,1,97.50000371933
100,135,3098,1,0,0:0:0:0:
356,38,4189,6,0,L|472:55,1,97.50000371933
473,252,4916,2,0,P|474:300|460:347,1,97.50000371933,0|0,0:0|0:0,0:0:0:0:
376,316,5462,2,0,L|270:330,1,97.50000371933
188,312,6007,1,0,0:0:0:0:
68,160,6734,70,0,P|96:200|100:260,1,97.50000371933
48,340,7462,1,0,0:0:0:0:
217,149,7825,6,0,L|224:42,1,97.50000371933,0|0,0:0|0:0,0:0:0:0:
294,198,8371,1,0,0:0:0:0:
294,198,8734,1,0,0:0:0:0:
131,109,8916,2,0,P|122:86|125:4,1,97.50000371933,0|0,0:0|0:0,0:0:0:0:
326,84,9462,2,0,P|377:79|433:52,1,97.50000371933
326,84,10007,69,0,0:0:0:0:
392,216,10189,1,0,0:0:0:0:
392,216,10280,1,0,0:0:0:0:
392,216,10371,2,0,L|417:175,1,48.750001859665
281,283,10734,2,0,B|238:283|210:263|210:263|183:276,1,97.50000371933
59,226,11280,2,0,L|70:324,1,97.50000371933
153,153,11825,6,0,P|173:110|150:56,1,97.50000371933
59,226,12371,1,0,0:0:0:0:
66,217,12734,1,0,0:0:0:0:
74,84,12916,2,0,P|52:74|25:70,1,48.750001859665
242,140,13280,2,0,P|273:123|308:82,1,73.1250027894975
299,66,13643,70,0,L|293:16,1,48.750001859665
370,188,14007,2,0,L|376:130,1,48.750001859665
277,236,14371,1,0,0:0:0:0:
277,236,14734,5,0,0:0:0:0:
170,195,14916,2,0,L|129:181,2,24.3750009298325
277,236,15280,1,0,0:0:0:0:
190,310,15462,2,0,P|162:322|127:326,1,48.750001859665
45,176,15825,2,0,P|35:124|37:63,1,97.50000371933
35,79,16280,1,0,0:0:0:0:
35,79,16371,1,0,0:0:0:0:
189,54,16553,70,0,L|138:81,1,48.750001859665
98,249,16916,2,0,P|104:274|118:299,1,48.750001859665
210,149,17280,1,0,0:0:0:0:
210,149,17643,5,0,0:0:0:0:
68,167,17825,1,0,0:0:0:0:
45,176,17915,1,0,0:0:0:0:
27,192,18006,1,0,0:0:0:0:
185,241,18189,1,0,0:0:0:0:
389,242,18371,2,0,B|430:238|456:211|456:211|492:226,1,97.50000371933
476,219,18825,1,0,0:0:0:0:
476,219,18916,1,0,0:0:0:0:
342,338,19098,2,0,L|281:322,1,48.750001859665
248,229,19462,70,0,P|231:166|234:120,1,97.50000371933
200,314,20007,2,0,P|165:299|122:248,1,97.50000371933
155,58,20553,1,0,0:0:0:0:
155,58,20916,1,0,0:0:0:0:
155,58,21098,2,0,L|256:44,1,97.50000371933
77,152,21643,2,0,L|137:164,1,48.750001859665
51,43,22007,5,0,0:0:0:0:
51,43,22098,1,0,0:0:0:0:
51,43,22189,1,0,0:0:0:0:
233,157,22371,2,0,P|247:178|255:218,1,48.750001859665
64,246,22734,1,0,0:0:0:0:
131,136,22916,1,0,0:0:0:0:
131,136,23280,1,0,0:0:0:0:
238,327,23462,70,0,P|282:310|347:301,1,97.50000371933
134,355,24007,1,0,0:0:0:0:
134,355,24371,1,0,0:0:0:0:
161,221,24553,2,0,L|172:282,1,48.750001859665
169,268,24825,1,0,0:0:0:0:
169,268,24916,1,0,0:0:0:0:
39,345,25098,1,0,0:0:0:0:
101,86,25280,5,0,0:0:0:0:
256,192,25371,12,0,26553,0:0:0:0:
147,77,26734,38,0,L|154:156,1,65
125,221,27007,1,0,0:0:0:0:
125,221,27098,1,0,0:0:0:0:
259,118,27280,2,0,L|222:111,1,32.5
60,62,27462,6,0,P|59:100|70:144,1,65
220,203,27825,2,0,P|223:252|192:317,1,97.5
179,324,28189,38,0,L|34:299,1,130
280,305,28734,2,0,P|272:273|253:238,1,65
170,210,29098,1,0,0:0:0:0:
78,178,29280,2,0,P|148:177|190:129,1,130
109,63,29825,2,0,L|43:53,1,65
44,53,30189,1,0,0:0:0:0:
268,68,30371,2,0,L|210:23,1,65
300,216,30734,1,0,0:0:0:0:
396,220,30916,1,0,0:0:0:0:
458,141,31098,6,0,B|486:111|479:63|479:63|451:15,1,130
373,118,31643,1,0,0:0:0:0:
455,23,31825,2,0,P|422:26|386:33,1,65
325,199,32189,1,0,0:0:0:0:
373,118,32371,1,0,0:0:0:0:
175,145,32734,1,0,0:0:0:0:
263,178,32916,2,0,L|330:200,1,65
433,340,33280,2,0,L|411:195,1,130
341,331,33825,1,0,0:0:0:0:
166,276,34007,70,0,B|123:272|66:299|66:299|32:278,1,130
166,276,34553,1,0,0:0:0:0:
92,141,34734,2,0,P|80:167|81:212,1,65
263,258,35098,1,0,0:0:0:0:
177,183,35280,2,0,P|212:170|237:83,1,130
84,34,35825,2,0,P|112:50|152:62,1,65
342,135,36189,1,0,0:0:0:0:
342,135,36553,2,0,P|371:115|393:78,1,65
240,68,36916,6,0,P|252:136|260:211,1,130
268,300,37462,1,0,0:0:0:0:
455,338,37643,2,0,P|443:305|424:278,1,65
358,353,38007,1,0,0:0:0:0:
438,196,38189,2,0,P|384:196|342:260,1,130
196,364,38734,2,0,P|185:328|163:291,1,65
80,252,39098,1,0,0:0:0:0:
71,259,39462,69,0,0:0:0:0:
146,170,39644,1,0,0:0:0:0:
148,58,39825,2,0,L|97:12,1,65
234,145,40189,2,0,P|237:179|248:226,1,65
360,348,40553,2,0,B|412:350|461:322|461:322|495:337,1,130
328,260,41098,1,0,0:0:0:0:
320,271,41462,5,0,0:0:0:0:
220,313,41643,2,0,L|139:340,1,65
251,196,42007,2,0,L|123:233,1,130
37,200,42553,1,0,0:0:0:0:
67,27,42734,2,0,P|97:44|128:77,1,65
230,43,43098,2,0,P|226:79|208:123,1,65
37,200,43462,70,0,B|72:164|72:164|108:179|167:184,1,130
294,302,44007,2,0,P|275:326|245:350,1,65
147,293,44371,1,0,0:0:0:0:
225,98,44553,2,0,P|257:136|234:213,1,130
230,221,45280,5,0,0:0:0:0:
131,174,45462,1,0,0:0:0:0:
337,101,45643,2,0,P|366:101|417:112,1,65
494,220,46007,2,0,L|501:303,1,65
392,332,46371,2,0,L|400:188,1,130
198,300,46916,70,0,P|168:282|145:258,1,65
306,277,47280,1,0,0:0:0:0:
231,197,47462,2,0,P|221:157|238:60,1,130
314,145,48007,1,0,0:0:0:0:
413,117,48189,2,0,P|444:104|482:103,1,65
411,311,48553,5,0,0:0:0:0:
405,316,48916,1,0,0:0:0:0:
399,322,49280,2,0,B|377:338|357:337|357:337|320:314|255:320,1,130
100,247,49825,2,0,P|62:254|27:279,1,65
163,351,50189,1,0,0:0:0:0:
198,175,50371,70,0,L|210:270,1,65
206,239,50643,1,0,0:0:0:0:
206,239,50734,1,0,0:0:0:0:
273,120,50916,1,0,0:0:0:0:
240,6,51098,1,0,0:0:0:0:
229,11,51462,22,0,L|224:83,1,65
288,281,51825,1,0,0:0:0:0:
288,281,52553,21,0,0:0:0:0:
366,230,52734,2,0,P|380:208|389:174,1,48.750001859665
288,281,53098,1,0,0:0:0:0:
220,209,53280,2,0,P|192:202|152:204,1,48.750001859665
68,240,53643,1,0,0:0:0:0:
57,237,54007,2,0,P|49:208|41:152,1,73.1250027894975
61,131,54371,70,0,L|135:110,1,65
256,83,54734,1,0,0:0:0:0:
256,83,55098,21,0,0:0:0:0:
297,162,55280,1,0,0:0:0:0:
387,178,55462,1,0,0:0:0:0:
321,256,55643,2,0,L|261:266,1,48.750001859665
387,178,56007,1,0,0:0:0:0:
380,334,56189,2,0,L|320:344,1,48.750001859665
162,303,56553,1,0,0:0:0:0:
162,303,56916,1,0,0:0:0:0:
162,303,57189,37,0,0:0:0:0:
162,303,57280,2,0,L|175:224,1,65
133,50,57643,1,0,0:0:0:0:
133,50,58371,21,0,0:0:0:0:
49,94,58553,2,0,P|35:122|25:161,1,48.750001859665
52,231,58916,1,0,0:0:0:0:
126,150,59098,2,0,P|129:177|142:215,1,48.750001859665
231,231,59462,1,0,0:0:0:0:
310,199,59643,1,0,0:0:0:0:
389,169,59825,1,0,0:0:0:0:
352,338,60189,54,0,L|363:261,1,65
314,112,60553,1,0,0:0:0:0:
314,112,60916,37,0,0:0:0:0:
237,146,61098,1,0,0:0:0:0:
150,119,61280,1,0,0:0:0:0:
170,218,61462,2,0,L|112:236,1,48.750001859665
66,296,61825,1,0,0:0:0:0:
74,163,62007,2,0,L|16:181,1,48.750001859665
246,355,62371,1,0,0:0:0:0:
242,264,62553,1,0,0:0:0:0:
237,172,62734,1,0,0:0:0:0:
250,159,63007,53,0,0:0:0:0:
250,159,63098,2,0,L|332:169,1,65
456,186,63462,1,0,0:0:0:0:
456,186,63825,6,0,P|462:232|464:298,1,97.50000371933
390,106,64371,1,0,0:0:0:0:
390,106,64734,1,0,0:0:0:0:
372,239,64916,2,0,P|357:267|342:287,1,48.750001859665
187,348,65280,1,0,0:0:0:0:
112,333,65462,1,0,0:0:0:0:
31,316,65643,2,0,L|23:254,1,48.750001859665
264,231,66007,54,0,L|194:250,1,65
100,196,66371,1,0,0:0:0:0:
100,196,66734,37,0,0:0:0:0:
152,127,66916,1,0,0:0:0:0:
132,42,67098,1,0,0:0:0:0:
224,64,67280,2,0,L|279:77,1,48.750001859665
152,127,67643,1,0,0:0:0:0:
236,152,67825,2,0,L|291:165,1,48.750001859665
192,271,68189,1,0,0:0:0:0:
285,304,68371,1,0,0:0:0:0:
375,333,68553,2,0,L|398:281,1,48.750001859665
412,252,68825,53,0,0:0:0:0:
412,252,68916,2,0,L|402:166,1,65
430,80,69280,1,0,0:0:0:0:
104,200,70007,5,0,0:0:0:0:
104,200,70189,2,0,P|144:232|208:232,1,97.50000371933
252,168,70734,2,0,L|260:112,1,48.750001859665
280,284,71098,1,0,0:0:0:0:
280,284,71462,1,0,0:0:0:0:
280,284,71825,54,0,L|360:268,1,65
456,288,72189,1,0,0:0:0:0:
388,132,72553,38,0,L|380:180,1,48.750001859665
388,132,72916,1,0,0:0:0:0:
276,44,73098,2,0,P|272:96|284:144,1,97.50000371933
156,96,73643,1,0,0:0:0:0:
144,120,74007,2,0,P|159:142|188:168,1,48.750001859665
200,176,74280,1,0,0:0:0:0:
200,176,74370,1,0,0:0:0:0:
56,176,74552,1,0,0:0:0:0:
204,264,74734,6,0,P|200:301|172:338,1,65
56,176,75098,2,0,L|64:112,1,65
112,260,75462,1,0,0:0:0:0:
112,260,75643,1,0,0:0:0:0:
296,216,75825,2,0,P|328:212|371:229,1,65
172,100,76189,54,0,P|180:136|199:170,1,65
192,160,76462,1,0,0:0:0:0:
192,160,76553,1,0,0:0:0:0:
320,112,76734,2,0,L|328:56,1,32.5
331,47,76916,1,0,0:0:0:0:
444,160,77098,1,0,0:0:0:0:
296,220,77280,2,0,P|282:247|280:287,1,65
404,272,77643,38,0,L|489:262,1,65
404,272,78007,1,0,0:0:0:0:
264,168,78189,2,0,L|304:234,1,65
264,168,78553,1,0,0:0:0:0:
204,284,78734,2,0,L|153:344,1,65
296,324,79098,54,0,L|344:332,1,32.5
360,336,79280,1,0,0:0:0:0:
176,208,79462,2,0,L|96:224,1,65
264,168,79825,2,0,P|270:135|267:89,1,65
270,104,80098,1,0,0:0:0:0:
270,104,80189,1,0,0:0:0:0:
336,236,80371,5,0,0:0:0:0:
336,236,80462,1,0,0:0:0:0:
336,236,80553,2,0,P|356:212|372:168,1,65
248,272,80916,2,0,L|259:353,1,65
152,236,81280,1,0,0:0:0:0:
152,236,81462,1,0,0:0:0:0:
64,156,81643,2,0,P|96:152|136:144,1,65
268,96,82007,54,0,L|264:44,1,32.5
264,32,82189,1,0,0:0:0:0:
224,180,82371,1,0,0:0:0:0:
348,128,82553,1,0,0:0:0:0:
355,103,82643,1,0,0:0:0:0:
354,77,82734,1,0,0:0:0:0:
316,228,82916,1,0,0:0:0:0:
172,276,83098,2,0,P|139:265|95:261,1,65
264,344,83462,38,0,L|332:316,1,65
416,244,83825,2,0,L|493:261,1,65
424,356,84189,1,0,0:0:0:0:
424,356,84371,1,0,0:0:0:0:
316,220,84553,2,0,P|319:187|329:156,1,65
192,68,84916,22,0,L|206:162,1,77.999997619629
220,245,85280,1,0,0:0:0:0:
379,121,85461,2,0,L|285:135,1,77.999997619629
203,145,85825,1,0,0:0:0:0:
379,121,86007,69,0,0:0:0:0:
92,184,86371,38,0,L|84:270,1,65
276,240,86734,1,0,0:0:0:0:
188,352,86916,2,0,L|176:274,1,65
204,176,87280,1,0,0:0:0:0:
368,256,87462,2,0,L|358:347,1,65
438,164,87825,6,0,L|382:144,1,32.5
380,144,88007,1,0,0:0:0:0:
456,292,88189,1,0,0:0:0:0:
288,208,88371,1,0,0:0:0:0:
255,212,88461,1,0,0:0:0:0:
227,226,88552,1,0,0:0:0:0:
192,344,88734,1,0,0:0:0:0:
72,324,88916,2,0,P|58:293|54:250,1,65
216,56,89280,54,0,L|225:132,1,65
152,224,89643,1,0,0:0:0:0:
72,144,89825,2,0,P|36:148|-4:172,1,65
152,224,90189,1,0,0:0:0:0:
268,280,90371,2,0,L|276:196,1,65
188,356,90734,38,0,L|184:316,1,32.5
180,292,90916,1,0,0:0:0:0:
352,280,91098,2,0,P|384:264|428:264,1,65
300,368,91462,1,0,0:0:0:0:
352,176,91643,1,0,0:0:0:0:
352,176,91733,1,0,0:0:0:0:
352,176,91824,1,0,0:0:0:0:
264,280,92007,1,0,0:0:0:0:
200,124,92189,54,0,B|192:88|208:52|208:52|200:16,1,97.50000371933
112,160,92734,2,0,L|94:217,1,48.750001859665
97,206,93280,1,0,0:0:0:0:
280,104,93462,1,0,0:0:0:0:
280,104,93825,1,0,0:0:0:0:
116,64,94007,2,0,L|55:90,1,48.750001859665
188,224,94371,1,0,0:0:0:0:
188,224,94734,2,0,L|244:236,1,48.750001859665
152,320,95098,6,0,L|73:343,1,65
159,130,95462,2,0,L|296:157,1,130
286,155,95916,1,0,0:0:0:0:
286,155,96007,1,0,0:0:0:0:
374,77,96189,1,0,0:0:0:0:
473,142,96371,6,0,P|480:207|470:279,1,130
472,270,96825,1,0,0:0:0:0:
472,270,96916,1,0,0:0:0:0:
400,368,97098,1,0,0:0:0:0:
266,330,97280,2,0,P|235:318|196:317,1,65
66,252,97643,2,0,P|36:271|11:300,1,65
163,226,98007,70,0,L|181:96,1,130
97,64,98553,1,0,0:0:0:0:
267,134,98734,2,0,P|286:97|244:22,1,130
248,24,99189,1,0,0:0:0:0:
248,24,99280,1,0,0:0:0:0:
365,175,99462,5,0,0:0:0:0:
447,96,99643,1,0,0:0:0:0:
267,134,99825,2,0,P|255:206|294:268,1,130
377,285,100371,2,0,L|415:266,2,32.5
242,351,100734,1,0,0:0:0:0:
46,264,100916,70,0,P|32:207|34:118,1,130
152,291,101462,1,0,0:0:0:0:
177,58,101643,2,0,P|226:70|231:150,1,130
237,140,102098,1,0,0:0:0:0:
237,140,102189,1,0,0:0:0:0:
120,194,102371,6,0,L|124:146,1,32.5
131,69,102553,1,0,0:0:0:0:
338,284,102734,2,0,P|278:287|223:226,1,130
332,120,103280,1,0,0:0:0:0:
332,120,103371,1,0,0:0:0:0:
332,120,103462,2,0,P|329:156|317:186,1,65
92,56,103825,70,0,P|154:72|225:86,1,130
332,120,104371,1,0,0:0:0:0:
436,83,104553,2,0,P|465:53|477:19,1,65
378,254,104916,1,0,0:0:0:0:
279,207,105098,6,0,P|212:226|136:275,1,130
444,344,105643,2,0,P|471:301|474:239,1,97.5
468,220,106007,1,0,0:0:0:0:
299,316,106189,1,0,0:0:0:0:
299,316,106280,1,0,0:0:0:0:
299,316,106371,1,0,0:0:0:0:
230,147,106553,1,0,0:0:0:0:
369,92,106734,70,0,L|350:235,1,130
180,350,107280,1,0,0:0:0:0:
180,350,107371,1,0,0:0:0:0:
180,350,107462,2,0,B|125:354|94:321|94:321|57:338,1,130
193,251,108007,2,0,P|193:217|188:178,1,65
32,253,108371,5,0,0:0:0:0:
277,176,108553,2,0,P|263:126|216:98,1,97.5
192,91,108916,1,0,0:0:0:0:
63,160,109098,1,0,0:0:0:0:
82,171,109189,1,0,0:0:0:0:
107,176,109280,1,0,0:0:0:0:
59,37,109462,1,0,0:0:0:0:
192,91,109643,70,0,P|252:88|324:70,1,130
428,24,110189,1,0,0:0:0:0:
319,184,110371,2,0,P|338:247|395:298,1,130
382,291,110825,1,0,0:0:0:0:
382,291,110916,1,0,0:0:0:0:
412,134,111098,6,0,L|454:116,2,32.5
227,190,111462,2,0,P|212:156|211:107,1,65
250,338,111825,2,0,B|203:349|165:317|165:317|114:340,1,130
47,369,112371,1,0,0:0:0:0:
145,229,112553,70,0,P|112:206|78:119,1,130
113,38,113098,1,0,0:0:0:0:
301,175,113280,1,0,0:0:0:0:
301,175,113643,1,0,0:0:0:0:
217,103,113825,2,0,P|215:66|225:21,1,65
301,175,114189,5,0,0:0:0:0:
405,130,114371,2,0,P|456:153|490:238,1,130
315,70,114916,1,0,0:0:0:0:
371,246,115098,2,0,P|358:280|329:300,1,65
145,208,115462,70,0,L|280:198,1,130
253,357,116007,1,0,0:0:0:0:
253,357,116098,1,0,0:0:0:0:
253,357,116189,2,0,P|243:321|241:270,1,65
272,107,116553,1,0,0:0:0:0:
149,209,116734,6,0,P|121:245|62:268,1,97.5
38,267,117098,1,0,0:0:0:0:
72,93,117280,2,0,L|202:117,1,130
199,116,117734,1,0,0:0:0:0:
199,116,117825,1,0,0:0:0:0:
330,274,118007,2,0,L|343:190,1,65
477,73,118371,70,0,B|464:108|486:146|486:146|495:178|466:202,1,130
473,195,118825,1,0,0:0:0:0:
473,195,118916,1,0,0:0:0:0:
361,356,119098,2,0,P|305:354|246:291,1,130
259,221,119553,1,0,0:0:0:0:
259,221,119643,6,0,L|274:132,1,65
336,268,120007,1,0,0:0:0:0:
166,211,120189,2,0,P|141:195|87:194,1,65
74,200,120462,1,0,0:0:0:0:
74,200,120553,1,0,0:0:0:0:
205,316,120734,1,0,0:0:0:0:
224,82,120916,38,0,L|212:9,1,73.1250027894975
212,9,121280,70,0,P|203:40|200:82,1,65
257,242,121643,1,0,0:0:0:0:
257,242,122371,21,0,0:0:0:0:
356,160,122553,2,0,P|335:154|308:152,1,48.750001859665
340,272,122916,1,0,0:0:0:0:
172,256,123098,2,0,P|144:269|117:288,1,48.750001859665
256,344,123461,1,0,0:0:0:0:
256,344,123825,1,0,0:0:0:0:
256,344,124189,70,0,L|332:356,1,65
440,324,124552,1,0,0:0:0:0:
432,144,124916,21,0,0:0:0:0:
427,239,125098,1,0,0:0:0:0:
421,334,125280,1,0,0:0:0:0:
340,180,125461,2,0,L|288:192,1,48.750001859665
316,312,125825,1,0,0:0:0:0:
192,332,126007,2,0,L|140:320,1,48.750001859665
176,172,126371,1,0,0:0:0:0:
176,172,126734,1,0,0:0:0:0:
184,164,127007,37,0,0:0:0:0:
184,164,127098,2,0,P|195:199|197:243,1,65
40,344,127461,1,0,0:0:0:0:
40,344,128189,21,0,0:0:0:0:
32,224,128371,2,0,P|44:200|68:180,1,48.750001859665
116,276,128734,1,0,0:0:0:0:
140,112,128916,2,0,P|132:84|112:48,1,48.750001859665
176,204,129280,1,0,0:0:0:0:
268,232,129461,1,0,0:0:0:0:
364,204,129643,1,0,0:0:0:0:
364,204,130007,54,0,L|448:224,1,73.1250027894975
296,136,130371,1,0,0:0:0:0:
296,136,130734,37,0,0:0:0:0:
284,232,130916,1,0,0:0:0:0:
272,328,131098,1,0,0:0:0:0:
208,168,131280,2,0,L|150:186,1,48.750001859665
364,284,131643,1,0,0:0:0:0:
392,160,131825,2,0,L|408:100,1,48.750001859665
220,32,132189,2,0,L|228:100,1,48.750001859665
248,248,132552,1,0,0:0:0:0:
252,260,132825,53,0,0:0:0:0:
252,260,132916,2,0,L|242:342,1,65
308,164,133280,1,0,0:0:0:0:
40,172,133643,6,0,L|152:196,1,97.50000371933
308,164,134189,1,0,0:0:0:0:
308,164,134552,1,0,0:0:0:0:
168,288,134734,2,0,P|140:308|108:316,1,48.750001859665
212,156,135098,1,0,0:0:0:0:
244,240,135280,1,0,0:0:0:0:
284,320,135461,2,0,L|340:328,1,48.750001859665
436,224,135825,54,0,P|432:188|424:152,1,65
376,56,136189,1,0,0:0:0:0:
72,100,136552,37,0,0:0:0:0:
152,127,136734,1,0,0:0:0:0:
136,40,136916,1,0,0:0:0:0:
108,220,137098,2,0,L|120:272,1,48.750001859665
152,127,137461,1,0,0:0:0:0:
224,204,137643,2,0,P|251:217|288:224,1,48.750001859665
256,100,138007,1,0,0:0:0:0:
360,112,138189,1,0,0:0:0:0:
456,76,138371,2,0,P|472:56|479:24,1,48.750001859665
468,20,138643,21,0,0:0:0:0:
468,20,138734,2,0,L|478:106,1,65
432,240,139098,1,0,0:0:0:0:
432,240,139462,6,0,P|396:212|336:212,1,97.50000371933
252,308,140007,2,0,L|244:188,1,97.50000371933
172,96,140553,2,0,L|160:160,1,48.750001859665
344,296,140916,1,0,0:0:0:0:
344,296,141280,1,0,0:0:0:0:
344,296,141643,54,0,P|384:296|416:328,1,73.1250027894975
168,352,142007,1,0,0:0:0:0:
168,351,142371,38,0,L|176:303,1,48.750001859665
192,208,142734,1,0,0:0:0:0:
44,264,142916,2,0,P|34:216|36:156,1,97.50000371933
192,208,143461,1,0,0:0:0:0:
212,212,143825,2,0,P|244:204|272:192,1,48.750001859665
288,184,144099,1,0,0:0:0:0:
288,184,144189,1,0,0:0:0:0:
124,128,144370,1,0,0:0:0:0:
272,288,144552,6,0,L|364:316,1,65
224,52,144916,2,0,L|216:116,1,65
156,240,145280,1,0,0:0:0:0:
156,240,145461,1,0,0:0:0:0:
400,184,145643,2,0,P|368:180|336:196,1,65
80,288,146007,6,0,P|104:320|136:336,1,65
152,340,146280,1,0,0:0:0:0:
152,340,146371,1,0,0:0:0:0:
100,164,146552,2,0,L|44:156,1,32.5
36,156,146734,1,0,0:0:0:0:
208,92,146916,1,0,0:0:0:0:
260,216,147098,2,0,P|230:237|196:248,1,65
316,72,147462,6,0,L|324:140,1,65
428,256,147825,1,0,0:0:0:0:
460,132,148007,2,0,L|400:168,1,65
344,296,148371,1,0,0:0:0:0:
248,188,148552,2,0,L|260:276,1,65
248,276,148825,1,0,0:0:0:0:
124,356,149007,53,0,0:0:0:0:
132,332,149098,1,0,0:0:0:0:
84,204,149280,2,0,L|4:220,1,65
180,120,149643,2,0,P|186:87|183:41,1,65
186,56,149916,1,0,0:0:0:0:
186,56,150007,1,0,0:0:0:0:
172,248,150189,5,0,0:0:0:0:
197,254,150280,1,0,0:0:0:0:
224,247,150371,2,0,P|255:232|307:226,1,65
412,336,150734,2,0,P|448:356|484:360,1,65
320,316,151098,1,0,0:0:0:0:
320,316,151280,1,0,0:0:0:0:
480,264,151461,2,0,L|464:184,1,65
472,172,151734,1,0,0:0:0:0:
304,112,151916,53,0,0:0:0:0:
280,120,152007,1,0,0:0:0:0:
376,200,152189,1,0,0:0:0:0:
400,96,152371,1,0,0:0:0:0:
407,71,152461,1,0,0:0:0:0:
406,45,152552,1,0,0:0:0:0:
376,200,152734,1,0,0:0:0:0:
252,128,152916,2,0,P|265:159|261:204,1,65
296,304,153280,38,0,L|235:328,1,65
64,288,153643,2,0,P|52:260|48:216,1,65
144,344,154007,1,0,0:0:0:0:
144,344,154189,1,0,0:0:0:0:
140,200,154371,2,0,P|143:167|153:136,1,65
480,208,154734,22,0,B|444:220|444:220|392:208,1,77.999997619629
312,80,155098,1,0,0:0:0:0:
332,304,155279,2,0,B|317:269|317:269|325:221,1,77.999997619629
416,120,155643,1,0,0:0:0:0:
236,200,155825,69,0,0:0:0:0:
236,200,156189,38,0,L|148:184,1,65
84,172,156552,1,0,0:0:0:0:
148,344,156734,2,0,P|176:328|200:300,1,65
236,200,157098,1,0,0:0:0:0:
91,107,157280,2,0,L|81:198,1,65
68,196,157553,1,0,0:0:0:0:
196,104,157734,5,0,0:0:0:0:
192,77,157825,1,0,0:0:0:0:
56,288,158007,1,0,0:0:0:0:
196,232,158189,1,0,0:0:0:0:
224,247,158279,1,0,0:0:0:0:
256,251,158370,1,0,0:0:0:0:
352,68,158552,1,0,0:0:0:0:
336,176,158734,2,0,P|344:212|354:237,1,65
456,356,159098,54,0,L|463:291,1,65
328,360,159461,1,0,0:0:0:0:
432,192,159643,2,0,L|440:104,1,65
328,360,160007,1,0,0:0:0:0:
256,232,160189,2,0,L|184:236,1,65
163,238,160462,1,0,0:0:0:0:
346,266,160643,21,0,0:0:0:0:
354,238,160734,1,0,0:0:0:0:
212,56,160916,2,0,P|220:88|244:124,1,65
384,132,161280,1,0,0:0:0:0:
304,16,161461,1,0,0:0:0:0:
304,16,161551,1,0,0:0:0:0:
304,16,161642,1,0,0:0:0:0:
256,212,161825,1,0,0:0:0:0:
108,184,162007,54,0,B|72:192|36:176|36:176|0:184,1,97.50000371933
12,181,162553,1,0,0:0:0:0:
176,248,162734,1,0,0:0:0:0:
176,248,163098,2,0,L|184:312,1,48.750001859665
116,88,163643,2,0,L|124:28,1,48.750001859665
122,39,164007,1,0,0:0:0:0:
284,156,164189,1,0,0:0:0:0:
284,156,164552,2,0,L|220:172,1,48.750001859665
284,336,164916,6,0,P|316:336|348:348,1,65
449,254,165280,2,0,P|470:198|476:117,1,130
477,129,165734,1,0,0:0:0:0:
477,129,165825,1,0,0:0:0:0:
352,152,166007,1,0,0:0:0:0:
272,32,166189,6,0,L|124:56,1,130
143,52,166643,1,0,0:0:0:0:
143,52,166734,1,0,0:0:0:0:
64,288,166916,1,0,0:0:0:0:
224,348,167098,2,0,P|220:316|204:280,1,65
168,216,167371,1,0,0:0:0:0:
146,201,167461,1,0,0:0:0:0:
36,196,167643,1,0,0:0:0:0:
252,44,167825,70,0,L|384:76,1,130
480,64,168371,1,0,0:0:0:0:
432,320,168553,2,0,P|395:273|401:192,1,130
413,179,169007,1,0,0:0:0:0:
413,179,169098,1,0,0:0:0:0:
224,240,169280,5,0,0:0:0:0:
280,152,169461,1,0,0:0:0:0:
168,320,169643,2,0,B|112:336|64:312|64:312|32:344,1,130
64,152,170189,2,0,L|72:112,2,32.5
224,240,170552,1,0,0:0:0:0:
320,116,170734,70,0,L|168:156,1,130
120,236,171280,1,0,0:0:0:0:
352,336,171462,2,0,L|488:360,1,130
500,344,171916,1,0,0:0:0:0:
500,344,172007,1,0,0:0:0:0:
264,224,172189,6,0,L|260:272,1,32.5
248,360,172371,1,0,0:0:0:0:
372,240,172552,2,0,P|375:180|314:125,1,130
168,280,173098,1,0,0:0:0:0:
168,280,173189,1,0,0:0:0:0:
168,280,173280,2,0,P|132:277|102:265,1,65
28,96,173643,70,0,P|54:67|144:40,1,130
308,176,174189,1,0,0:0:0:0:
360,84,174371,2,0,P|340:52|304:28,1,65
308,176,174734,1,0,0:0:0:0:
120,152,174916,6,0,P|92:208|124:292,1,130
296,288,175461,2,0,P|265:247|204:228,1,97.5
188,232,175825,1,0,0:0:0:0:
252,372,176007,1,0,0:0:0:0:
252,372,176098,1,0,0:0:0:0:
252,372,176189,1,0,0:0:0:0:
416,352,176371,1,0,0:0:0:0:
432,84,176552,70,0,L|288:44,1,130
124,52,177098,1,0,0:0:0:0:
124,52,177189,1,0,0:0:0:0:
124,52,177280,2,0,B|116:100|96:140|96:140|96:168|136:184,1,130
276,132,177825,2,0,P|240:144|212:164,1,65
408,196,178189,5,0,0:0:0:0:
304,348,178371,2,0,L|320:236,1,97.5
312,220,178734,1,0,0:0:0:0:
408,308,178916,1,0,0:0:0:0:
427,319,179007,1,0,0:0:0:0:
452,324,179098,1,0,0:0:0:0:
200,360,179280,1,0,0:0:0:0:
72,264,179461,70,0,P|56:208|48:136,1,130
80,32,180007,1,0,0:0:0:0:
208,208,180189,2,0,B|268:220|308:188|308:188|360:200,1,130
360,208,180643,1,0,0:0:0:0:
360,208,180734,1,0,0:0:0:0:
196,116,180916,6,0,L|156:108,2,32.5
408,100,181280,2,0,P|412:68|416:16,1,65
288,244,181643,2,0,P|300:308|352:360,1,130
452,344,182189,1,0,0:0:0:0:
360,172,182371,70,0,P|300:148|235:139,1,130
140,184,182916,1,0,0:0:0:0:
48,20,183098,1,0,0:0:0:0:
48,20,183461,1,0,0:0:0:0:
140,184,183643,2,0,P|142:221|132:266,1,65
76,332,184007,5,0,0:0:0:0:
16,124,184189,2,0,L|164:68,1,130
52,232,184734,1,0,0:0:0:0:
196,168,184916,2,0,L|272:200,1,65
164,368,185280,70,0,P|148:316|140:236,1,130
336,360,185825,1,0,0:0:0:0:
336,360,185916,1,0,0:0:0:0:
336,360,186007,2,0,P|308:334|280:291,1,65
368,172,186371,1,0,0:0:0:0:
164,312,186552,6,0,L|46:284,1,97.5
40,296,186916,1,0,0:0:0:0:
152,184,187098,2,0,P|212:180|278:149,1,130
291,128,187553,1,0,0:0:0:0:
291,128,187643,1,0,0:0:0:0:
48,52,187825,2,0,L|64:136,1,65
244,272,188189,70,0,P|304:280|376:304,1,130
404,296,188643,1,0,0:0:0:0:
404,296,188734,1,0,0:0:0:0:
484,108,188916,2,0,B|433:96|433:96|364:142,1,130
300,180,189372,1,0,0:0:0:0:
300,180,189462,6,0,L|228:172,1,65
328,60,189825,1,0,0:0:0:0:
208,264,190007,2,0,P|180:254|144:213,1,65
140,200,190280,1,0,0:0:0:0:
140,200,190371,1,0,0:0:0:0:
328,280,190552,1,0,0:0:0:0:
64,344,190734,6,0,L|8:364,1,48.750001859665
24,36,191098,6,0,P|48:92|24:176,1,130
35,158,191643,1,0,0:0:0:0:
172,292,191825,2,0,P|236:288|308:256,1,130
112,216,192371,1,0,0:0:0:0:
112,216,192734,1,0,0:0:0:0:
48,296,192916,2,0,L|52:368,1,65
208,192,193280,2,0,L|224:32,1,130
112,216,193825,1,0,0:0:0:0:
300,300,194007,6,0,P|353:335|417:348,1,130
336,220,194553,1,0,0:0:0:0:
200,296,194734,2,0,P|180:324|168:360,1,65
300,300,195098,1,0,0:0:0:0:
228,108,195280,1,0,0:0:0:0:
224,120,195643,1,0,0:0:0:0:
404,184,195825,2,0,P|432:140|440:52,1,130
432,28,196280,1,0,0:0:0:0:
432,28,196371,1,0,0:0:0:0:
320,220,196553,1,0,0:0:0:0:
144,280,196734,1,0,0:0:0:0:
28,104,196916,6,0,L|176:128,1,130
156,124,197462,1,0,0:0:0:0:
232,308,197643,2,0,P|192:364|116:376,1,130
88,212,198189,2,0,P|93:248|88:296,1,65
156,124,198553,1,0,0:0:0:0:
280,216,198734,2,0,P|320:268|324:344,1,130
180,220,199280,2,0,L|192:72,1,130
352,216,199825,6,0,B|416:224|456:204|456:204|492:220,2,130
264,280,200734,2,0,P|252:316|248:352,1,65
188,200,201098,2,0,P|192:136|140:80,1,130
120,288,201643,1,0,0:0:0:0:
124,304,202007,2,0,L|192:356,1,65
16,332,202371,1,0,0:0:0:0:
88,200,202553,1,0,0:0:0:0:
52,44,202734,6,0,B|96:68|96:68|188:52,1,130
252,96,203280,1,0,0:0:0:0:
400,102,203462,2,0,P|352:110|316:186,1,130
320,292,204007,2,0,P|340:260|308:172,1,130
420,312,204553,2,0,P|448:296|488:284,1,65
248,364,204916,1,0,0:0:0:0:
224,352,205280,2,0,L|152:344,1,65
192,108,205643,6,0,L|220:252,1,130
288,72,206189,1,0,0:0:0:0:
104,188,206371,2,0,P|88:164|76:120,1,65
216,235,206734,1,0,0:0:0:0:
328,168,206916,2,0,B|368:148|368:148|476:176,1,130
292,336,207462,1,0,0:0:0:0:
304,348,207825,2,0,P|328:296|296:212,1,130
240,156,208371,1,0,0:0:0:0:
52,244,208553,6,0,P|104:272|196:276,1,130
440,112,209280,2,0,L|304:124,1,130
228,168,209825,1,0,0:0:0:0:
160,96,210007,2,0,P|154:64|152:28,1,65
328,208,210371,2,0,P|316:272|248:312,1,130
328,208,210916,1,0,0:0:0:0:
168,288,211098,2,0,P|172:330|184:368,1,65
124,180,211462,6,0,P|72:156|40:76,1,130
48,56,211916,1,0,0:0:0:0:
48,56,212007,1,0,0:0:0:0:
256,84,212189,1,0,0:0:0:0:
240,100,212553,6,0,L|220:28,1,65
224,196,212916,1,0,0:0:0:0:
332,80,213098,1,0,0:0:0:0:
156,128,213280,1,0,0:0:0:0:
130,134,213370,1,0,0:0:0:0:
105,140,213461,1,0,0:0:0:0:
296,332,213643,5,0,0:0:0:0:
308,240,213825,1,0,0:0:0:0:
128,292,214007,1,0,0:0:0:0:
116,296,214189,1,0,0:0:0:0:
104,300,214371,5,0,0:0:0:0:
372,100,217098,6,0,L|374:125,2,16.25
120,316,219825,6,0,P|112:288|120:248,1,65
256,192,222371,5,0,0:0:0:0:
256,192,222734,2,0,L|256:256,1,65
84,92,225280,5,0,0:0:0:0:
176,136,225462,1,0,0:0:0:0:
176,136,225553,1,0,0:0:0:0:
176,136,225643,2,0,L|228:108,1,48.750001859665
176,136,226007,6,0,L|192:224,1,65
76,212,226371,2,0,L|92:300,1,65
160,360,226734,2,0,P|196:356|232:344,1,65
272,256,227098,2,0,P|308:260|344:272,1,65
448,316,227462,5,0,0:0:0:0:
336,368,227643,1,0,0:0:0:0:
448,316,227825,2,0,L|456:244,1,65
327,203,228189,2,0,L|335:271,1,65
400,104,228553,2,0,L|408:172,1,65
288,96,228916,6,0,P|248:89|204:88,1,65
32,60,229280,2,0,P|71:53|116:52,1,65
211,208,229643,2,0,L|224:272,1,65
108,152,230007,2,0,L|96:216,1,65
56,328,230371,6,0,P|92:328|128:320,1,65
244,356,230734,2,0,P|280:356|316:364,1,65
460,264,231098,2,0,P|439:289|424:318,1,65
292,200,231462,2,0,P|312:224|326:254,1,65
436,176,231825,6,0,P|472:160|512:128,1,65
384,32,232189,2,0,L|376:100,1,65
256,56,232553,2,0,L|250:120,1,65
132,160,232916,2,0,L|137:95,1,65
240,232,233280,6,0,L|324:252,1,65
76,296,233643,2,0,P|56:324|40:360,1,65
79,184,234007,2,0,P|111:183|144:188,1,65
213,363,234371,2,0,P|194:337|180:308,1,65
384,328,234734,6,0,L|316:344,1,65
464,220,235098,2,0,L|396:236,1,65
344,148,235462,2,0,L|276:164,1,65
400,36,235825,2,0,L|332:52,1,65
244,72,236189,5,0,0:0:0:0:
152,56,236553,1,0,0:0:0:0:
72,16,236916,1,0,0:0:0:0:
60,24,237280,6,0,P|64:44|64:64,1,32.5
96,336,237643,6,0,P|92:288|108:232,1,97.50000371933
176,168,238189,1,0,0:0:0:0:
340,192,238371,2,0,P|308:220|244:228,1,97.50000371933
184,304,238916,2,0,L|188:336,2,24.3750009298325
264,128,239280,1,0,0:0:0:0:
103,240,239462,2,0,P|75:248|43:248,1,48.750001859665
272,304,239825,1,0,0:0:0:0:
288,320,240189,2,0,L|336:328,1,48.750001859665
464,208,240553,6,0,P|472:160|472:88,1,97.50000371933
424,32,241098,1,0,0:0:0:0:
376,220,241280,2,0,P|344:240|312:248,1,48.750001859665
244,220,241643,1,0,0:0:0:0:
312,44,241825,2,0,L|304:8,2,24.3750009298325
388,132,242189,1,0,0:0:0:0:
200,64,242371,2,0,P|224:100|284:136,1,97.50000371933
268,130,242825,1,0,0:0:0:0:
268,130,242916,1,0,0:0:0:0:
120,172,243098,1,0,0:0:0:0:
36,316,243280,1,0,0:0:0:0:
288,368,243462,6,0,B|308:352|308:352|344:364|392:348,1,97.50000371933
456,272,244007,2,0,P|468:304|468:332,1,48.750001859665
372,216,244371,1,0,0:0:0:0:
472,120,244553,2,0,P|468:144|458:166,1,48.750001859665
458,166,245098,1,0,0:0:0:0:
288,152,245280,2,0,P|244:132|192:92,1,97.50000371933
184,72,245734,1,0,0:0:0:0:
184,72,245825,1,0,0:0:0:0:
200,248,246007,2,0,P|192:280|192:308,1,48.750001859665
56,200,246371,6,0,P|96:188|128:124,1,97.50000371933
96,40,246916,1,0,0:0:0:0:
96,40,247098,2,0,L|36:56,1,48.750001859665
208,92,247462,1,0,0:0:0:0:
96,284,247643,2,0,L|80:344,1,48.750001859665
56,200,248007,1,0,0:0:0:0:
332,232,248189,2,0,P|372:228|432:212,1,97.50000371933
448,188,248916,1,0,0:0:0:0:
300,136,249098,1,0,0:0:0:0:
252,300,249280,6,0,L|264:352,1,48.750001859665
320,224,249643,1,0,0:0:0:0:
152,296,249825,2,0,P|124:292|92:276,2,48.750001859665
320,224,250371,1,0,0:0:0:0:
148,40,250553,2,0,P|112:72|112:132,1,97.50000371933
212,224,251098,2,0,L|204:116,1,97.50000371933
212,104,251553,1,0,0:0:0:0:
212,104,251644,1,0,0:0:0:0:
40,220,251825,2,0,P|64:212|108:208,1,48.750001859665
268,312,252189,6,0,P|312:332|376:348,1,97.50000371933
460,320,252734,1,0,0:0:0:0:
284,208,252916,2,0,L|172:236,1,97.50000371933
396,248,253462,1,0,0:0:0:0:
396,248,253825,1,0,0:0:0:0:
388,68,254007,2,0,P|360:104|368:168,1,97.50000371933
360,154,254462,1,0,0:0:0:0:
360,154,254553,1,0,0:0:0:0:
284,28,254734,1,0,0:0:0:0:
456,136,254916,1,0,0:0:0:0:
268,168,255098,6,0,P|256:144|252:112,1,48.750001859665
284,28,255462,1,0,0:0:0:0:
156,96,255643,2,0,P|172:72|204:52,1,48.750001859665
284,28,256007,1,0,0:0:0:0:
184,212,256189,1,0,0:0:0:0:
64,132,256371,2,0,B|52:104|52:104|68:64|52:24,1,97.50000371933
68,236,256916,2,0,L|76:336,1,97.50000371933
88,344,257643,1,0,0:0:0:0:
272,288,257825,1,0,0:0:0:0:
484,312,258007,6,0,P|452:348|392:324,1,97.50000371933
388,144,258553,1,0,0:0:0:0:
388,144,258734,2,0,L|420:260,1,97.50000371933
464,80,259280,1,0,0:0:0:0:
413,237,259643,1,0,0:0:0:0:
464,80,259825,2,0,P|440:60|404:56,1,48.750001859665
344,56,260098,1,0,0:0:0:0:
344,56,260189,1,0,0:0:0:0:
276,208,260371,1,0,0:0:0:0:
428,356,260553,5,0,0:0:0:0:
436,352,260916,2,0,P|456:312|452:220,1,130
352,276,261462,1,0,0:0:0:0:
432,136,261643,1,0,0:0:0:0:
432,136,262007,1,0,0:0:0:0:
308,60,262189,2,0,B|260:52|260:52|216:60|196:112,1,130
180,196,262734,2,0,L|192:276,1,65
64,112,263098,1,0,0:0:0:0:
52,116,263462,1,0,0:0:0:0:
44,124,263825,6,0,P|52:196|88:248,1,130
208,336,264371,2,0,L|280:308,1,65
284,316,264916,1,0,0:0:0:0:
192,220,265098,2,0,P|216:204|336:200,1,130
436,264,265643,2,0,L|452:356,1,65
408,136,266007,2,0,L|428:60,1,65
314,192,266371,1,0,0:0:0:0:
204,100,266553,1,0,0:0:0:0:
48,268,266734,6,0,B|48:328|72:360|72:360|92:316,1,130
132,256,267280,1,0,0:0:0:0:
340,320,267462,1,0,0:0:0:0:
340,320,267825,1,0,0:0:0:0:
452,184,268007,2,0,L|304:224,1,130
244,284,268553,2,0,P|236:320|232:360,1,65
208,128,268916,1,0,0:0:0:0:
60,272,269098,2,0,P|124:272|164:212,1,130
104,60,269643,6,0,L|116:132,1,65
248,288,270007,2,0,P|277:306|328:312,1,65
472,288,270371,2,0,L|496:136,1,130
356,76,270916,2,0,L|368:152,1,65
400,344,271280,1,0,0:0:0:0:
364,252,271462,2,0,P|300:248|243:299,1,130
249,286,272189,2,0,L|261:374,1,65
232,152,272553,6,0,B|216:108|236:64|236:64|228:36|212:24,1,130
308,204,273098,1,0,0:0:0:0:
148,152,273280,2,0,P|104:144|36:216,1,130
116,244,273825,1,0,0:0:0:0:
116,244,274189,1,0,0:0:0:0:
260,340,274371,2,0,L|408:316,1,130
200,228,274916,1,0,0:0:0:0:
456,260,275098,2,0,P|472:228|476:192,1,65
272,88,275462,6,0,L|296:240,1,130
400,48,276007,2,0,L|392:120,1,65
400,132,276553,1,0,0:0:0:0:
280,44,276734,2,0,P|240:64|152:76,1,130
208,276,277280,2,0,L|280:328,1,65
72,156,277643,2,0,L|8:180,1,65
64,360,278007,6,0,P|104:316|116:228,1,130
116,240,279098,5,0,0:0:0:0:
116,228,279643,2,0,L|108:200,1,16.25
264,256,279825,5,0,0:0:0:0:
272,260,280371,5,0,0:0:0:0:
424,184,280916,6,0,L|492:192,1,65
