osu file format v14

[General]
AudioFilename: Mitsuba no Musubime (Sanaas remix).mp3
AudioLeadIn: 0
PreviewTime: 191013
Countdown: 0
SampleSet: Soft
StackLeniency: 0.7
Mode: 0
LetterboxInBreaks: 0
WidescreenStoryboard: 0

[Editor]
Bookmarks: 28307,63601,86189,108777,144071,166660,177954,192071,203189,214660,225954,237248
DistanceSpacing: 1.2
BeatDivisor: 4
GridSize: 4
TimelineZoom: 1.6

[Metadata]
Title:Mitsuba no Musubime(Sanaas remix)
TitleUnicode:三つ葉の結びめ(Sanaas remix)
Artist:yanaginagi
ArtistUnicode:やなぎなぎ
Creator:Sharlo
Version:iyacat's Clover
Source:凪のあすから
Tags:dnB Nagi no Asukara Zero__wind Delis iyasine alacat
BeatmapID:942418
BeatmapSetID:401523

[Difficulty]
HPDrainRate:7
CircleSize:4
OverallDifficulty:8
ApproachRate:9
SliderMultiplier:1.8
SliderTickRate:1

[Events]
//Background and Video events
0,0,"BG.jpg",0,0
//Break Periods
2,166860,177354
//Storyboard Layer 0 (Background)
//Storyboard Layer 1 (Fail)
//Storyboard Layer 2 (Pass)
//Storyboard Layer 3 (Foreground)
//Storyboard Sound Samples

[TimingPoints]
5719,352.941176470588,4,2,1,50,1,0
28130,-133.333333333333,4,2,2,50,0,0
56895,-133.333333333333,4,2,1,20,0,0
57954,-133.333333333333,4,2,1,30,0,0
59366,-133.333333333333,4,2,1,40,0,0
60071,-133.333333333333,4,2,1,50,0,0
60777,-133.333333333333,4,2,1,60,0,0
63248,-66.6666666666667,4,2,1,80,0,0
63424,-66.6666666666667,4,2,1,20,0,0
63601,-76.9230769230769,4,2,1,80,0,1
64130,-90.9090909090909,4,2,1,80,0,1
86189,-100,4,2,1,60,0,0
108777,-100,4,2,1,60,0,0
131366,-200,4,2,2,52,0,0
134366,-153.846153846153,4,2,2,52,0,0
134895,-200,4,2,2,52,0,0
136660,-133.333333333333,4,2,2,52,0,0
137013,-133.333333333333,4,2,2,52,0,0
138424,-133.333333333333,4,2,1,55,0,0
139483,-100,4,2,1,60,0,0
139836,-100,4,2,1,70,0,0
141248,-100,4,2,1,75,0,0
142660,-133.333333333333,4,2,1,40,0,0
143366,-100,4,2,1,60,0,0
143718,-66.6666666666667,4,2,1,80,0,0
143895,-66.6666666666667,4,2,1,20,0,0
144071,-100,4,2,1,80,0,1
166660,-100,4,2,1,60,0,0
177954,-200,4,2,2,50,0,0
183601,-133.333333333333,4,2,2,55,0,0
185718,-133.333333333333,4,2,1,60,0,0
186424,-100,4,2,1,70,0,0
186601,-100,4,2,1,40,0,0
187130,-100,4,2,1,50,0,0
187836,-100,4,2,1,60,0,0
189248,-100,4,2,1,70,0,0
190660,-133.333333333333,4,2,1,40,0,0
191366,-100,4,2,1,60,0,0
191718,-66.6666666666667,4,2,1,80,0,0
192071,-100,4,2,1,80,0,1
214395,-100,4,2,1,80,0,1
214660,-100,4,2,1,60,0,0
237071,-153.846153846153,4,2,1,60,0,0

[Colours]
Combo1 : 56,214,174
Combo2 : 83,217,255
Combo3 : 159,234,134
Combo4 : 72,173,255

[HitObjects]
404,200,28130,5,0,0:0:0:0:
340,132,28307,2,0,L|348:64,1,67.5000025749208,4|0,0:0|0:0,0:0:0:0:
400,228,28660,1,0,0:0:0:0:
232,308,28836,2,0,L|248:172,1,135.000005149842,2|0,0:0|0:0,0:0:0:0:
256,80,29366,1,0,0:0:0:0:
144,216,29542,1,0,0:0:0:0:
88,140,29718,2,0,L|84:72,2,67.5000025749208,2|0|0,0:0|0:0|0:0,0:0:0:0:
104,300,30248,1,2,0:0:0:0:
339,227,30424,5,2,0:0:0:0:
244,214,30601,1,0,0:0:0:0:
232,308,30777,1,2,0:0:0:0:
324,320,30954,1,2,0:0:0:0:
208,200,31130,6,0,P|172:200|140:208,1,67.5000025749208,2|0,0:0|0:0,0:0:0:0:
328,136,31483,2,0,P|295:128|261:128,1,67.5000025749208,2|0,0:0|0:0,0:0:0:0:
184,280,31836,2,0,L|192:348,1,67.5000025749208,2|0,0:0|0:0,0:0:0:0:
339,227,32189,2,0,L|347:159,2,67.5000025749208,2|0|0,0:0|0:0|0:0,0:0:0:0:
184,280,32718,2,0,P|252:288|320:304,1,135.000005149842,2|2,0:0|0:0,0:0:0:0:
472,160,33248,5,2,0:0:0:0:
404,224,33424,1,0,0:0:0:0:
312,208,33601,1,2,0:0:0:0:
220,192,33777,1,2,0:0:0:0:
316,303,33954,6,0,P|251:287|184:280,1,135.000005149842,2|0,0:0|0:0,0:0:0:0:
220,192,34483,2,0,P|152:199|87:215,1,135.000005149842,2|0,0:0|0:0,0:0:0:0:
312,208,35013,2,0,P|316:168|316:140,1,67.5000025749208
204,28,35366,2,0,P|200:68|200:96,1,67.5000025749208,2|0,0:0|0:0,0:0:0:0:
332,228,35718,2,0,P|336:188|336:160,1,67.5000025749208,0|2,0:0|0:0,0:0:0:0:
212,120,36071,5,2,0:0:0:0:
120,140,36248,1,0,0:0:0:0:
376,84,36424,1,2,0:0:0:0:
284,64,36601,1,2,0:0:0:0:
432,212,36777,6,0,P|440:176|440:144,2,67.5000025749208,2|0|0,0:0|0:0|0:0,0:0:0:0:
492,340,37307,1,2,0:0:0:0:
492,340,37660,1,2,0:0:0:0:
408,300,37836,2,0,P|344:320|276:328,1,135.000005149842
200,272,38366,1,2,0:0:0:0:
256,48,38718,1,2,0:0:0:0:
256,48,38895,2,0,L|264:116,1,67.5000025749208
140,28,39248,2,0,L|132:96,1,67.5000025749208
24,208,39601,6,0,L|16:140,2,67.5000025749208,2|0|0,0:0|0:0|0:0,0:0:0:0:
131,307,40130,2,0,P|111:243|115:175,1,135.000005149842,2|0,0:0|0:0,0:0:0:0:
172,100,40660,1,0,0:0:0:0:
322,216,40836,1,0,0:0:0:0:
246,160,41013,2,0,P|178:156|114:176,1,135.000005149842,2|0,0:0|0:0,0:0:0:0:
264,68,41542,1,2,0:0:0:0:
322,216,41718,5,2,0:0:0:0:
416,192,41895,1,0,0:0:0:0:
246,160,42071,1,2,0:0:0:0:
152,184,42248,1,2,0:0:0:0:
272,296,42424,6,0,L|340:312,1,67.5000025749208,2|0,0:0|0:0,0:0:0:0:
436,360,42777,2,0,P|428:324|424:292,1,67.5000025749208,2|0,0:0|0:0,0:0:0:0:
456,204,43130,1,2,0:0:0:0:
512,308,43307,1,0,0:0:0:0:
360,232,43483,2,0,P|371:197|384:167,2,67.5000025749208,2|0|0,0:0|0:0|0:0,0:0:0:0:
280,352,44013,1,2,0:0:0:0:
280,352,44366,1,2,0:0:0:0:
244,188,44542,5,2,0:0:0:0:
208,276,44718,1,0,0:0:0:0:
116,296,44895,1,2,0:0:0:0:
24,316,45071,1,2,0:0:0:0:
104,229,45248,6,0,L|116:296,1,67.5000025749208,2|0,0:0|0:0,0:0:0:0:
32,124,45601,2,0,L|20:190,1,67.5000025749208,2|0,0:0|0:0,0:0:0:0:
188,200,45954,2,0,P|208:136|196:68,1,135.000005149842,2|0,0:0|0:0,0:0:0:0:
304,112,46483,1,0,0:0:0:0:
304,112,46660,2,0,L|372:104,1,67.5000025749208,2|0,0:0|0:0,0:0:0:0:
400,8,47013,2,0,L|332:16,1,67.5000025749208,2|0,0:0|0:0,0:0:0:0:
352,192,47366,5,2,0:0:0:0:
459,273,47543,1,0,0:0:0:0:
447,179,47719,1,2,0:0:0:0:
368,284,47896,1,2,0:0:0:0:
256,192,48071,12,2,49483,0:0:0:0:
184,320,50013,5,0,0:0:0:0:
184,320,50189,2,0,L|256:328,1,67.5000025749208,2|0,0:0|0:0,0:0:0:0:
340,296,50542,2,0,L|412:304,1,67.5000025749208,2|0,0:0|0:0,0:0:0:0:
476,368,50895,6,0,P|456:304|468:236,1,135.000005149842,4|0,0:0|0:0,0:0:0:0:
376,212,51424,2,0,P|396:148|384:80,1,135.000005149842,2|0,0:0|0:0,0:0:0:0:
292,56,51954,2,0,P|288:89|296:122,1,67.5000025749208,2|0,0:0|0:0,0:0:0:0:
440,252,52307,6,0,L|304:236,1,135.000005149842,2|0,0:0|0:0,0:0:0:0:
224,186,52836,2,0,L|88:202,1,135.000005149842,2|0,0:0|0:0,0:0:0:0:
16,262,53366,1,2,0:0:0:0:
4,170,53542,1,0,0:0:0:0:
192,276,53718,6,0,P|256:272|328:288,1,135.000005149842,2|0,0:0|0:0,0:0:0:0:
296,196,54248,2,0,P|358:211|421:249,1,135.000005149842,2|0,0:0|0:0,0:0:0:0:
428,152,54777,2,0,P|460:168|484:188,1,67.5000025749208,2|0,0:0|0:0,0:0:0:0:
256,192,55130,12,2,56189,0:0:0:0:
304,216,56542,6,0,L|440:200,2,135.000005149842,4|2|2,0:0|0:0|0:0,0:0:0:0:
132,296,57601,2,0,L|200:304,1,67.5000025749208,2|0,0:0|0:0,0:0:0:0:
292,316,57954,5,2,0:0:0:0:
292,316,58307,1,2,0:0:0:0:
224,140,58660,1,2,0:0:0:0:
224,140,59013,1,2,0:0:0:0:
64,240,59366,5,6,0:0:0:0:
171,321,59543,1,2,0:0:0:0:
159,227,59719,1,2,0:0:0:0:
78,332,59896,1,2,0:0:0:0:
285,210,60071,5,2,0:0:0:0:
144,103,60248,1,2,0:0:0:0:
159,227,60424,1,2,0:0:0:0:
266,88,60601,1,2,0:0:0:0:
48,76,60777,5,6,0:0:0:0:
34,122,60865,1,2,0:0:0:0:
40,169,60953,1,2,0:0:0:0:
65,210,61041,1,2,0:0:0:0:
104,238,61130,1,2,0:0:0:0:
151,248,61218,1,2,0:0:0:0:
198,238,61306,1,2,0:0:0:0:
237,210,61394,1,2,0:0:0:0:
268,172,61483,5,2,0:0:0:0:
307,144,61571,1,2,0:0:0:0:
353,134,61660,1,2,0:0:0:0:
400,144,61748,1,2,0:0:0:0:
439,172,61836,1,2,0:0:0:0:
464,213,61924,1,2,0:0:0:0:
470,260,62013,1,2,0:0:0:0:
457,306,62100,1,2,0:0:0:0:
428,344,62189,6,0,L|292:336,1,135.000005149842,4|0,0:0|0:0,0:0:0:0:
36,248,62895,2,0,L|44:280,1,33.7500012874604
212,228,63071,2,0,L|204:196,1,33.7500012874604
92,104,63248,6,0,L|124:236,1,135.000005149842,8|0,0:1|0:0,0:0:0:0:
295,353,63601,5,6,0:0:0:0:
379,269,63777,1,0,0:0:0:0:
212,228,63954,1,8,0:0:0:0:
376,133,64130,2,0,L|279:159,1,99.0000030212403
288,47,64483,1,2,0:0:0:0:
464,172,64660,2,0,P|482:126|480:76,1,99.0000030212403,8|0,0:0|0:0,0:0:0:0:
467,38,64924,5,0,0:0:0:0:
467,38,65013,2,0,L|365:60,1,99.0000030212403,2|0,0:0|0:0,0:0:0:0:
199,132,65366,2,0,L|297:152,1,99.0000030212403,8|0,0:0|0:0,0:0:0:0:
464,172,65718,2,0,L|481:233,2,49.5000015106202,0|0|2,0:0|0:0|0:0,0:0:0:0:
259,276,66071,2,0,P|306:272|353:241,1,99.0000030212403,8|0,0:0|0:0,0:0:0:0:
372,214,66336,1,0,0:0:0:0:
372,214,66424,1,2,0:0:0:0:
175,245,66601,5,0,0:0:0:0:
143,369,66777,1,8,0:0:0:0:
259,276,66954,1,0,0:0:0:0:
259,276,67042,1,0,0:0:0:0:
259,276,67130,1,0,0:0:0:0:
141,105,67307,1,2,0:0:0:0:
76,204,67483,1,8,0:0:0:0:
254,144,67660,6,0,P|242:96|188:11,1,148.50000453186
189,12,68013,1,0,0:0:0:0:
125,109,68189,1,8,0:0:0:0:
261,60,68366,2,0,L|311:72,1,49.5000015106202
374,141,68542,2,0,L|432:125,1,49.5000015106202
512,97,68718,1,2,0:0:0:0:
512,97,68807,1,2,0:0:0:0:
512,97,68895,1,8,0:0:0:0:
490,222,69071,1,0,0:0:0:0:
374,141,69248,5,2,0:0:0:0:
374,141,69601,2,0,L|394:238,1,99.0000030212403,8|0,0:0|0:0,0:0:0:0:
311,317,69954,2,0,P|273:345|219:359,1,99.0000030212403,0|2,0:0|0:0,0:0:0:0:
194,361,70218,1,0,0:0:0:0:
194,361,70307,2,0,P|142:342|89:333,1,99.0000030212403,8|0,0:0|0:0,0:0:0:0:
26,256,70660,1,2,0:0:0:0:
221,191,70836,6,0,P|272:174|317:153,2,99.0000030212403,0|8|0,0:0|0:0|0:0,0:0:0:0:
136,212,71366,1,0,0:0:0:0:
49,140,71542,1,2,0:0:0:0:
157,35,71718,1,8,0:0:0:0:
304,84,71895,5,0,0:0:0:0:
304,84,71983,1,0,0:0:0:0:
304,84,72071,2,0,L|242:104,1,49.5000015106202,2|0,0:0|0:0,0:0:0:0:
350,207,72248,2,0,L|367:160,1,49.5000015106202
221,191,72424,1,8,0:0:0:0:
221,191,72601,2,0,L|261:229,1,49.5000015106202
340,300,72777,2,0,P|390:289|431:262,2,99.0000030212403,0|2|8,0:0|0:0|0:0,0:0:0:0:
227,350,73307,6,0,P|191:337|127:328,1,99.0000030212403,0|2,0:0|0:0,0:0:0:0:
131,328,73571,1,0,0:0:0:0:
131,328,73660,1,0,0:0:0:0:
350,207,73836,2,0,P|387:175|411:128,1,99.0000030212403,8|0,0:0|0:0,0:0:0:0:
359,19,74189,1,0,0:0:0:0:
430,170,74366,2,0,L|456:227,1,49.5000015106202,2|2,0:0|0:0,0:0:0:0:
388,97,74542,1,8,0:0:0:0:
465,71,74718,2,0,L|511:53,1,49.5000015106202,2|2,0:0|0:0,0:0:0:0:
312,129,74895,6,0,L|216:166,1,99.0000030212403,6|0,0:0|0:0,0:0:0:0:
102,162,75248,1,8,0:0:0:0:
184,271,75424,1,0,0:0:0:0:
17,125,75601,2,0,P|47:88|99:71,1,99.0000030212403,0|2,0:0|0:0,0:0:0:0:
302,214,75954,2,0,P|263:252|215:267,1,99.0000030212403,8|0,0:0|0:0,0:0:0:0:
184,271,76218,5,0,0:0:0:0:
184,271,76307,2,0,L|84:254,1,99.0000030212403,2|0,0:0|0:0,0:0:0:0:
208,167,76660,1,8,0:0:0:0:
288,321,76836,1,0,0:0:0:0:
288,321,76924,1,0,0:0:0:0:
288,321,77013,2,0,L|313:374,1,49.5000015106202
387,259,77189,2,0,P|353:230|297:213,1,99.0000030212403,2|8,0:0|0:0,0:0:0:0:
476,151,77542,2,0,L|425:164,1,49.5000015106202
359,114,77718,6,0,P|336:66|338:19,1,99.0000030212403,2|0,0:0|0:0,0:0:0:0:
429,44,78071,1,8,0:0:0:0:
254,86,78248,1,0,0:0:0:0:
254,86,78336,1,0,0:0:0:0:
254,86,78424,2,0,L|157:111,1,99.0000030212403,0|2,0:0|0:0,0:0:0:0:
0,213,78777,1,8,0:0:0:0:
118,291,78954,2,0,P|168:296|219:267,1,99.0000030212403,0|2,0:0|0:0,0:0:0:0:
148,196,79307,5,0,0:0:0:0:
148,196,79395,1,0,0:0:0:0:
148,196,79483,1,8,0:0:0:0:
217,363,79660,1,0,0:0:0:0:
171,94,79836,2,0,P|117:102|76:132,1,99.0000030212403,0|2,0:0|0:0,0:0:0:0:
59,149,80101,2,0,L|40:207,1,49.5000015106202,2|8,0:0|0:0,0:0:0:0:
299,311,80366,1,2,0:0:0:0:
299,311,80542,6,0,P|281:271|239:237,1,99.0000030212403,2|0,0:0|0:0,0:0:0:0:
148,196,80895,1,8,0:0:0:0:
299,109,81071,1,0,0:0:0:0:
299,109,81160,1,0,0:0:0:0:
299,109,81248,1,0,0:0:0:0:
230,31,81424,1,2,0:0:0:0:
271,203,81601,1,8,0:0:0:0:
414,83,81777,1,0,0:0:0:0:
299,109,81954,6,0,L|234:129,2,49.5000015106202,2|0|0,0:0|0:0|0:0,0:0:0:0:
157,278,82307,1,8,0:0:0:0:
291,339,82483,2,0,P|337:356|386:358,1,99.0000030212403
179,184,82836,1,2,0:0:0:0:
179,184,82924,1,0,0:0:0:0:
179,184,83013,2,0,P|103:203|69:229,1,99.0000030212403,8|0,0:0|0:0,0:0:0:0:
6,283,83366,5,6,0:0:0:0:
291,339,83718,1,2,0:0:0:0:
6,283,84071,1,2,0:0:0:0:
291,339,84424,1,2,0:0:0:0:
0,193,84777,5,2,0:0:0:0:
82,333,84954,1,2,0:0:0:0:
179,184,85130,1,2,0:0:0:0:
6,283,85307,1,2,0:0:0:0:
112,123,85483,1,2,0:0:0:0:
90,110,85571,1,2,0:0:0:0:
68,96,85660,1,2,0:0:0:0:
46,83,85748,1,2,0:0:0:0:
24,70,85836,6,0,L|73:55,1,49.5000015106202
228,191,86013,2,0,L|178:183,1,49.5000015106202
232,60,86189,6,0,P|276:68|316:88,1,90,6|0,0:0|0:0,0:0:0:0:
245,278,86542,2,0,P|230:235|228:191,1,90,8|0,0:0|0:0,0:0:0:0:
476,108,86895,1,0,0:0:0:0:
408,180,87071,2,0,L|316:172,1,90,0|8,0:0|0:0,0:0:0:0:
6,283,87424,6,0,B|52:272|94:287|94:287|128:256|180:252,1,180
336,352,87954,1,8,0:0:0:0:
176,352,88130,1,0,0:0:0:0:
304,176,88307,2,0,L|320:264,1,90,0|2,0:0|0:0,0:0:0:0:
172,116,88660,2,0,L|188:28,1,90,8|0,0:0|0:0,0:0:0:0:
390,155,89013,6,0,P|348:171|304:176,1,90,2|0,0:0|0:0,0:0:0:0:
172,116,89366,2,0,P|127:120|85:136,1,90,8|0,0:0|0:0,0:0:0:0:
12,316,89718,1,0,0:0:0:0:
184,248,89895,1,2,0:0:0:0:
28,192,90071,1,8,0:0:0:0:
232,340,90248,6,0,L|212:160,1,180
340,28,90777,2,0,P|328:76|328:120,1,90,8|0,0:0|0:0,0:0:0:0:
476,312,91130,1,0,0:0:0:0:
292,192,91307,1,2,0:0:0:0:
292,192,91395,1,2,0:0:0:0:
292,192,91483,1,8,0:0:0:0:
432,84,91660,1,2,0:0:0:0:
332,284,91836,6,0,L|240:272,1,90,2|0,0:0|0:0,0:0:0:0:
400,176,92189,2,0,L|492:164,1,90,8|0,0:0|0:0,0:0:0:0:
256,36,92542,1,0,0:0:0:0:
184,188,92718,2,0,P|175:144|184:100,1,90,2|8,0:0|0:0,0:0:0:0:
272,240,93071,6,0,L|92:216,1,180
352,288,93601,2,0,P|360:243|352:199,1,90,8|0,0:0|0:0,0:0:0:0:
280,132,93954,1,0,0:0:0:0:
232,252,94130,1,2,0:0:0:0:
160,96,94307,1,8,0:0:0:0:
352,288,94483,1,0,0:0:0:0:
132,336,94660,6,0,P|88:328|40:324,1,90,2|0,0:0|0:0,0:0:0:0:
232,252,95013,2,0,P|276:244|324:240,1,90,8|0,0:0|0:0,0:0:0:0:
92,180,95366,1,0,0:0:0:0:
92,180,95542,2,0,P|48:172|0:168,1,90,2|8,0:0|0:0,0:0:0:0:
232,252,95895,6,0,B|260:196|232:128|232:128|276:156,1,180
480,224,96424,1,8,0:0:0:0:
480,224,96601,2,0,L|404:176,1,90
308,300,96954,1,2,0:0:0:0:
308,300,97042,1,2,0:0:0:0:
308,300,97130,2,0,L|232:252,1,90,8|2,0:0|0:0,0:0:0:0:
263,67,97483,6,0,P|275:111|275:159,1,90,6|0,0:0|0:0,0:0:0:0:
156,308,97836,2,0,P|144:264|144:216,1,90,8|0,0:0|0:0,0:0:0:0:
168,88,98189,1,0,0:0:0:0:
296,176,98366,1,2,0:0:0:0:
84,144,98542,1,8,0:0:0:0:
224,256,98718,6,0,B|270:245|312:260|312:260|346:229|398:225,1,180
272,340,99248,2,0,P|228:340|184:352,1,90,8|0,0:0|0:0,0:0:0:0:
20,256,99601,1,0,0:0:0:0:
152,192,99777,1,2,0:0:0:0:
68,364,99954,1,8,0:0:0:0:
140,164,100130,1,0,0:0:0:0:
256,288,100307,6,0,L|348:276,1,90,2|0,0:0|0:0,0:0:0:0:
128,132,100660,2,0,L|36:144,1,90,8|0,0:0|0:0,0:0:0:0:
108,280,101013,1,0,0:0:0:0:
256,152,101189,1,2,0:0:0:0:
320,364,101366,1,8,0:0:0:0:
488,228,101542,6,0,B|508:164|472:100|472:100|456:148,1,180
344,328,102071,2,0,P|352:284|348:240,1,90,8|0,0:0|0:0,0:0:0:0:
108,280,102424,1,0,0:0:0:0:
220,124,102601,1,2,0:0:0:0:
220,124,102689,1,2,0:0:0:0:
220,124,102777,1,8,0:0:0:0:
320,364,102954,1,2,0:0:0:0:
18,272,103130,6,0,L|108:280,1,90,2|0,0:0|0:0,0:0:0:0:
344,328,103483,2,0,L|254:335,1,90,8|0,0:0|0:0,0:0:0:0:
72,192,103836,1,0,0:0:0:0:
72,192,104013,2,0,L|161:184,1,90,2|8,0:0|0:0,0:0:0:0:
376,248,104366,6,0,P|320:192|308:96,1,180
356,8,104895,1,8,0:0:0:0:
208,104,105071,1,0,0:0:0:0:
460,128,105248,2,0,P|464:80|452:36,1,90,0|2,0:0|0:0,0:0:0:0:
244,36,105601,2,0,L|156:52,1,90,8|0,0:0|0:0,0:0:0:0:
28,224,105954,5,6,0:0:0:0:
28,224,106307,1,2,0:0:0:0:
484,160,106660,1,2,0:0:0:0:
484,160,107013,1,2,0:0:0:0:
148,312,107366,5,6,0:0:0:0:
344,260,107542,1,2,0:0:0:0:
168,124,107718,1,2,0:0:0:0:
364,72,107894,1,2,0:0:0:0:
228,240,108071,5,2,0:0:0:0:
184,252,108160,1,2,0:0:0:0:
140,252,108248,1,2,0:0:0:0:
100,236,108336,1,2,0:0:0:0:
68,204,108424,2,0,L|72:160,1,45,8|8,0:0|0:0,0:0:0:0:
144,44,108601,1,2,0:0:0:0:
321,175,108777,6,0,P|343:221|342:267,1,90,6|0,0:0|0:0,0:0:0:0:
168,124,109130,1,8,0:0:0:0:
236,50,109307,2,0,P|304:44|368:76,1,135
391,82,109660,2,0,L|479:67,1,90,2|8,0:0|0:0,0:0:0:0:
321,175,110013,5,0,0:0:0:0:
321,175,110101,1,0,0:0:0:0:
321,175,110189,1,2,0:0:0:0:
406,312,110366,1,0,0:0:0:0:
472,234,110542,1,8,0:0:0:0:
235,204,110718,2,0,L|322:174,1,90
391,82,111071,1,2,0:0:0:0:
239,296,111248,2,0,P|197:275|141:274,1,90,8|0,0:0|0:0,0:0:0:0:
124,274,111513,5,0,0:0:0:0:
124,274,111601,2,0,L|24:290,1,90,2|0,0:0|0:0,0:0:0:0:
195,127,111954,2,0,P|230:92|258:57,1,90,8|0,0:0|0:0,0:0:0:0:
46,202,112307,2,0,L|3:184,2,45,0|0|2,0:0|0:0|0:0,0:0:0:0:
239,296,112660,1,8,0:0:0:0:
321,214,112836,5,0,0:0:0:0:
321,214,112924,1,0,0:0:0:0:
321,214,113013,2,0,P|352:156|380:69,1,135,2|0,0:0|0:0,0:0:0:0:
402,103,113366,2,0,L|369:4,1,90,8|0,0:0|0:0,0:0:0:0:
288,87,113718,1,0,0:0:0:0:
444,197,113895,1,2,0:0:0:0:
444,197,113983,1,2,0:0:0:0:
444,197,114071,1,8,0:0:0:0:
384,294,114248,1,2,0:0:0:0:
231,201,114424,6,0,L|320:213,1,90,2|0,0:0|0:0,0:0:0:0:
444,197,114777,1,8,0:0:0:0:
288,87,114954,2,0,P|219:64|149:82,1,135
138,95,115307,2,0,L|106:190,1,90,2|8,0:0|0:0,0:0:0:0:
5,277,115660,5,0,0:0:0:0:
5,277,115748,1,0,0:0:0:0:
5,277,115836,1,2,0:0:0:0:
147,324,116013,1,0,0:0:0:0:
109,180,116189,1,8,0:0:0:0:
5,277,116366,2,0,L|105:253,1,90
354,326,116718,1,2,0:0:0:0:
260,361,116895,2,0,P|202:359|166:336,1,90,8|0,0:0|0:0,0:0:0:0:
147,324,117160,1,0,0:0:0:0:
147,324,117248,1,2,0:0:0:0:
147,324,117601,5,8,0:0:0:0:
93,222,117777,2,0,L|113:167,1,45
205,154,117954,2,0,L|189:101,1,45
165,15,118130,1,2,0:0:0:0:
165,15,118307,1,8,0:0:0:0:
271,68,118483,2,0,L|304:29,1,45
108,119,118660,6,0,P|65:112|18:96,1,90,2|0,0:0|0:0,0:0:0:0:
21,97,119013,1,8,0:0:0:0:
188,245,119189,2,0,L|281:220,1,90
406,362,119542,2,0,L|361:347,1,45,2|2,0:0|0:0,0:0:0:0:
265,313,119718,1,8,0:0:0:0:
205,154,119895,1,2,0:0:0:0:
405,249,120071,6,0,P|332:242|266:216,1,135,6|0,0:0|0:0,0:0:0:0:
274,220,120424,1,8,0:0:0:0:
145,342,120601,1,0,0:0:0:0:
265,313,120777,1,0,0:0:0:0:
265,313,120866,1,0,0:0:0:0:
265,313,120954,1,2,0:0:0:0:
46,232,121130,1,8,0:0:0:0:
46,232,121307,2,0,L|63:281,1,45
157,315,121483,6,0,P|180:265|201:186,1,135,2|0,0:0|0:0,0:0:0:0:
205,154,121836,1,8,0:0:0:0:
174,39,122013,1,0,0:0:0:0:
174,39,122101,1,0,0:0:0:0:
174,39,122189,1,0,0:0:0:0:
103,121,122366,1,2,0:0:0:0:
276,72,122542,1,8,0:0:0:0:
429,164,122718,5,0,0:0:0:0:
429,164,122807,1,0,0:0:0:0:
429,164,122895,2,0,P|458:210|457:258,1,90,2|0,0:0|0:0,0:0:0:0:
231,372,123248,2,0,P|202:326|203:278,1,90,8|0,0:0|0:0,0:0:0:0:
210,260,123513,1,0,0:0:0:0:
210,260,123601,2,0,L|229:209,2,45,0|0|2,0:0|0:0|0:0,0:0:0:0:
117,339,123954,1,8,0:0:0:0:
319,292,124130,5,0,0:0:0:0:
319,292,124218,1,0,0:0:0:0:
319,292,124307,2,0,L|419:303,2,90,2|0|8,0:0|0:0|0:0,0:0:0:0:
109,173,124836,1,0,0:0:0:0:
144,180,124924,1,0,0:0:0:0:
173,201,125013,1,0,0:0:0:0:
196,228,125101,1,0,0:0:0:0:
210,260,125189,2,0,L|227:321,2,45,2|2|8,0:0|0:0|0:0,0:0:0:0:
24,288,125542,2,0,P|77:271|114:253,1,90,2|2,0:0|0:0,0:0:0:0:
243,141,125895,5,0,0:0:0:0:
148,49,126071,1,8,0:0:0:0:
109,173,126248,1,0,0:0:0:0:
272,148,126424,2,0,L|364:165,1,90,0|2,0:0|0:0,0:0:0:0:
478,326,126777,2,0,L|451:228,1,90,8|0,0:0|0:0,0:0:0:0:
447,209,127042,5,0,0:0:0:0:
447,209,127130,1,2,0:0:0:0:
303,264,127307,1,0,0:0:0:0:
376,334,127483,1,8,0:0:0:0:
474,125,127660,1,0,0:0:0:0:
303,264,127836,2,0,L|267:290,2,45,0|0|2,0:0|0:0|0:0,0:0:0:0:
474,125,128189,2,0,P|463:78|430:37,1,90,8|0,0:0|0:0,0:0:0:0:
413,25,128454,5,0,0:0:0:0:
413,25,128542,1,6,0:0:0:0:
327,42,128895,1,2,0:0:0:0:
240,60,129248,1,2,0:0:0:0:
152,79,129601,1,2,0:0:0:0:
65,99,129954,5,2,0:0:0:0:
110,309,130130,1,2,0:0:0:0:
230,180,130307,1,2,0:0:0:0:
22,244,130483,1,2,0:0:0:0:
207,346,130660,1,2,0:0:0:0:
249,359,130748,1,2,0:0:0:0:
293,357,130836,1,2,0:0:0:0:
335,341,130924,1,2,0:0:0:0:
366,308,131013,5,8,0:0:0:0:
362,290,131101,1,2,0:0:0:0:
356,272,131189,1,2,0:0:0:0:
351,254,131277,1,2,0:0:0:0:
346,237,131366,1,6,0:0:0:0:
361,211,131718,5,2,0:0:0:0:
437,145,131895,2,0,L|394:126,1,45,2|0,0:0|0:0,0:0:0:0:
485,47,132248,2,0,L|437:52,1,45,2|2,0:0|0:0,0:0:0:0:
214,99,132601,2,0,P|241:131|285:152,1,90,2|2,0:0|0:0,0:0:0:0:
302,152,133042,5,2,0:0:0:0:
302,152,133130,1,2,0:0:0:0:
366,82,133307,1,0,0:0:0:0:
146,41,133483,2,0,L|111:89,1,45,2|0,0:0|0:0,0:0:0:0:
44,106,133836,1,2,0:0:0:0:
146,164,134013,2,0,L|164:191,2,22.5,2|0|2,0:0|0:0|0:0,0:0:0:0:
46,286,134366,6,0,P|102:290|158:252,1,116.999994644165,2|2,0:0|0:0,0:0:0:0:
297,310,134895,2,0,L|198:338,1,90,2|2,0:0|0:0,0:0:0:0:
98,273,135424,5,2,0:0:0:0:
98,273,135513,1,2,0:0:0:0:
98,273,135601,1,2,0:0:0:0:
259,166,135777,1,2,0:0:0:0:
259,166,136130,2,0,L|273:135,1,22.5
344,104,136307,2,0,L|334:56,1,45,2|0,0:0|0:0,0:0:0:0:
487,225,136660,2,2,P|438:224|387:207,1,101.250003862381,2|0,0:0|0:0,0:0:0:0:
363,196,137013,6,0,P|337:216|313:248,1,67.5000025749208,2|2,0:0|0:0,0:0:0:0:
193,347,137366,2,0,P|230:335|261:310,1,67.5000025749208,0|2,0:0|0:0,0:0:0:0:
137,218,137718,2,0,P|132:251|120:283,1,67.5000025749208,0|2,0:0|0:0,0:0:0:0:
20,253,138071,2,0,P|16:210|7:184,1,67.5000025749208,0|2,0:0|0:0,0:0:0:0:
16,149,138336,5,2,0:0:0:0:
16,149,138424,2,0,P|59:125|105:121,1,67.5000025749208,2|0,0:0|0:0,0:0:0:0:
102,118,138689,2,0,L|114:70,1,33.7500012874604,0|2,0:0|0:0,0:0:0:0:
223,50,138954,2,0,L|189:83,1,33.7500012874604
280,145,139130,1,2,0:0:0:0:
280,145,139307,2,0,L|232:162,1,33.7500012874604
280,262,139483,2,0,L|192:242,1,90,2|0,0:0|0:0,0:0:0:0:
160,234,139748,1,0,0:0:0:0:
160,234,139836,5,6,0:0:0:0:
359,196,140013,1,2,0:0:0:0:
81,281,140189,1,2,0:0:0:0:
243,335,140366,1,2,0:0:0:0:
12,217,140542,1,2,0:0:0:0:
79,375,140718,1,2,0:0:0:0:
91,163,140895,1,2,0:0:0:0:
0,329,141071,1,2,0:0:0:0:
160,234,141248,5,2,0:0:0:0:
206,216,141336,1,2,0:0:0:0:
254,225,141424,1,2,0:0:0:0:
288,260,141513,1,2,0:0:0:0:
319,297,141601,1,2,0:0:0:0:
366,315,141689,1,2,0:0:0:0:
415,312,141777,1,2,0:0:0:0:
460,292,141866,1,2,0:0:0:0:
488,251,141954,5,2,0:0:0:0:
498,202,142042,1,2,0:0:0:0:
484,154,142130,1,2,0:0:0:0:
449,118,142218,1,2,0:0:0:0:
402,101,142307,1,2,0:0:0:0:
353,109,142395,1,2,0:0:0:0:
311,135,142483,1,2,0:0:0:0:
286,178,142571,1,2,0:0:0:0:
274,226,142660,6,0,P|235:255|154:226,1,135.000005149842,4|0,0:0|0:0,0:0:0:0:
142,215,143366,2,0,L|119:173,1,45
98,45,143542,2,0,L|89:97,1,45
0,161,143718,6,0,L|135:125,1,135.000005149842,8|0,0:1|0:0,0:0:0:0:
392,152,144071,5,6,0:0:0:0:
236,100,144248,1,0,0:0:0:0:
412,80,144424,1,8,0:0:0:0:
216,176,144601,1,0,0:0:0:0:
468,132,144777,1,0,0:0:0:0:
196,248,144954,1,2,0:0:0:0:
440,300,145130,2,0,P|452:256|452:212,1,90,8|0,0:0|0:0,0:0:0:0:
392,152,145395,5,0,0:0:0:0:
392,152,145483,2,0,L|300:164,1,90,2|0,0:0|0:0,0:0:0:0:
106,236,145836,2,0,L|196:248,1,90,8|0,0:0|0:0,0:0:0:0:
128,88,146189,2,0,L|84:92,1,45
192,156,146366,2,0,P|216:116|220:72,1,90,2|8,0:0|0:0,0:0:0:0:
20,168,146718,5,0,0:0:0:0:
20,168,146807,1,0,0:0:0:0:
20,168,146895,1,2,0:0:0:0:
60,356,147071,1,0,0:0:0:0:
106,236,147248,1,8,0:0:0:0:
268,340,147424,1,0,0:0:0:0:
224,352,147513,1,0,0:0:0:0:
180,344,147601,1,0,0:0:0:0:
144,316,147689,1,0,0:0:0:0:
120,280,147777,1,2,0:0:0:0:
340,192,147954,1,8,0:0:0:0:
460,304,148130,5,0,0:0:0:0:
464,320,148218,1,0,0:0:0:0:
468,336,148307,2,0,L|376:324,1,90,2|0,0:0|0:0,0:0:0:0:
256,140,148660,1,8,0:0:0:0:
428,176,148836,2,0,L|340:192,1,90
106,236,149189,1,2,0:0:0:0:
130,240,149277,1,2,0:0:0:0:
154,244,149366,1,8,0:0:0:0:
340,100,149542,1,2,0:0:0:0:
116,32,149718,6,0,L|132:124,1,90,2|0,0:0|0:0,0:0:0:0:
260,256,150071,1,8,0:0:0:0:
52,372,150248,1,0,0:0:0:0:
48,349,150336,1,0,0:0:0:0:
44,326,150424,1,0,0:0:0:0:
41,303,150513,1,0,0:0:0:0:
36,280,150601,1,2,0:0:0:0:
144,180,150777,1,8,0:0:0:0:
208,340,150954,1,0,0:0:0:0:
36,172,151130,5,2,0:0:0:0:
192,96,151307,1,0,0:0:0:0:
260,256,151483,1,8,0:0:0:0:
36,172,151660,1,0,0:0:0:0:
40,149,151748,1,0,0:0:0:0:
44,126,151836,1,0,0:0:0:0:
47,103,151925,1,0,0:0:0:0:
51,81,152013,1,2,0:0:0:0:
144,180,152189,1,8,0:0:0:0:
276,40,152366,5,0,0:0:0:0:
276,40,152454,1,0,0:0:0:0:
276,40,152542,1,2,0:0:0:0:
412,92,152718,1,0,0:0:0:0:
192,96,152895,1,8,0:0:0:0:
496,36,153071,1,0,0:0:0:0:
344,224,153248,5,0,0:0:0:0:
360,28,153424,1,2,0:0:0:0:
444,284,153601,1,8,0:0:0:0:
212,360,153777,5,0,0:0:0:0:
212,360,153866,1,0,0:0:0:0:
212,360,153954,1,2,0:0:0:0:
152,196,154130,1,0,0:0:0:0:
344,340,154307,1,8,0:0:0:0:
124,296,154483,1,0,0:0:0:0:
344,224,154660,5,0,0:0:0:0:
212,360,154836,1,2,0:0:0:0:
212,360,154924,1,2,0:0:0:0:
212,360,155013,1,8,0:0:0:0:
444,284,155189,1,0,0:0:0:0:
288,80,155366,6,0,L|272:172,1,90,6|0,0:0|0:0,0:0:0:0:
124,296,155718,1,8,0:0:0:0:
72,96,155895,1,0,0:0:0:0:
95,100,155983,1,0,0:0:0:0:
118,104,156071,1,0,0:0:0:0:
141,107,156160,1,0,0:0:0:0:
163,111,156248,1,2,0:0:0:0:
392,148,156424,1,8,0:0:0:0:
288,80,156601,5,0,0:0:0:0:
288,80,156689,1,0,0:0:0:0:
288,80,156777,2,0,L|272:172,1,90,2|0,0:0|0:0,0:0:0:0:
360,340,157130,2,0,P|368:296|356:252,1,90,8|0,0:0|0:0,0:0:0:0:
156,200,157483,1,0,0:0:0:0:
248,280,157660,1,2,0:0:0:0:
96,364,157836,1,8,0:0:0:0:
4,284,158013,5,0,0:0:0:0:
4,284,158101,1,0,0:0:0:0:
4,284,158189,2,0,P|28:192|20:108,1,180,2|8,0:0|0:0,0:0:0:0:
64,20,158718,1,0,0:0:0:0:
224,100,158895,2,0,L|268:96,1,45
164,36,159072,2,0,P|140:76|136:120,1,90,2|8,0:0|0:0,0:0:0:0:
228,264,159424,5,0,0:0:0:0:
228,264,159513,1,0,0:0:0:0:
228,264,159601,2,0,P|252:224|256:180,2,90,2|0|8,0:0|0:0|0:0,0:0:0:0:
132,288,160130,1,0,0:0:0:0:
296,332,160307,1,0,0:0:0:0:
452,244,160483,1,2,0:0:0:0:
452,244,160571,1,2,0:0:0:0:
452,244,160660,2,0,L|360:256,1,90,8|2,0:0|0:0,0:0:0:0:
172,140,161013,6,0,L|352:160,1,180,2|8,0:0|0:0,0:0:0:0:
200,40,161542,1,0,0:0:0:0:
200,40,161630,1,0,0:0:0:0:
200,40,161719,2,0,L|108:52,1,90,0|2,0:0|0:0,0:0:0:0:
171,228,162071,2,0,P|180:184|172:140,1,90,8|0,0:0|0:0,0:0:0:0:
16,84,162424,5,2,0:0:0:0:
200,40,162601,1,0,0:0:0:0:
76,164,162777,1,8,0:0:0:0:
272,284,162954,2,0,P|292:188|272:108,1,180,0|2,0:0|0:0,0:0:0:0:
200,40,163483,1,8,0:0:0:0:
376,100,163660,2,0,L|380:52,1,45
464,140,163836,5,6,0:0:0:0:
464,140,164189,1,2,0:0:0:0:
48,244,164542,1,2,0:0:0:0:
48,244,164895,1,2,0:0:0:0:
368,132,165248,5,6,0:0:0:0:
324,296,165424,1,2,0:0:0:0:
188,88,165601,1,2,0:0:0:0:
144,252,165777,1,2,0:0:0:0:
400,216,165954,5,2,0:0:0:0:
368,184,166042,1,2,0:0:0:0:
328,168,166130,1,2,0:0:0:0:
284,164,166218,1,2,0:0:0:0:
240,176,166307,1,8,0:0:0:0:
436,332,166660,5,4,0:1:0:0:
15,308,177954,6,0,P|53:286|100:288,1,90,4|0,0:0|0:0,0:0:0:0:
183,235,178483,2,0,L|200:333,1,90,2|0,0:0|0:0,0:0:0:0:
96,224,179013,1,0,0:0:0:0:
150,151,179189,6,0,P|189:122|247:116,1,90,2|0,0:0|0:0,0:0:0:0:
390,344,179895,2,0,P|342:344|298:325,1,90,2|0,0:0|0:0,0:0:0:0:
183,235,180424,2,0,L|234:217,1,45,2|0,0:0|0:0,0:0:0:0:
326,99,180777,1,2,0:0:0:0:
326,99,181130,5,0,0:0:0:0:
407,142,181307,2,0,P|441:178|464:243,1,112.5,2|0,0:0|0:0,0:0:0:0:
462,256,181836,2,0,L|456:302,1,45,0|2,0:0|0:0,0:0:0:0:
318,313,182189,6,0,L|364:295,1,45,0|2,0:0|0:0,0:0:0:0:
390,285,182718,1,0,0:0:0:0:
213,357,182895,2,0,L|160:340,1,45,2|0,0:0|0:0,0:0:0:0:
18,282,183248,2,0,P|55:248|84:247,1,67.5,2|0,0:0|0:0,0:0:0:0:
94,224,183601,6,0,L|106:147,1,67.5000025749208,4|0,0:0|0:0,0:0:0:0:
183,196,183954,1,0,0:0:0:0:
21,158,184130,2,0,L|33:81,1,67.5000025749208,2|0,0:0|0:0,0:0:0:0:
97,34,184483,2,0,P|132:24|168:9,1,67.5000025749208,2|0,0:0|0:0,0:0:0:0:
310,230,184836,6,0,P|241:226|175:189,1,135.000005149842,2|2,0:0|0:0,0:0:0:0:
382,132,185366,2,0,P|412:116|445:111,1,67.5000025749208,0|2,0:0|0:0,0:0:0:0:
267,87,185718,2,0,P|242:65|223:33,1,67.5000025749208,2|0,0:0|0:0,0:0:0:0:
398,225,186071,2,0,P|416:259|422:309,1,67.5000025749208,2|0,0:0|0:0,0:0:0:0:
296,346,186424,5,6,0:0:0:0:
155,247,186601,1,2,0:0:0:0:
217,311,186777,1,2,0:0:0:0:
169,219,186954,1,2,0:0:0:0:
129,345,187130,1,2,0:0:0:0:
182,195,187307,1,2,0:0:0:0:
44,308,187483,1,2,0:0:0:0:
24,136,187660,1,2,0:0:0:0:
0,226,187836,5,6,0:0:0:0:
99,85,188013,1,2,0:0:0:0:
257,148,188189,1,2,0:0:0:0:
175,31,188366,1,2,0:0:0:0:
175,31,188454,1,2,0:0:0:0:
175,31,188542,1,2,0:0:0:0:
385,104,188718,1,2,0:0:0:0:
253,53,188895,1,2,0:0:0:0:
471,17,189071,1,2,0:0:0:0:
354,200,189248,5,2,0:0:0:0:
390,232,189336,1,2,0:0:0:0:
439,232,189424,1,2,0:0:0:0:
482,206,189513,1,2,0:0:0:0:
470,254,189601,1,2,0:0:0:0:
485,300,189689,1,2,0:0:0:0:
462,343,189777,1,2,0:0:0:0:
416,362,189866,1,2,0:0:0:0:
371,339,189954,5,2,0:0:0:0:
343,298,190042,1,2,0:0:0:0:
303,268,190130,1,2,0:0:0:0:
256,250,190218,1,2,0:0:0:0:
206,250,190307,1,2,0:0:0:0:
159,265,190395,1,2,0:0:0:0:
115,287,190483,1,2,0:0:0:0:
83,325,190571,1,2,0:0:0:0:
68,372,190660,6,0,P|70:306|6:272,1,135.000005149842,4|0,0:0|0:0,0:0:0:0:
79,136,191366,6,0,L|132:146,1,45
44,48,191542,2,0,L|1:61,1,45
158,149,191718,6,0,P|215:147|285:100,1,135.000005149842,8|0,0:1|0:0,0:0:0:0:
180,24,192071,5,6,0:0:0:0:
79,136,192248,1,0,0:0:0:0:
180,24,192424,1,8,0:0:0:0:
124,224,192601,1,0,0:0:0:0:
180,24,192777,1,0,0:0:0:0:
212,248,192954,1,2,0:0:0:0:
349,110,193130,2,0,P|360:154|361:199,1,90,8|0,0:0|0:0,0:0:0:0:
301,259,193395,5,0,0:0:0:0:
301,259,193483,2,0,L|212:248,1,90,2|0,0:0|0:0,0:0:0:0:
349,110,193836,2,0,L|439:98,1,90,8|0,0:0|0:0,0:0:0:0:
180,24,194189,2,0,L|176:68,1,45
108,136,194366,2,0,P|63:131|25:107,1,90,2|8,0:0|0:0,0:0:0:0:
268,68,194718,5,0,0:0:0:0:
268,68,194807,1,0,0:0:0:0:
268,68,194895,1,2,0:0:0:0:
108,136,195071,1,0,0:0:0:0:
300,260,195248,1,8,0:0:0:0:
136,308,195424,1,0,0:0:0:0:
132,286,195512,1,0,0:0:0:0:
129,263,195601,1,0,0:0:0:0:
125,240,195689,1,0,0:0:0:0:
121,217,195777,1,2,0:0:0:0:
208,144,195954,1,8,0:0:0:0:
25,107,196130,5,0,0:0:0:0:
25,107,196218,1,0,0:0:0:0:
25,107,196307,2,0,L|13:199,1,90,2|0,0:0|0:0,0:0:0:0:
0,296,196660,1,8,0:0:0:0:
209,233,196836,2,0,L|121:217,1,90
256,328,197189,1,2,0:0:0:0:
280,324,197277,1,2,0:0:0:0:
304,320,197366,1,8,0:0:0:0:
208,144,197542,1,2,0:0:0:0:
167,312,197718,6,0,L|256:328,1,90,2|0,0:0|0:0,0:0:0:0:
388,300,198071,1,8,0:0:0:0:
299,129,198248,1,0,0:0:0:0:
276,133,198336,1,0,0:0:0:0:
253,137,198424,1,0,0:0:0:0:
230,140,198513,1,0,0:0:0:0:
208,144,198601,1,2,0:0:0:0:
167,312,198777,1,8,0:0:0:0:
268,236,198954,1,0,0:0:0:0:
60,160,199130,5,2,0:0:0:0:
100,364,199307,1,0,0:0:0:0:
268,236,199483,1,8,0:0:0:0:
60,160,199660,1,0,0:0:0:0:
56,183,199748,1,0,0:0:0:0:
52,206,199836,1,0,0:0:0:0:
49,229,199925,1,0,0:0:0:0:
45,251,200013,1,2,0:0:0:0:
252,316,200189,1,8,0:0:0:0:
32,344,200366,5,0,0:0:0:0:
32,344,200454,1,0,0:0:0:0:
32,344,200542,1,2,0:0:0:0:
104,276,200718,1,0,0:0:0:0:
200,252,200895,1,8,0:0:0:0:
296,276,201071,1,0,0:0:0:0:
443,159,201248,5,0,0:0:0:0:
104,276,201424,1,2,0:0:0:0:
396,256,201601,1,8,0:0:0:0:
124,176,201777,5,0,0:0:0:0:
124,176,201866,1,0,0:0:0:0:
124,176,201954,1,2,0:0:0:0:
176,344,202130,1,0,0:0:0:0:
348,108,202307,1,8,0:0:0:0:
296,276,202483,1,0,0:0:0:0:
100,88,202660,5,0,0:0:0:0:
200,252,202836,1,2,0:0:0:0:
200,252,202924,1,2,0:0:0:0:
200,252,203013,1,8,0:0:0:0:
433,80,203189,5,0,0:0:0:0:
433,80,203277,1,0,0:0:0:0:
433,80,203366,2,0,L|348:107,1,90,6|0,0:0|0:0,0:0:0:0:
124,176,203718,1,8,0:0:0:0:
296,276,203895,1,0,0:0:0:0:
322,282,203983,1,0,0:0:0:0:
348,288,204071,1,0,0:0:0:0:
374,294,204160,1,0,0:0:0:0:
400,300,204248,1,2,0:0:0:0:
200,252,204424,1,8,0:0:0:0:
322,136,204601,5,0,0:0:0:0:
322,136,204689,1,0,0:0:0:0:
322,136,204777,2,0,P|317:88|293:41,1,90,2|0,0:0|0:0,0:0:0:0:
109,265,205130,2,0,P|114:313|138:360,1,90,8|0,0:0|0:0,0:0:0:0:
233,107,205483,1,0,0:0:0:0:
296,276,205660,1,2,0:0:0:0:
391,74,205836,1,8,0:0:0:0:
178,181,206013,5,0,0:0:0:0:
178,181,206101,1,0,0:0:0:0:
178,181,206189,2,0,P|90:178|12:126,1,180,2|8,0:0|0:0,0:0:0:0:
204,22,206718,1,0,0:0:0:0:
204,22,206895,2,0,P|227:70|232:117,1,90,0|2,0:0|0:0,0:0:0:0:
109,265,207248,1,8,0:0:0:0:
199,332,207424,1,0,0:0:0:0:
21,277,207601,6,0,P|29:230|64:189,1,90,2|0,0:0|0:0,0:0:0:0:
82,179,207866,1,0,0:0:0:0:
82,179,207954,1,8,0:0:0:0:
269,240,208130,1,0,0:0:0:0:
199,332,208307,1,0,0:0:0:0:
152,87,208483,1,2,0:0:0:0:
152,87,208571,1,2,0:0:0:0:
152,87,208660,1,8,0:0:0:0:
82,179,208836,1,2,0:0:0:0:
269,240,209013,6,0,P|350:255|439:213,1,180,2|8,0:0|0:0,0:0:0:0:
167,205,209542,1,0,0:0:0:0:
167,205,209630,1,0,0:0:0:0:
167,205,209718,2,0,P|128:188|75:178,1,90,0|2,0:0|0:0,0:0:0:0:
328,127,210071,2,0,P|357:93|376:49,1,90,8|0,0:0|0:0,0:0:0:0:
270,40,210424,5,2,0:0:0:0:
434,156,210601,1,0,0:0:0:0:
269,240,210777,1,8,0:0:0:0:
413,331,210954,2,0,P|434:273|430:144,1,180,0|2,0:0|0:0,0:0:0:0:
375,51,211483,1,8,0:0:0:0:
200,122,211660,5,0,0:0:0:0:
200,122,211748,1,0,0:0:0:0:
200,122,211836,2,0,P|154:136|97:140,1,90,6|0,0:0|0:0,0:0:0:0:
4,240,212189,2,0,P|47:241|96:252,1,90,2|0,0:0|0:0,0:0:0:0:
193,336,212542,2,0,P|240:323|288:318,1,90,2|0,0:0|0:0,0:0:0:0:
413,331,212895,2,0,P|428:286|431:238,1,90,2|0,0:0|0:0,0:0:0:0:
367,157,213248,5,2,0:0:0:0:
178,241,213424,1,2,0:0:0:0:
374,140,213601,1,2,0:0:0:0:
281,316,213777,1,2,0:0:0:0:
246,54,213954,1,2,0:0:0:0:
207,40,214042,1,2,0:0:0:0:
167,46,214130,1,2,0:0:0:0:
132,66,214218,1,2,0:0:0:0:
108,99,214307,6,0,L|80:168,1,45
14,184,214483,2,0,L|23:235,1,45
88,288,214660,6,0,P|132:276|180:280,1,90,6|0,0:0|0:0,0:0:0:0:
319,315,215013,2,0,P|287:284|268:244,1,90,8|0,0:0|0:0,0:0:0:0:
392,88,215366,1,0,0:0:0:0:
324,160,215542,2,0,L|232:152,1,90,2|8,0:0|0:0,0:0:0:0:
432,8,215895,6,0,L|460:188,1,180
324,160,216424,2,0,L|312:252,1,90,8|0,0:0|0:0,0:0:0:0:
168,68,216777,1,0,0:0:0:0:
195,245,216954,1,2,0:0:0:0:
76,136,217130,1,8,0:0:0:0:
49,313,217307,1,0,0:0:0:0:
237,180,217484,6,0,P|279:165|324:160,1,90,2|0,0:0|0:0,0:0:0:0:
482,207,217836,2,0,P|440:222|396:228,1,90,8|0,0:0|0:0,0:0:0:0:
256,84,218189,1,0,0:0:0:0:
195,245,218366,1,2,0:0:0:0:
344,304,218542,1,8,0:0:0:0:
176,152,218718,6,0,P|84:164|40:236,1,180
256,312,219248,2,0,L|288:228,1,90,8|0,0:0|0:0,0:0:0:0:
256,84,219601,1,0,0:0:0:0:
195,245,219778,1,2,0:0:0:0:
195,245,219866,1,2,0:0:0:0:
195,245,219954,1,8,0:0:0:0:
404,148,220131,1,2,0:0:0:0:
345,323,220307,6,0,L|256:312,1,90,2|0,0:0|0:0,0:0:0:0:
420,180,220660,2,0,L|512:168,1,90,8|0,0:0|0:0,0:0:0:0:
344,80,221013,1,0,0:0:0:0:
195,245,221189,2,0,P|186:201|195:157,1,90,2|8,0:0|0:0,0:0:0:0:
373,268,221542,6,0,L|195:245,1,180
116,100,222071,2,0,L|24:112,1,90,8|0,0:0|0:0,0:0:0:0:
72,256,222425,1,0,0:0:0:0:
240,168,222601,1,2,0:0:0:0:
44,184,222777,1,8,0:0:0:0:
248,148,222953,1,0,0:0:0:0:
108,328,223131,6,0,P|64:336|20:316,1,90,2|0,0:0|0:0,0:0:0:0:
164,164,223483,1,8,0:0:0:0:
200,288,223660,1,0,0:0:0:0:
44,184,223836,2,0,L|56:92,2,90,0|2|8,0:0|0:0|0:0,0:0:0:0:
108,328,224366,6,0,P|192:312|284:336,1,180
424,256,224895,1,8,0:0:0:0:
424,256,225071,2,0,P|380:260|336:244,1,90
408,76,225425,1,2,0:0:0:0:
408,76,225513,1,2,0:0:0:0:
408,76,225601,2,0,L|396:168,1,90,8|2,0:0|0:0,0:0:0:0:
312,339,225954,6,0,P|272:357|228:353,1,90,6|0,0:0|0:0,0:0:0:0:
24,311,226307,2,0,P|71:308|118:339,1,90,8|0,0:0|0:0,0:0:0:0:
227,352,226660,1,0,0:0:0:0:
104,238,226836,2,0,L|124:149,1,90,2|8,0:0|0:0,0:0:0:0:
238,56,227189,6,0,P|319:41|407:75,1,180
503,240,227718,2,0,P|477:202|458:162,1,90,8|0,0:0|0:0,0:0:0:0:
260,262,228071,1,0,0:0:0:0:
346,334,228248,1,2,0:0:0:0:
297,148,228424,1,8,0:0:0:0:
176,284,228601,1,0,0:0:0:0:
417,243,228777,6,0,L|329:222,1,90,2|0,0:0|0:0,0:0:0:0:
238,56,229130,2,0,P|283:55|341:79,1,90,8|0,0:0|0:0,0:0:0:0:
458,162,229483,1,0,0:0:0:0:
260,262,229660,1,2,0:0:0:0:
346,334,229836,1,8,0:0:0:0:
176,284,230013,6,0,P|133:213|154:121,1,180
344,237,230542,2,0,P|301:258|256:261,1,90,8|0,0:0|0:0,0:0:0:0:
75,204,230895,1,0,0:0:0:0:
176,284,231071,1,2,0:0:0:0:
176,284,231160,1,2,0:0:0:0:
176,284,231248,1,8,0:0:0:0:
238,56,231424,1,2,0:0:0:0:
176,284,231601,6,0,L|202:194,1,90,2|0,0:0|0:0,0:0:0:0:
415,300,231954,2,0,P|372:327|329:326,1,90,8|0,0:0|0:0,0:0:0:0:
200,197,232307,1,0,0:0:0:0:
344,237,232483,2,0,L|328:144,1,90,2|8,0:0|0:0,0:0:0:0:
104,182,232836,6,0,P|116:93|151:11,1,180
323,82,233366,2,0,P|278:73|237:55,1,90,8|0,0:0|0:0,0:0:0:0:
21,102,233718,1,0,0:0:0:0:
102,273,233895,1,2,0:0:0:0:
200,197,234071,1,8,0:0:0:0:
142,358,234248,1,0,0:0:0:0:
14,288,234424,5,6,0:0:0:0:
287,215,234777,1,2,0:0:0:0:
62,352,235130,1,2,0:0:0:0:
259,131,235483,1,2,0:0:0:0:
142,358,235836,5,2,0:0:0:0:
14,288,236013,1,2,0:0:0:0:
200,197,236189,1,2,0:0:0:0:
62,352,236366,1,2,0:0:0:0:
175,113,236542,1,2,0:0:0:0:
157,108,236630,1,2,0:0:0:0:
139,103,236718,1,2,0:0:0:0:
121,98,236807,1,2,0:0:0:0:
103,93,236895,1,8,0:0:0:0:
85,89,236983,1,8,0:0:0:0:
67,84,237071,6,0,L|1:92,1,58.4999973220826,2|2,0:0|0:0,0:0:0:0:
