osu file format v14

[General]
AudioFilename: Mitsuba no Musubime (Sanaas remix).mp3
AudioLeadIn: 0
PreviewTime: 191013
Countdown: 0
SampleSet: Soft
StackLeniency: 0.7
Mode: 0
LetterboxInBreaks: 0
WidescreenStoryboard: 1

[Editor]
Bookmarks: 191366
DistanceSpacing: 1.2
BeatDivisor: 4
GridSize: 4
TimelineZoom: 1.6

[Metadata]
Title:Mitsuba no Musubime(Sanaas remix)
TitleUnicode:三つ葉の結びめ(Sanaas remix)
Artist:yanaginagi
ArtistUnicode:やなぎなぎ
Creator:Sharlo
Version:Hard
Source:凪のあすから
Tags:dnB Nagi no Asukara Zero__wind Delis iyasine alacat
BeatmapID:935360
BeatmapSetID:401523

[Difficulty]
HPDrainRate:5
CircleSize:4
OverallDifficulty:6
ApproachRate:8
SliderMultiplier:1.4
SliderTickRate:1

[Events]
//Background and Video events
0,0,"BG.jpg",0,0
//Break Periods
2,131566,136263
2,166860,182851
//Storyboard Layer 0 (Background)
//Storyboard Layer 1 (Fail)
//Storyboard Layer 2 (Pass)
//Storyboard Layer 3 (Foreground)
//Storyboard Sound Samples

[TimingPoints]
5719,352.941176470588,4,2,1,40,1,0
28307,-125,4,2,1,40,0,0
30424,-125,4,2,2,40,0,0
31836,-125,4,2,1,40,0,0
36071,-125,4,2,2,40,0,0
37660,-125,4,2,1,40,0,0
41718,-125,4,2,2,40,0,0
43130,-125,4,2,1,40,0,0
47366,-125,4,2,2,40,0,0
48777,-125,4,2,1,40,0,0
59366,-125,4,2,1,50,0,0
60777,-125,4,2,1,60,0,0
63248,-125,4,2,1,80,0,0
63601,-100,4,2,1,80,0,1
85924,-100,4,2,2,80,0,1
86189,-100,4,2,1,60,0,0
108777,-100,4,2,1,60,0,0
131366,-100,4,2,1,40,0,0
137013,-125,4,2,2,40,0,0
138424,-125,4,2,1,40,0,0
139836,-125,4,2,1,50,0,0
141248,-125,4,2,1,60,0,0
143718,-125,4,2,1,80,0,0
144071,-100,4,2,1,80,0,1
166660,-125,4,2,1,60,0,0
183601,-125,4,2,2,40,0,0
186424,-125,4,2,1,50,0,0
189248,-125,4,2,1,60,0,0
191718,-125,4,2,1,80,0,0
192071,-100,4,2,1,80,0,1
214395,-100,4,2,2,80,0,1
214660,-100,4,2,1,60,0,0

[Colours]
Combo1 : 56,214,174
Combo2 : 83,217,255
Combo3 : 159,234,134
Combo4 : 72,173,255

[HitObjects]
408,268,28307,6,0,L|276:280,1,112,2|0,0:0|0:0,0:0:0:0:
232,332,28836,2,0,P|244:272|216:220,1,112,0|0,0:0|0:0,0:0:0:0:
164,72,29542,1,0,0:0:0:0:
164,72,29718,6,0,P|142:122|155:176,1,112
223,227,30248,1,0,0:0:0:0:
296,184,30424,2,0,P|344:180|376:172,1,56,2|2,0:0|0:0,0:0:0:0:
432,275,30777,2,0,P|426:247|424:220,1,56,2|2,0:0|0:0,0:0:0:0:
424,136,31130,5,2,0:0:0:0:
348,288,31483,2,0,P|350:315|356:343,1,56,2|2,0:0|0:0,0:0:0:0:
276,364,31836,2,0,L|200:356,1,56,0|0,0:0|0:0,0:0:0:0:
148,316,32189,1,0,0:0:0:0:
76,164,32542,5,0,0:0:0:0:
76,164,33248,1,0,0:0:0:0:
296,40,33777,1,0,0:0:0:0:
296,40,33954,6,0,P|316:104|300:164,1,112,0|0,0:0|0:0,0:0:0:0:
260,216,34483,2,0,P|332:200|380:228,1,112,0|0,0:0|0:0,0:0:0:0:
220,304,35189,1,0,0:0:0:0:
220,304,35366,6,0,P|176:268|164:200,1,112,0|0,0:0|0:0,0:0:0:0:
172,132,35895,1,0,0:0:0:0:
236,79,36071,2,0,P|263:72|308:72,1,56,2|2,0:0|0:0,0:0:0:0:
160,47,36424,2,0,P|126:55|84:52,1,56,2|2,0:0|0:0,0:0:0:0:
236,79,36777,6,0,P|232:163|240:208,1,112,2|2,0:0|0:0,0:0:0:0:
252,272,37307,1,2,0:0:0:0:
416,228,37660,1,0,0:0:0:0:
416,228,37836,2,0,P|422:158|416:100,1,112,0|0,0:0|0:0,0:0:0:0:
88,48,38895,6,0,P|84:88|88:128,1,56,0|0,0:0|0:0,0:0:0:0:
96,188,39248,1,0,0:0:0:0:
96,188,39424,6,0,P|156:172|224:184,1,112,0|0,0:0|0:0,0:0:0:0:
268,232,39954,1,0,0:0:0:0:
268,232,40130,2,0,L|392:248,1,112,0|0,0:0|0:0,0:0:0:0:
344,80,40836,1,0,0:0:0:0:
344,80,41013,6,0,L|213:66,1,112
152,40,41542,1,0,0:0:0:0:
152,40,41718,2,0,P|112:60|92:88,1,56,2|2,0:0|0:0,0:0:0:0:
136,168,42071,2,0,P|155:147|168:123,1,56,2|2,0:0|0:0,0:0:0:0:
232,68,42424,6,0,P|248:104|248:140,1,56,2|2,0:0|0:0,0:0:0:0:
232,204,42777,2,0,L|240:272,1,56,2|2,0:0|0:0,0:0:0:0:
308,304,43130,2,0,L|376:312,2,56,0|0|0,0:0|0:0|0:0,0:0:0:0:
144,264,43836,5,0,0:0:0:0:
300,64,44366,1,0,0:0:0:0:
300,64,44542,2,0,P|308:100|308:144,1,56,0|0,0:0|0:0,0:0:0:0:
388,152,44895,2,0,P|368:188|364:228,1,56,0|0,0:0|0:0,0:0:0:0:
416,272,45248,5,0,0:0:0:0:
332,284,45424,2,0,L|260:284,2,56,0|0|0,0:0|0:0|0:0,0:0:0:0:
360,364,45954,2,0,L|228:364,1,112,0|0,0:0|0:0,0:0:0:0:
192,300,46483,1,0,0:0:0:0:
144,140,46836,6,0,P|108:140|64:148,2,56,0|0|0,0:0|0:0|0:0,0:0:0:0:
224,168,47366,2,0,L|224:224,1,56,2|0,0:0|0:0,0:0:0:0:
212,84,47718,2,0,L|220:24,1,56,2|2,0:0|0:0,0:0:0:0:
300,0,48071,6,0,P|311:32|312:68,1,56,2|2,0:0|0:0,0:0:0:0:
372,116,48424,2,0,P|408:124|448:120,1,56,2|2,0:0|0:0,0:0:0:0:
488,64,48777,1,0,0:0:0:0:
392,200,49130,1,0,0:0:0:0:
392,200,49307,6,0,P|384:264|396:336,1,112,0|0,0:0|0:0,0:0:0:0:
224,348,50013,2,0,P|224:308|216:268,1,56,0|0,0:0|0:0,0:0:0:0:
152,248,50366,2,0,P|112:248|80:256,2,56
244,212,50895,6,0,P|256:140|248:80,1,112,4|0,0:0|0:0,0:0:0:0:
192,44,51424,2,0,P|136:24|76:52,1,112,0|0,0:0|0:0,0:0:0:0:
136,112,51954,1,0,0:0:0:0:
52,116,52130,6,0,P|44:172|56:240,1,112,0|0,0:0|0:0,0:0:0:0:
108,288,52660,2,0,L|184:280,1,56,0|0,0:0|0:0,0:0:0:0:
248,272,53013,1,0,0:0:0:0:
408,224,53366,1,0,0:0:0:0:
408,224,53542,6,0,P|388:160|412:104,1,112,0|0,0:0|0:0,0:0:0:0:
436,40,54071,1,0,0:0:0:0:
436,40,54248,2,0,L|312:48,1,112
184,96,54777,1,0,0:0:0:0:
268,112,54954,1,0,0:0:0:0:
240,32,55130,5,0,0:0:0:0:
240,32,55483,1,0,0:0:0:0:
184,96,55660,1,0,0:0:0:0:
196,180,55836,2,0,P|198:214|192:248,1,56
176,316,56189,1,0,0:0:0:0:
344,292,56542,6,0,L|420:280,1,56,4|0,0:0|0:0,0:0:0:0:
468,332,56895,2,0,P|480:304|480:264,1,56,0|0,0:0|0:0,0:0:0:0:
436,208,57248,1,0,0:0:0:0:
292,124,57601,2,0,P|276:156|272:192,1,56,0|0,0:0|0:0,0:0:0:0:
360,180,57954,5,2,0:0:0:0:
304,20,58307,1,2,0:0:0:0:
144,68,58660,1,2,0:0:0:0:
196,228,59013,1,2,0:0:0:0:
360,180,59366,5,6,0:0:0:0:
360,180,59542,1,2,0:0:0:0:
288,140,59718,2,0,L|220:156,1,56,2|2,0:0|0:0,0:0:0:0:
196,228,60071,1,2,0:0:0:0:
196,228,60247,1,2,0:0:0:0:
132,176,60424,2,0,L|116:112,1,56,2|2,0:0|0:0,0:0:0:0:
44,80,60777,6,0,L|34:43,2,28,2|2|2,0:0|0:0|0:0,0:0:0:0:
16,160,61130,2,0,L|23:186,2,28,2|2|2,0:0|0:0|0:0,0:0:0:0:
87,274,61483,2,0,L|80:248,2,28,2|2|2,0:0|0:0|0:0,0:0:0:0:
164,308,61836,1,2,0:0:0:0:
164,308,61924,1,2,0:0:0:0:
164,308,62013,2,0,L|171:334,2,28,2|2|6,0:0|0:0|0:0,0:0:0:0:
452,136,62895,6,0,L|444:104,2,28,0|0|0,0:0|0:0|0:0,0:0:0:0:
416,212,63248,2,0,P|384:216|336:208,1,56,8|0,0:1|0:0,0:0:0:0:
272,156,63601,6,0,P|260:244|284:288,1,140,6|8,0:0|0:0,0:0:0:0:
332,356,64130,1,0,0:0:0:0:
248,364,64307,2,0,P|208:364|164:352,1,70,0|2,0:0|0:0,0:0:0:0:
104,320,64660,1,8,0:0:0:0:
104,320,64836,1,0,0:0:0:0:
68,244,65013,6,0,P|60:200|64:156,1,70,2|0,0:0|0:0,0:0:0:0:
104,100,65366,1,8,0:0:0:0:
104,100,65542,1,0,0:0:0:0:
184,120,65718,2,0,L|196:168,2,35,0|0|2,0:0|0:0|0:0,0:0:0:0:
164,36,66071,1,8,0:0:0:0:
164,36,66248,1,0,0:0:0:0:
244,56,66424,6,0,L|332:56,1,70,2|0,0:0|0:0,0:0:0:0:
372,116,66777,1,8,0:0:0:0:
372,116,66954,1,0,0:0:0:0:
454,134,67130,2,0,P|454:99|440:68,2,70,0|2|8,0:0|0:0|0:0,0:0:0:0:
396,196,67660,1,0,0:0:0:0:
396,196,67836,6,0,L|392:272,1,70,2|0,0:0|0:0,0:0:0:0:
408,348,68189,1,8,0:0:0:0:
328,320,68366,2,0,P|256:296|188:320,1,140,0|2,0:0|0:0,0:0:0:0:
176,332,68807,1,2,0:0:0:0:
176,332,68895,1,8,0:0:0:0:
116,276,69071,1,0,0:0:0:0:
56,214,69248,6,0,P|31:277|60:340,1,140,2|8,0:0|0:0,0:0:0:0:
140,192,69777,2,0,L|144:156,2,35,0|0|0,0:0|0:0|0:0,0:0:0:0:
212,232,70130,1,2,0:0:0:0:
212,232,70307,2,0,L|220:160,1,70,8|0,0:0|0:0,0:0:0:0:
300,136,70660,5,2,0:0:0:0:
380,104,70836,2,0,L|432:100,2,35,0|0|8,0:0|0:0|0:0,0:0:0:0:
232,80,71189,2,0,P|228:48|232:8,1,70,0|0,0:0|0:0,0:0:0:0:
300,136,71542,1,2,0:0:0:0:
300,136,71718,2,0,P|303:170|299:205,1,70,8|0,0:0|0:0,0:0:0:0:
280,288,72071,5,2,0:0:0:0:
360,264,72248,2,0,L|404:276,2,35,0|0|8,0:0|0:0|0:0,0:0:0:0:
280,288,72601,2,0,P|208:300|144:276,1,140,0|2,0:0|0:0,0:0:0:0:
116,200,73130,1,8,0:0:0:0:
60,59,73307,6,0,P|68:93|72:128,1,70,0|2,0:0|0:0,0:0:0:0:
116,200,73660,1,0,0:0:0:0:
116,200,73836,2,0,P|104:240|104:288,1,70,8|0,0:0|0:0,0:0:0:0:
152,336,74189,1,0,0:0:0:0:
236,340,74366,2,0,L|292:344,2,35,2|2|8,0:0|0:0|0:0,0:0:0:0:
200,264,74718,1,2,0:0:0:0:
200,264,74807,1,8,0:0:0:0:
200,264,74895,6,0,P|192:196|216:128,1,140,6|8,0:0|0:0,0:0:0:0:
276,72,75424,1,0,0:0:0:0:
347,35,75601,2,0,P|355:69|351:103,1,70,0|2,0:0|0:0,0:0:0:0:
276,72,75954,1,8,0:0:0:0:
216,16,76130,1,0,0:0:0:0:
152,72,76307,6,0,P|84:88|16:52,1,140,2|8,0:0|0:0,0:0:0:0:
64,132,76836,1,0,0:0:0:0:
64,132,77013,2,0,P|72:180|68:228,1,70,0|2,0:0|0:0,0:0:0:0:
36,276,77366,2,0,P|68:284|116:268,1,70,8|0,0:0|0:0,0:0:0:0:
128,264,77630,1,0,0:0:0:0:
128,264,77718,6,0,L|204:264,1,70,2|0,0:0|0:0,0:0:0:0:
284,264,78071,1,8,0:0:0:0:
284,264,78248,1,0,0:0:0:0:
240,192,78424,2,0,P|228:160|228:116,1,70,0|0,0:0|0:0,0:0:0:0:
308,144,78777,1,8,0:0:0:0:
308,144,78954,1,0,0:0:0:0:
384,112,79130,6,0,P|396:76|396:28,1,70,2|0,0:0|0:0,0:0:0:0:
316,60,79483,1,8,0:0:0:0:
376,196,79660,2,0,L|368:280,1,70,0|0,0:0|0:0,0:0:0:0:
292,296,80013,1,2,0:0:0:0:
292,296,80101,1,2,0:0:0:0:
292,296,80189,2,0,L|304:388,1,70,8|2,0:0|0:0,0:0:0:0:
220,244,80542,6,0,P|180:240|136:248,1,70,2|0,0:0|0:0,0:0:0:0:
80,288,80895,1,8,0:0:0:0:
76,204,81071,2,0,L|72:124,1,70,0|0,0:0|0:0,0:0:0:0:
124,68,81424,1,2,0:0:0:0:
124,68,81601,1,8,0:0:0:0:
192,116,81777,6,0,P|232:116|276:108,1,70,0|2,0:0|0:0,0:0:0:0:
344,96,82130,1,0,0:0:0:0:
288,32,82307,1,8,0:0:0:0:
372,16,82483,2,0,P|420:64|420:132,1,140,0|2,0:0|0:0,0:0:0:0:
348,180,83013,2,0,P|348:220|356:256,1,70,8|0,0:0|0:0,0:0:0:0:
376,332,83366,5,6,0:0:0:0:
236,236,83718,1,2,0:0:0:0:
96,332,84071,1,2,0:0:0:0:
236,236,84424,1,2,0:0:0:0:
268,72,84777,5,6,0:0:0:0:
332,128,84954,1,2,0:0:0:0:
348,44,85130,1,2,0:0:0:0:
252,156,85307,1,2,0:0:0:0:
188,100,85483,2,0,L|148:104,3,35,2|2|2|2,0:0|0:0|0:0|0:0,0:0:0:0:
128,136,85836,2,0,L|88:140,3,35,8|2|2|2,0:0|0:0|0:0|0:0,0:0:0:0:
76,176,86189,6,0,P|60:240|116:316,2,140,6|8|0,3:2|3:2|3:0,0:0:0:0:
140,232,87071,1,2,0:0:0:0:
220,256,87248,2,0,P|260:257|292:248,1,70,8|0,3:2|3:0,0:0:0:0:
348,188,87601,5,2,0:0:0:0:
372,268,87777,1,0,3:0:0:0:
452,248,87954,1,8,0:0:0:0:
428,168,88130,1,0,3:0:0:0:
368,108,88307,2,0,P|324:100|285:103,1,70,0|2,3:0|3:2,0:0:0:0:
162,158,88660,2,0,P|197:158|232:152,1,70,8|0,3:2|3:0,0:0:0:0:
298,100,89013,6,0,P|264:152|280:240,1,140,2|8,3:2|3:2,0:0:0:0:
324,292,89542,1,0,0:0:0:0:
404,316,89718,2,0,L|476:300,2,70,0|2|8,3:0|3:2|3:2,0:0:0:0:
324,292,90248,2,0,P|312:328|312:368,1,70,0|2,3:2|0:0,0:0:0:0:
228,348,90601,6,0,L|152:336,1,70,0|8,3:2|0:0,0:0:0:0:
108,272,90954,1,0,3:0:0:0:
168,212,91130,1,0,3:0:0:0:
252,216,91307,1,2,3:2:0:0:
252,216,91395,1,2,0:0:0:0:
252,216,91483,2,0,P|264:176|264:136,1,70,8|2,3:2|3:2,0:0:0:0:
204,88,91836,6,0,P|282:115|344:80,2,140,2|8|0,3:2|3:2|3:2,0:0:0:0:
152,20,92718,1,2,0:0:0:0:
152,20,92895,2,0,L|60:28,1,70,8|0,3:2|3:0,0:0:0:0:
52,104,93248,5,2,0:0:0:0:
52,104,93424,1,0,3:0:0:0:
112,164,93601,1,8,0:0:0:0:
112,164,93777,1,0,3:0:0:0:
56,228,93954,2,0,P|52:268|64:308,1,70,0|2,3:0|3:2,0:0:0:0:
132,340,94307,2,0,L|224:328,1,70,8|0,3:2|3:0,0:0:0:0:
280,300,94660,6,0,P|264:228|300:168,1,140,2|8,3:2|3:2,0:0:0:0:
376,196,95189,1,0,0:0:0:0:
376,196,95366,2,0,P|412:200|452:188,1,70,0|2,3:0|0:0,0:0:0:0:
404,116,95718,1,8,3:2:0:0:
270,85,95895,6,0,P|290:113|319:132,1,70,0|2,3:0|0:0,0:0:0:0:
404,116,96248,1,0,3:0:0:0:
348,52,96424,1,8,3:2:0:0:
376,196,96601,2,0,P|376:232|368:272,1,70,0|0,3:0|0:0,0:0:0:0:
336,344,96954,1,2,3:2:0:0:
336,344,97042,1,2,0:0:0:0:
336,344,97130,2,0,L|252:352,1,70,8|2,3:2|3:2,0:0:0:0:
208,292,97483,6,0,P|136:276|72:300,2,140,6|8|0,3:2|3:2|3:2,0:0:0:0:
266,350,98366,1,2,0:0:0:0:
288,268,98542,2,0,L|280:192,1,70,8|0,3:2|3:0,0:0:0:0:
204,168,98895,5,2,0:0:0:0:
204,168,99071,2,0,P|196:124|200:88,1,70,0|8,3:0|0:0,0:0:0:0:
212,16,99424,1,0,3:0:0:0:
276,72,99601,1,0,3:0:0:0:
276,72,99777,1,2,3:2:0:0:
356,96,99954,2,0,P|396:100|444:92,1,70,8|0,3:2|3:0,0:0:0:0:
292,156,100307,6,0,P|272:224|320:296,1,140,2|8,3:2|3:2,0:0:0:0:
356,216,100836,1,0,0:0:0:0:
428,256,101013,2,0,L|420:332,2,70,0|2|8,3:0|3:2|3:2,0:0:0:0:
356,216,101542,1,0,3:0:0:0:
301,282,101718,5,2,0:0:0:0:
301,282,101895,2,0,P|261:290|216:288,1,70,0|8,3:0|0:0,0:0:0:0:
155,251,102248,1,0,3:0:0:0:
224,108,102424,2,0,P|232:141|228:176,1,70,0|2,3:0|3:2,0:0:0:0:
223,204,102689,1,2,0:0:0:0:
223,204,102777,1,8,3:2:0:0:
148,168,102954,1,2,3:2:0:0:
144,84,103130,6,0,B|56:64|84:100|-16:80,2,140,2|8|0,3:2|3:2|3:0,0:0:0:0:
204,24,104013,1,2,0:0:0:0:
224,108,104189,2,0,P|268:120|324:112,1,70,8|0,3:2|3:0,0:0:0:0:
356,68,104542,5,2,0:0:0:0:
440,68,104718,2,0,P|464:108|476:152,1,70,0|8,3:0|0:0,0:0:0:0:
476,216,105071,1,0,3:0:0:0:
476,216,105248,2,0,P|432:228|392:224,1,70,0|2,3:0|3:2,0:0:0:0:
324,208,105601,2,0,P|280:204|240:212,1,70,8|0,3:2|3:0,0:0:0:0:
188,260,105954,5,6,3:2:0:0:
130,95,106307,1,2,3:2:0:0:
254,207,106660,2,0,L|260:132,1,70,2|0,3:2|3:0,0:0:0:0:
334,42,107013,2,0,L|340:112,1,70,2|0,3:2|3:0,0:0:0:0:
348,196,107366,5,6,0:0:0:0:
348,196,107542,1,2,3:2:0:0:
476,216,107718,1,2,0:0:0:0:
476,216,107895,1,2,3:2:0:0:
404,260,108071,2,0,L|398:294,3,35,2|2|2|2,3:2|0:0|3:2|0:0,0:0:0:0:
416,332,108424,2,0,P|423:352|428:372,2,35,8|8|2,0:0|0:0|0:0,0:0:0:0:
332,348,108777,6,0,P|264:360|204:324,1,140,6|8,0:0|0:0,0:0:0:0:
132,280,109307,2,0,P|208:292|268:256,1,140,0|2,0:0|0:0,0:0:0:0:
324,208,109836,1,8,0:0:0:0:
244,184,110013,1,0,0:0:0:0:
244,184,110189,6,0,P|232:116|256:48,1,140,2|8,0:0|0:0,0:0:0:0:
328,92,110718,2,0,P|366:90|400:80,1,70,0|0,0:0|0:0,0:0:0:0:
464,28,111071,1,2,0:0:0:0:
476,112,111248,2,0,P|468:152|472:200,1,70,8|0,0:0|0:0,0:0:0:0:
484,264,111601,6,0,P|409:270|352:232,1,140,2|8,0:0|0:0,0:0:0:0:
312,168,112130,1,0,0:0:0:0:
248,112,112307,2,0,P|232:144|232:184,1,70,0|2,0:0|0:0,0:0:0:0:
280,248,112660,1,8,0:0:0:0:
280,248,112836,1,0,0:0:0:0:
236,320,113013,6,0,P|196:324|160:318,1,70,2|0,0:0|0:0,0:0:0:0:
112,256,113366,1,8,0:0:0:0:
112,256,113542,1,0,0:0:0:0:
84,176,113718,1,0,0:0:0:0:
164,148,113895,1,2,0:0:0:0:
164,148,113983,1,2,0:0:0:0:
164,148,114071,2,0,L|172:72,1,70,8|2,0:0|0:0,0:0:0:0:
244,36,114424,6,0,L|272:184,1,140,2|8,0:0|0:0,0:0:0:0:
220,240,114954,2,0,P|288:256|348:204,1,140,0|2,0:0|0:0,0:0:0:0:
344,132,115483,1,8,0:0:0:0:
416,176,115660,1,0,0:0:0:0:
416,176,115836,6,0,L|440:320,1,140,2|8,0:0|0:0,0:0:0:0:
380,372,116366,1,0,0:0:0:0:
380,372,116542,2,0,P|341:371|308:360,2,70,0|2|8,0:0|0:0|0:0,0:0:0:0:
356,292,117071,1,0,0:0:0:0:
356,292,117248,6,0,L|332:153,1,140,2|8,0:0|0:0,0:0:0:0:
280,88,117777,2,0,P|240:84|208:88,1,70,0|0,0:0|0:0,0:0:0:0:
140,132,118130,1,2,0:0:0:0:
124,216,118307,2,0,P|158:216|190:201,1,70,8|0,0:0|0:0,0:0:0:0:
210,87,118660,5,2,0:0:0:0:
140,132,118836,1,0,0:0:0:0:
184,284,119013,1,8,0:0:0:0:
190,201,119189,1,0,0:0:0:0:
264,156,119366,2,0,L|348:152,1,70,0|2,0:0|0:0,0:0:0:0:
356,168,119630,1,2,0:0:0:0:
356,168,119718,1,8,0:0:0:0:
412,232,119895,1,2,0:0:0:0:
472,292,120071,6,0,P|492:208|456:160,1,140,6|8,0:0|0:0,0:0:0:0:
408,104,120601,2,0,P|400:64|388:28,1,70,0|0,0:0|0:0,0:0:0:0:
312,8,120954,1,2,0:0:0:0:
272,80,121130,1,8,0:0:0:0:
272,80,121307,1,0,0:0:0:0:
312,156,121483,6,0,P|276:164|232:156,1,70,2|0,0:0|0:0,0:0:0:0:
188,96,121836,1,8,0:0:0:0:
160,176,122013,1,0,0:0:0:0:
132,256,122189,2,0,L|212:248,2,70,0|2|8,0:0|0:0|0:0,0:0:0:0:
104,336,122718,6,0,L|248:352,1,140,0|0,0:0|0:0,0:0:0:0:
320,320,123248,2,0,P|312:280|316:244,1,70,8|0,0:0|0:0,0:0:0:0:
384,204,123601,1,0,0:0:0:0:
384,204,123777,1,2,0:0:0:0:
348,128,123954,2,0,L|264:128,1,70,8|0,0:0|0:0,0:0:0:0:
200,96,124307,5,2,0:0:0:0:
200,96,124483,1,0,0:0:0:0:
128,136,124660,1,8,0:0:0:0:
128,136,124836,2,0,P|148:208|142:289,1,140,0|2,0:0|0:0,0:0:0:0:
128,296,125277,1,2,0:0:0:0:
128,296,125366,2,0,P|116:336|124:388,1,70,8|2,0:0|0:0,0:0:0:0:
200,368,125718,5,2,0:0:0:0:
200,368,125895,1,0,0:0:0:0:
264,316,126071,1,8,0:0:0:0:
264,316,126248,1,0,0:0:0:0:
344,344,126424,2,0,P|368:320|384:288,1,70,0|2,0:0|0:0,0:0:0:0:
404,208,126777,1,8,0:0:0:0:
412,124,126954,6,0,P|336:104|276:128,1,140,0|0,0:0|0:0,0:0:0:0:
167,198,127483,2,0,P|202:203|236:196,1,70,8|0,0:0|0:0,0:0:0:0:
320,204,127836,2,0,L|308:288,2,70,0|2|8,0:0|0:0|0:0,0:0:0:0:
280,124,128366,1,0,0:0:0:0:
280,124,128542,5,6,0:0:0:0:
228,284,128895,1,2,0:0:0:0:
116,160,129248,1,2,0:0:0:0:
280,124,129601,1,2,0:0:0:0:
228,284,129954,5,2,0:0:0:0:
228,284,130130,1,2,0:0:0:0:
116,160,130307,1,2,0:0:0:0:
116,160,130483,1,2,0:0:0:0:
68,320,130660,2,0,L|92:295,3,35,2|2|2|2,0:0|0:0|0:0|0:0,0:0:0:0:
124,268,131013,2,0,L|148:243,2,35,8|8|2,0:0|0:0|0:0,0:0:0:0:
220,172,131366,5,6,0:0:0:0:
220,172,137013,5,6,0:0:0:0:
220,172,137189,2,0,L|212:244,2,56,2|2|2,0:0|0:0|0:0,0:0:0:0:
280,112,137719,1,0,0:0:0:0:
344,268,138072,2,0,P|316:271|288:265,1,56,0|0,0:0|0:0,0:0:0:0:
213,227,138424,5,0,0:0:0:0:
160,68,138778,1,2,0:0:0:0:
48,192,139130,1,2,0:0:0:0:
100,352,139483,1,2,0:0:0:0:
213,227,139837,5,2,0:0:0:0:
213,227,140013,1,2,0:0:0:0:
272,288,140189,2,0,P|304:288|336:280,1,56,2|2,0:0|0:0,0:0:0:0:
400,244,140542,1,2,0:0:0:0:
400,244,140719,1,2,0:0:0:0:
424,164,140895,2,0,L|412:100,1,56,2|2,0:0|0:0,0:0:0:0:
356,44,141248,6,0,L|328:37,2,28,2|2|2,0:0|0:0|0:0,0:0:0:0:
272,100,141601,2,0,L|244:93,2,28,2|2|2,0:0|0:0|0:0,0:0:0:0:
196,164,141954,2,0,L|168:157,2,28,2|2|2,0:0|0:0|0:0,0:0:0:0:
112,220,142307,1,2,0:0:0:0:
112,220,142395,1,2,0:0:0:0:
112,220,142483,2,0,L|76:212,2,28,2|2|6,0:0|0:0|0:0,0:0:0:0:
440,160,143366,6,0,L|476:152,2,28,0|0|0,0:0|0:0|0:0,0:0:0:0:
416,240,143718,2,0,P|376:240|340:232,1,56,8|0,0:1|0:0,0:0:0:0:
300,152,144071,6,0,P|232:176|152:164,1,140,6|8,0:0|0:0,0:0:0:0:
92,124,144601,1,0,0:0:0:0:
168,84,144777,2,0,L|168:4,1,70,0|2,0:0|0:0,0:0:0:0:
92,208,145130,1,8,0:0:0:0:
92,208,145307,1,0,0:0:0:0:
148,272,145483,6,0,P|176:288|216:292,1,70,2|0,0:0|0:0,0:0:0:0:
288,256,145836,1,8,0:0:0:0:
288,256,146013,1,0,0:0:0:0:
356,208,146189,2,0,L|364:168,2,35,0|0|2,0:0|0:0|0:0,0:0:0:0:
364,292,146542,2,0,P|360:328|374:382,1,70,8|0,0:0|0:0,0:0:0:0:
444,324,146895,6,0,L|452:248,1,70,2|0,0:0|0:0,0:0:0:0:
488,176,147248,2,0,L|480:100,1,70,8|0,0:0|0:0,0:0:0:0:
432,36,147601,2,0,L|344:44,1,70,0|2,0:0|0:0,0:0:0:0:
304,104,147954,1,8,0:0:0:0:
236,156,148130,6,0,P|300:188|368:164,1,140,0|0,0:0|0:0,0:0:0:0:
420,108,148660,1,8,0:0:0:0:
440,188,148836,2,0,L|424:328,1,140,0|2,0:0|0:0,0:0:0:0:
400,344,149277,1,2,0:0:0:0:
400,344,149366,2,0,P|352:352|296:332,1,70,8|0,0:0|0:0,0:0:0:0:
153,316,149718,6,0,P|208:276|276:288,1,140,2|8,0:0|0:0,0:0:0:0:
360,272,150248,2,0,L|352:196,1,70,0|0,0:0|0:0,0:0:0:0:
380,124,150601,1,2,0:0:0:0:
296,136,150777,2,0,P|256:136|208:120,1,70,8|0,0:0|0:0,0:0:0:0:
176,60,151130,5,2,0:0:0:0:
112,116,151307,1,0,0:0:0:0:
164,184,151483,1,8,0:0:0:0:
164,184,151660,2,0,L|168:280,1,70,0|0,0:0|0:0,0:0:0:0:
112,320,152013,1,2,0:0:0:0:
196,336,152189,2,0,P|230:335|265:342,1,70,8|0,0:0|0:0,0:0:0:0:
344,368,152542,6,0,L|336:292,1,70,2|0,0:0|0:0,0:0:0:0:
396,236,152895,1,8,0:0:0:0:
468,280,153071,2,0,L|512:276,2,35,0|0|0,0:0|0:0|0:0,0:0:0:0:
312,216,153424,1,2,0:0:0:0:
372,156,153601,2,0,L|380:80,1,70,8|0,0:0|0:0,0:0:0:0:
304,48,153954,6,0,L|224:36,1,70,2|0,0:0|0:0,0:0:0:0:
98,102,154307,2,0,L|168:92,1,70,8|0,0:0|0:0,0:0:0:0:
248,124,154660,1,0,0:0:0:0:
296,192,154836,1,2,0:0:0:0:
296,192,154924,1,2,0:0:0:0:
296,192,155013,2,0,P|296:232|284:276,1,70,8|2,0:0|0:0,0:0:0:0:
224,312,155366,6,0,P|292:292|352:328,1,140,6|8,0:0|0:0,0:0:0:0:
280,376,155895,1,0,0:0:0:0:
148,352,156071,2,0,P|112:352|68:360,1,70,0|2,0:0|0:0,0:0:0:0:
32,288,156424,2,0,L|40:212,1,70,8|0,0:0|0:0,0:0:0:0:
100,160,156777,5,2,0:0:0:0:
100,160,156954,1,0,0:0:0:0:
176,128,157130,2,0,P|212:128|256:140,1,70,8|0,0:0|0:0,0:0:0:0:
288,208,157483,2,0,L|280:248,2,35,0|0|2,0:0|0:0|0:0,0:0:0:0:
328,132,157836,2,0,L|320:56,1,70,8|0,0:0|0:0,0:0:0:0:
404,164,158189,5,2,0:0:0:0:
464,224,158366,2,0,P|468:268|462:298,1,70,0|8,0:0|0:0,0:0:0:0:
416,364,158718,1,0,0:0:0:0:
416,364,158895,2,0,L|336:352,1,70,0|2,0:0|0:0,0:0:0:0:
280,300,159248,1,8,0:0:0:0:
212,348,159424,1,0,0:0:0:0:
152,288,159601,6,0,P|144:256|148:208,1,70,2|0,0:0|0:0,0:0:0:0:
164,136,159954,1,8,0:0:0:0:
112,72,160130,1,0,0:0:0:0:
196,60,160307,2,0,L|280:48,1,70,0|2,0:0|0:0,0:0:0:0:
288,68,160571,1,2,0:0:0:0:
288,68,160660,2,0,P|276:108|276:140,1,70,8|2,0:0|0:0,0:0:0:0:
311,211,161013,6,0,P|374:240|441:223,1,140,2|8,0:0|0:0,0:0:0:0:
268,284,161542,2,0,P|201:267|138:295,1,140,0|2,0:0|0:0,0:0:0:0:
56,312,162071,2,0,P|52:360|64:404,1,70,8|0,0:0|0:0,0:0:0:0:
138,295,162424,5,2,0:0:0:0:
156,212,162601,2,0,L|148:136,1,70,0|8,0:0|0:0,0:0:0:0:
196,72,162954,2,0,L|348:88,1,140,0|2,0:0|0:0,0:0:0:0:
312,168,163483,2,0,L|381:161,1,70,8|0,0:0|0:0,0:0:0:0:
448,112,163836,5,6,0:0:0:0:
355,254,164189,1,2,0:0:0:0:
335,86,164542,1,2,0:0:0:0:
228,216,164895,1,2,0:0:0:0:
320,332,165248,5,6,0:0:0:0:
355,254,165424,1,2,0:0:0:0:
388,176,165601,1,2,0:0:0:0:
304,184,165777,1,2,0:0:0:0:
404,324,165954,2,0,L|444:320,4,35,2|2|2|2|8,0:0|0:0|0:0|0:0|0:0,0:0:0:0:
404,324,166660,5,2,0:0:0:0:
404,324,183601,5,2,0:0:0:0:
324,352,183777,2,0,L|248:340,2,56,2|2|2,0:0|0:0|0:0,0:0:0:0:
404,324,184307,1,0,0:0:0:0:
248,260,184660,2,0,L|172:272,1,56,0|0,0:0|0:0,0:0:0:0:
116,236,185013,6,0,L|96:164,2,56,0|0|0,0:0|0:0|0:0,0:0:0:0:
124,320,185542,1,0,0:0:0:0:
192,268,185718,2,0,L|256:260,1,56,0|0,0:0|0:0,0:0:0:0:
304,200,186072,2,0,L|364:208,1,56,0|0,0:0|0:0,0:0:0:0:
444,216,186424,6,0,L|464:152,2,56,2|2|2,0:0|0:0|0:0,0:0:0:0:
392,284,186954,2,0,L|368:352,2,56,2|2|2,0:0|0:0|0:0,0:0:0:0:
359,207,187483,2,0,L|304:200,1,56,2|2,0:0|0:0,0:0:0:0:
252,132,187836,5,2,0:0:0:0:
224,212,188013,2,0,L|228:280,1,56,2|2,0:0|0:0,0:0:0:0:
172,100,188366,1,2,0:0:0:0:
144,180,188542,2,0,L|148:256,1,56,2|2,0:0|0:0,0:0:0:0:
92,68,188894,1,0,0:0:0:0:
64,148,189071,1,2,0:0:0:0:
172,100,189248,6,0,L|176:68,2,28,2|2|2,0:0|0:0|0:0,0:0:0:0:
252,132,189601,2,0,L|256:100,2,28,2|2|2,0:0|0:0|0:0,0:0:0:0:
332,160,189954,2,0,L|336:128,2,28,2|2|2,0:0|0:0|0:0,0:0:0:0:
412,188,190307,1,2,0:0:0:0:
412,188,190395,1,2,0:0:0:0:
412,188,190483,2,0,L|416:156,2,28,2|2|6,0:0|0:0|0:0,0:0:0:0:
96,308,191366,6,0,L|80:352,2,28,0|0|0,0:0|0:0|0:0,0:0:0:0:
124,228,191718,2,0,L|112:152,1,56,8|0,0:1|0:0,0:0:0:0:
152,76,192071,6,0,P|224:92|276:56,1,140,6|8,0:0|0:0,0:0:0:0:
352,20,192601,2,0,P|396:20|448:36,1,70,0|0,0:0|0:0,0:0:0:0:
460,100,192953,1,2,0:0:0:0:
420,172,193130,2,0,L|440:256,1,70,8|0,0:0|0:0,0:0:0:0:
400,316,193483,5,2,0:0:0:0:
400,316,193659,1,0,0:0:0:0:
340,256,193836,2,0,P|300:256|264:268,1,70,8|0,0:0|0:0,0:0:0:0:
220,328,194189,2,0,L|232:364,2,35,0|0|2,0:0|0:0|0:0,0:0:0:0:
188,248,194541,1,8,0:0:0:0:
136,316,194718,1,0,0:0:0:0:
188,248,194894,6,0,L|192:176,1,70,2|0,0:0|0:0,0:0:0:0:
140,112,195247,1,8,0:0:0:0:
200,52,195424,1,0,0:0:0:0:
251,119,195601,2,0,P|285:128|319:119,2,70,0|2|8,0:0|0:0|0:0,0:0:0:0:
284,44,196130,1,0,0:0:0:0:
368,52,196306,6,0,P|392:84|400:132,1,70,2|0,0:0|0:0,0:0:0:0:
364,188,196659,1,8,0:0:0:0:
324,264,196836,2,0,P|388:296|464:248,1,140,0|2,0:0|0:0,0:0:0:0:
468,252,197277,1,2,0:0:0:0:
468,252,197365,1,8,0:0:0:0:
456,168,197541,1,2,0:0:0:0:
388,216,197718,6,0,P|372:304|408:348,1,140,2|8,0:0|0:0,0:0:0:0:
320,376,198248,2,0,L|236:368,1,70,0|0,0:0|0:0,0:0:0:0:
212,296,198601,1,2,0:0:0:0:
136,264,198777,2,0,P|132:304|148:356,1,70,8|0,0:0|0:0,0:0:0:0:
204,212,199130,5,2,0:0:0:0:
232,132,199306,2,0,L|236:88,2,35,0|0|8,0:0|0:0|0:0,0:0:0:0:
148,144,199660,2,0,P|112:144|72:132,1,70,0|0,0:0|0:0,0:0:0:0:
40,60,200013,1,2,0:0:0:0:
28,200,200188,1,8,0:0:0:0:
79,135,200365,1,0,0:0:0:0:
124,64,200542,6,0,L|196:52,1,70,2|0,0:0|0:0,0:0:0:0:
276,64,200895,1,8,0:0:0:0:
316,140,201071,2,0,P|384:172|444:144,1,140,0|2,0:0|0:0,0:0:0:0:
380,88,201600,1,8,0:0:0:0:
316,140,201777,6,0,L|324:216,1,70,0|2,0:0|0:0,0:0:0:0:
380,272,202130,2,0,L|416:288,2,35,0|0|8,0:0|0:0|0:0,0:0:0:0:
296,292,202483,1,0,0:0:0:0:
240,228,202659,1,0,0:0:0:0:
212,308,202836,2,0,L|184:336,2,35,2|2|8,0:0|0:0|0:0,0:0:0:0:
156,244,203188,1,2,0:0:0:0:
156,244,203277,1,8,0:0:0:0:
156,244,203366,6,0,P|88:224|28:264,1,140,6|8,0:0|0:0,0:0:0:0:
100,308,203895,1,0,0:0:0:0:
240,228,204071,2,0,P|240:188|232:156,1,70,0|2,0:0|0:0,0:0:0:0:
162,54,204424,2,0,P|155:89|156:124,1,70,8|0,0:0|0:0,0:0:0:0:
233,158,204777,5,2,0:0:0:0:
304,112,204954,1,0,0:0:0:0:
388,128,205130,2,0,L|472:144,1,70,8|0,0:0|0:0,0:0:0:0:
502,231,205483,2,0,L|468:224,2,35,0|0|2,0:0|0:0|0:0,0:0:0:0:
384,212,205836,2,0,P|380:256|396:300,1,70,8|0,0:0|0:0,0:0:0:0:
420,356,206189,5,2,0:0:0:0:
336,348,206366,2,0,L|264:360,1,70,0|8,0:0|0:0,0:0:0:0:
196,312,206718,1,0,0:0:0:0:
132,256,206895,2,0,L|124:221,2,35,0|0|2,0:0|0:0|0:0,0:0:0:0:
188,168,207248,2,0,L|168:84,1,70,8|0,0:0|0:0,0:0:0:0:
124,32,207601,6,0,P|92:24|40:32,1,70,2|0,0:0|0:0,0:0:0:0:
12,100,207954,1,8,0:0:0:0:
12,100,208130,1,0,0:0:0:0:
36,180,208307,2,0,L|57:257,1,70,0|2,0:0|0:0,0:0:0:0:
40,288,208571,1,2,0:0:0:0:
40,288,208660,2,0,P|68:312|116:320,1,70,8|2,0:0|0:0,0:0:0:0:
176,360,209013,6,0,P|236:320|316:344,1,140,2|8,0:0|0:0,0:0:0:0:
459,284,209542,2,0,P|391:295|336:256,1,140,0|2,0:0|0:0,0:0:0:0:
252,260,210071,2,0,L|264:184,1,70,8|0,0:0|0:0,0:0:0:0:
344,172,210424,5,2,0:0:0:0:
344,172,210601,2,0,L|332:96,1,70,0|8,0:0|0:0,0:0:0:0:
288,32,210954,2,0,P|232:20|148:20,1,140,0|2,0:0|0:0,0:0:0:0:
120,100,211483,2,0,L|32:112,1,70,8|0,0:0|0:0,0:0:0:0:
20,188,211836,5,6,0:0:0:0:
184,156,212189,1,2,0:0:0:0:
348,188,212542,1,2,0:0:0:0:
184,228,212895,1,2,0:0:0:0:
20,188,213248,5,6,0:0:0:0:
20,188,213424,1,2,0:0:0:0:
44,268,213601,1,2,0:0:0:0:
44,268,213777,1,2,0:0:0:0:
104,328,213954,2,0,L|156:312,3,35,2|2|2|2,0:0|0:0|0:0|0:0,0:0:0:0:
172,344,214307,2,0,L|224:328,3,35,8|2|2|2,0:0|0:0|0:0|0:0,0:0:0:0:
248,324,214660,6,0,P|312:348|384:312,2,140,6|8|0,3:2|3:2|3:0,0:0:0:0:
196,256,215542,1,2,0:0:0:0:
264,204,215719,2,0,P|268:164|261:121,1,70,8|0,3:2|3:0,0:0:0:0:
236,56,216072,5,2,0:0:0:0:
236,56,216248,1,0,3:0:0:0:
160,88,216425,1,8,0:0:0:0:
160,88,216601,1,0,3:0:0:0:
320,72,216778,2,0,L|408:84,1,70,0|2,3:0|3:2,0:0:0:0:
469,173,217130,2,0,L|400:164,1,70,8|0,3:2|3:0,0:0:0:0:
316,156,217484,6,0,P|300:216|332:284,1,140,2|8,3:2|3:2,0:0:0:0:
388,348,218013,1,0,0:0:0:0:
304,364,218189,2,0,P|264:364|224:348,2,70,0|2|8,3:0|3:2|3:2,0:0:0:0:
200,276,218719,6,0,L|112:292,1,70,0|2,3:0|0:0,0:0:0:0:
108,208,219071,2,0,L|20:224,1,70,0|8,3:0|0:0,0:0:0:0:
0,144,219425,1,0,3:0:0:0:
48,72,219601,1,0,3:0:0:0:
116,124,219778,1,2,3:2:0:0:
116,124,219866,1,2,0:0:0:0:
116,124,219954,2,0,L|200:124,1,70,8|2,3:2|3:2,0:0:0:0:
248,64,220307,6,0,P|220:132|248:192,2,140,2|8|0,3:2|3:2|3:0,0:0:0:0:
304,128,221189,1,2,0:0:0:0:
376,84,221366,2,0,P|416:80|460:88,1,70,8|0,3:2|3:0,0:0:0:0:
472,164,221719,5,2,0:0:0:0:
420,228,221895,1,0,3:0:0:0:
484,284,222072,1,8,0:0:0:0:
404,312,222248,1,0,3:0:0:0:
344,256,222425,2,0,L|256:268,1,70,0|2,3:0|3:2,0:0:0:0:
236,340,222778,2,0,L|152:328,1,70,8|0,3:2|3:0,0:0:0:0:
82,311,223131,6,0,P|124:257|192:248,1,140,2|8,3:2|3:2,0:0:0:0:
248,184,223660,1,0,0:0:0:0:
248,184,223837,2,0,L|236:100,1,70,0|2,3:0|0:0,0:0:0:0:
292,48,224189,1,8,3:2:0:0:
356,104,224366,6,0,P|388:116|444:112,1,70,0|2,3:0|0:0,0:0:0:0:
238,114,224718,2,0,P|206:102|150:106,2,70,0|8|0,3:0|3:2|3:0,0:0:0:0:
304,168,225248,1,0,0:0:0:0:
312,252,225425,1,2,3:2:0:0:
312,252,225513,1,2,0:0:0:0:
312,252,225601,2,0,L|292:328,1,70,8|2,3:2|3:2,0:0:0:0:
220,364,225954,6,0,L|192:226,2,140,6|8|0,3:2|3:2|3:0,0:0:0:0:
294,319,226837,1,2,0:0:0:0:
368,360,227013,2,0,L|448:348,1,70,8|0,3:2|3:0,0:0:0:0:
480,276,227366,5,2,0:0:0:0:
492,192,227542,2,0,P|488:160|472:120,1,70,0|8,3:0|0:0,0:0:0:0:
428,56,227895,1,0,3:0:0:0:
392,132,228072,1,0,3:0:0:0:
392,132,228248,1,2,3:2:0:0:
356,208,228424,2,0,P|320:212|272:202,1,70,8|0,3:2|3:0,0:0:0:0:
256,128,228778,6,0,P|192:104|116:144,1,140,2|8,3:2|3:2,0:0:0:0:
72,192,229307,1,0,0:0:0:0:
64,276,229484,2,0,L|76:356,2,70,0|2|8,3:0|3:2|3:2,0:0:0:0:
72,192,230013,1,0,3:0:0:0:
48,112,230189,5,2,0:0:0:0:
104,48,230366,2,0,P|136:48|180:60,1,70,0|8,3:0|0:0,0:0:0:0:
236,116,230719,1,0,3:0:0:0:
284,44,230895,2,0,P|308:72|320:104,1,70,0|2,3:0|3:2,0:0:0:0:
316,144,231160,1,2,0:0:0:0:
316,144,231248,1,8,3:2:0:0:
184,184,231425,1,2,3:2:0:0:
236,252,231601,6,0,P|300:280|372:268,2,140,2|8|0,3:2|3:2|3:0,0:0:0:0:
152,264,232484,1,2,0:0:0:0:
100,196,232660,2,0,L|88:112,1,70,8|0,3:2|3:0,0:0:0:0:
20,172,233013,5,2,0:0:0:0:
20,172,233189,2,0,L|29:241,1,70,0|8,3:0|0:0,0:0:0:0:
80,308,233542,1,0,3:0:0:0:
152,348,233719,2,0,P|188:356|236:352,1,70,0|2,3:0|3:2,0:0:0:0:
364,308,234071,2,0,P|330:308|296:316,1,70,8|0,3:2|3:0,0:0:0:0:
224,272,234425,5,6,3:2:0:0:
316,132,234778,1,2,3:2:0:0:
148,116,235131,2,0,L|56:136,1,70,2|0,3:2|3:0,0:0:0:0:
68,216,235484,2,0,P|32:240|16:272,1,70,2|0,3:2|3:0,0:0:0:0:
56,340,235837,5,6,0:0:0:0:
56,340,236013,1,2,3:2:0:0:
184,252,236189,1,2,0:0:0:0:
184,252,236366,1,2,0:0:0:0:
136,320,236542,2,0,L|160:360,3,35,2|2|2|2,0:0|0:0|0:0|0:0,0:0:0:0:
196,360,236895,2,0,L|236:372,2,35,8|8|2,0:0|0:0|0:0,0:0:0:0:
184,252,237248,5,6,0:0:0:0:
