osu file format v14

[General]
AudioFilename: audio.mp3
AudioLeadIn: 0
PreviewTime: 63726
Countdown: 0
SampleSet: Soft
StackLeniency: 0.7
Mode: 2
LetterboxInBreaks: 0
WidescreenStoryboard: 1

[Editor]
Bookmarks: 8591,19140,29689,40239,50788,63978,74521
DistanceSpacing: 0.9
BeatDivisor: 4
GridSize: 4
TimelineZoom: 2.3

[Metadata]
Title:Megumi no Ame (TV Size)
TitleUnicode:芽ぐみの雨 (TV Size)
Artist:yanaginagi
ArtistUnicode:やなぎなぎ
Creator:Yumeno Himiko
Version:Salad
Source:やはり俺の青春ラブコメはまちがっている。完
Tags:My Youth Romantic Comedy Is Wrong, As I Expected Yahari Ore no Seishun Rabukome wa Machigatteiru OreGairu Kan Hamachi Season 3 op opening Anime Japanese Pop JPop J-Pop 比企谷八幡 Hikigaya Hachiman 雪ノ下雪乃 Yukinoshita Yukino 由比ヶ浜結衣 Yuigahama Yui examination exam -Luminate Greaper
BeatmapID:2484235
BeatmapSetID:1192135

[Difficulty]
HPDrainRate:4
CircleSize:2.8
OverallDifficulty:7
ApproachRate:7
SliderMultiplier:1.6
SliderTickRate:1

[Events]
//Background and Video events
0,0,"78259498_p0.jpg",0,0
Video,-229,"op.avi"
//Break Periods
//Storyboard Layer 0 (Background)
//Storyboard Layer 1 (Fail)
//Storyboard Layer 2 (Pass)
//Storyboard Layer 3 (Foreground)
//Storyboard Layer 4 (Overlay)
//Storyboard Sound Samples

[TimingPoints]
694,328.767123287672,4,2,1,40,1,0
3324,331.034482758621,4,2,1,40,1,0
5958,338.983050847458,4,2,1,70,1,0
6940,342.857142857143,4,2,1,70,1,0
7625,304.568527918782,4,2,1,70,1,0
7931,309.278350515464,4,2,1,50,1,0
8240,329.67032967033,4,2,1,50,1,0
8240,-100,4,2,1,70,0,0
8591,329.67032967033,4,2,1,80,1,0
11228,-100,4,2,0,80,0,0
11310,-100,4,2,1,80,0,0
11887,-100,4,2,1,70,0,0
12051,-100,4,2,1,80,0,0
12382,-100,4,2,0,80,0,0
12464,-100,4,2,1,80,0,0
13865,-100,4,2,0,80,0,0
14195,-100,4,2,1,80,0,0
14525,-100,4,2,1,70,0,0
14689,-100,4,2,1,80,0,0
15019,-100,4,2,0,80,0,0
15101,-100,4,2,1,80,0,0
16503,-100,4,2,0,80,0,0
16585,-100,4,2,1,80,0,0
18975,-100,4,2,1,60,0,0
19140,-100,4,2,0,60,0,0
19222,-100,4,2,1,60,0,0
24415,-100,4,2,0,60,0,0
24497,-100,4,2,1,60,0,0
28371,-100,4,2,1,70,0,0
29689,-100,4,2,0,60,0,0
29772,-100,4,2,1,60,0,0
32327,-100,4,2,0,60,0,0
32409,-100,4,2,1,60,0,0
34964,-100,4,2,0,60,0,0
35047,-100,4,2,1,60,0,0
36118,-100,4,2,0,60,0,0
36200,-100,4,2,1,60,0,0
37601,-100,4,2,0,60,0,0
37684,-100,4,2,1,60,0,0
38920,-100,4,2,0,60,0,0
39003,-100,4,2,1,60,0,0
39580,-100,4,2,1,50,0,0
39909,-100,4,2,1,60,0,0
40239,-100,4,2,1,50,0,0
49799,-100,4,2,0,50,0,0
49882,-100,4,2,1,50,0,0
50788,-100,4,2,1,60,0,0
53426,-100,4,2,0,60,0,0
53508,-100,4,2,1,60,0,0
56063,-100,4,2,0,60,0,0
56145,-100,4,2,1,60,0,0
58700,328.767123287672,4,2,0,70,1,0
58700,-100,4,2,0,70,0,0
58782,-100,4,2,1,70,0,0
61330,326.086956521739,4,2,1,70,1,0
62883,400,4,2,1,70,1,0
62984,335.195530726257,4,2,1,70,1,0
63320,322.58064516129,4,2,1,70,1,0
63642,337.078651685393,4,2,1,70,1,0
63978,329.489291598023,4,2,1,80,1,1
63979,-100,4,2,1,80,0,1
69249,-100,4,2,0,80,0,1
69332,-100,4,2,1,80,0,1
70567,-100,4,2,1,70,0,1
70897,-100,4,2,1,80,0,1
71885,-100,4,2,0,80,0,1
71968,-100,4,2,1,80,0,1
73368,-100,4,2,1,70,0,1
73533,-100,4,2,1,80,0,1
74521,-100,4,2,1,70,0,0
77487,-100,4,2,1,75,0,0
77816,-100,4,2,1,80,0,0
79793,-100,4,2,1,80,0,0
82429,-100,4,2,0,80,0,0
82511,-100,4,2,1,80,0,0
84406,319.148936170213,4,2,1,80,1,0
84725,338.983050847458,4,2,1,60,1,0
84894,-100,4,2,1,60,0,0
85081,331.034482758621,4,2,0,60,1,0
85081,-100,4,2,0,60,0,0
87232,370.37037037037,4,2,1,40,1,0
88157,-100,4,2,1,20,0,0

[Colours]
Combo1 : 140,140,181
Combo2 : 255,151,151

[HitObjects]
296,304,529,5,2,0:0:0:0:
212,304,694,6,0,L|200:212,2,80,2|0|2,0:0|0:0|0:0,0:0:0:0:
312,304,1187,2,0,P|356:256|300:184,1,160,2|2,0:0|0:0,0:0:0:0:
156,184,1844,1,2,0:0:0:0:
252,184,2009,6,0,L|324:124,2,80,2|0|2,0:0|0:0|0:0,0:0:0:0:
156,184,2502,2,0,P|112:233|175:307,1,160,2|2,0:0|0:0,0:0:0:0:
284,312,3159,1,2,0:0:0:0:
380,312,3324,6,0,P|424:260|360:200,1,160,2|2,0:0|0:0,0:0:0:0:
276,192,3820,2,0,P|224:152|296:88,1,160,2|2,0:0|0:0,0:0:0:0:
364,84,4317,1,2,0:0:0:0:
268,52,4482,6,0,L|88:52,1,160,2|0,0:0|0:0,0:0:0:0:
188,52,4979,1,2,0:0:0:0:
332,136,5310,1,2,0:0:0:0:
184,216,5641,1,2,0:0:0:0:
452,336,5958,5,2,0:0:0:0:
460,280,6127,1,2,0:0:0:0:
468,228,6296,1,2,0:0:0:0:
476,180,6466,1,2,0:0:0:0:
312,212,6940,5,2,0:0:0:0:
304,164,7111,1,2,0:0:0:0:
296,124,7282,1,2,0:0:0:0:
288,76,7454,1,2,0:0:0:0:
136,288,7625,1,4,0:1:0:0:
256,288,7931,5,0,0:0:0:0:
344,248,8085,1,0,0:0:0:0:
396,176,8240,1,4,0:3:0:0:
348,96,8404,1,0,0:3:0:0:
164,20,8591,6,0,P|113:74|176:125,1,160,4|8,0:1|0:0,0:0:0:0:
288,248,9250,2,0,L|456:228,1,160,10|8,0:0|0:0,0:0:0:0:
380,272,9744,1,0,0:0:0:0:
304,300,9909,6,0,P|260:256|328:172,1,160,10|10,0:0|0:0,0:0:0:0:
408,160,10569,2,0,L|212:140,1,160,8|10,0:0|0:0,0:0:0:0:
320,188,11063,1,0,0:0:0:0:
476,320,11228,6,0,L|496:144,1,160,6|8,0:0|0:0,0:0:0:0:
332,136,11887,2,0,L|240:124,2,80,8|2|10,0:0|0:0|0:0,0:0:0:0:
492,148,12382,6,0,P|508:200|440:280,1,160,4|0,0:0|0:0,0:0:0:0:
368,288,12876,1,8,0:0:0:0:
220,308,13206,2,0,L|124:288,2,80,8|0|10,0:0|0:0|0:0,0:0:0:0:
472,160,13865,5,6,0:0:0:0:
328,160,14195,1,10,0:0:0:0:
256,160,14360,2,0,P|187:159|132:68,1,160,2|2,0:0|0:0,0:0:0:0:
204,92,14854,1,0,0:0:0:0:
356,96,15019,6,0,P|396:180|340:224,1,160,4|2,0:0|0:0,0:0:0:0:
280,224,15514,1,10,0:0:0:0:
200,232,15678,2,0,P|204:280|308:336,1,160
364,336,16173,1,8,0:0:0:0:
88,340,16503,6,0,P|52:293|92:208,1,160,6|8,0:0|0:0,0:0:0:0:
160,200,16997,2,0,L|320:188,1,160,10|0,0:0|0:0,0:0:0:0:
248,192,17492,1,8,0:0:0:0:
176,192,17656,6,0,P|130:123|179:77,1,160,10|2,0:0|0:0,0:0:0:0:
320,76,18151,1,0,0:0:0:0:
396,304,18975,1,0,0:0:0:0:
324,304,19140,6,0,L|312:208,2,80,4|2|10,0:0|0:0|0:0,0:0:0:0:
432,208,19799,2,0,L|444:112,1,80,6|6,0:0|0:0,0:0:0:0:
372,116,20129,1,8,0:0:0:0:
300,104,20294,6,0,L|132:104,1,160,6|6,0:0|0:0,0:0:0:0:
204,132,20788,1,8,0:0:0:0:
276,152,20953,2,0,P|320:204|264:272,1,160,2|6,0:0|0:0,0:0:0:0:
200,276,21448,1,10,0:0:0:0:
56,232,21777,5,2,0:0:0:0:
200,200,22107,1,10,0:0:0:0:
56,112,22437,2,0,L|52:24,2,80,4|4|8,0:0|0:0|0:0,0:0:0:0:
156,112,22931,6,0,L|156:296,1,160,4|4,0:0|0:0,0:0:0:0:
240,280,23426,1,10,0:0:0:0:
96,276,23755,2,0,L|88:176,2,80,2|4|10,0:0|0:0|0:0,0:0:0:0:
368,216,24415,6,0,P|410:157|332:103,1,160,4|10,0:0|0:0,0:0:0:0:
216,108,25074,1,6,0:0:0:0:
360,320,25404,1,10,0:0:0:0:
280,320,25569,6,0,P|208:300|168:228,1,160,2|4,0:0|0:0,0:0:0:0:
168,160,26063,1,10,0:0:0:0:
308,124,26393,1,2,0:0:0:0:
172,80,26722,1,10,0:0:0:0:
316,80,27052,6,0,P|358:151|312:200,1,160,2|10,0:0|0:0,0:0:0:0:
200,292,27711,1,2,0:0:0:0:
324,292,28041,2,0,L|336:188,1,80,10|0,0:0|0:0,0:0:0:0:
180,160,28371,6,0,L|172:64,1,80,10|10,0:0|0:0,0:0:0:0:
380,328,29030,2,0,L|392:224,1,80,10|10,0:0|0:0,0:0:0:0:
400,176,29525,1,0,0:0:0:0:
244,156,29689,6,0,L|140:148,2,80,4|2|10,0:0|0:0|0:0,0:0:0:0:
340,168,30184,2,0,P|379:224|316:292,1,160,2|6,0:0|0:0,0:0:0:0:
188,308,30843,1,2,0:0:0:0:
328,272,31173,5,4,0:0:0:0:
192,224,31503,1,2,0:0:0:0:
332,188,31832,2,0,L|340:80,2,80,6|10|2,0:0|0:0|0:0,0:0:0:0:
180,212,32327,6,0,P|137:277|205:347,1,160,6|10,0:0|0:0,0:0:0:0:
320,336,32986,2,0,L|332:240,2,80,2|6|10,0:0|0:0|0:0,0:0:0:0:
240,336,33481,6,0,P|194:267|251:220,1,160,2|4,0:0|0:0,0:0:0:0:
320,216,33975,1,8,0:0:0:0:
168,188,34305,1,2,0:0:0:0:
56,172,34634,2,0,L|48:76,1,80,10|2,0:0|0:0,0:0:0:0:
200,76,34964,6,0,L|388:52,1,160,4|8,0:0|0:0,0:0:0:0:
216,304,35623,2,0,P|172:276|228:188,1,160,2|10,0:0|0:0,0:0:0:0:
352,180,36118,6,0,P|396:108|347:58,1,160,6|4,0:0|0:0,0:0:0:0:
280,60,36612,1,8,0:0:0:0:
136,84,36942,1,2,0:0:0:0:
280,60,37272,2,0,L|272:168,1,80,10|2,0:0|0:0,0:0:0:0:
120,152,37601,6,0,P|104:204|192:268,1,160,4|8,0:0|0:0,0:0:0:0:
304,260,38261,2,0,L|388:256,2,80,2|0|8,0:0|0:0|0:0,0:0:0:0:
152,168,38920,6,0,L|64:148,2,80,6|0|8,0:0|0:0|0:0,0:0:0:0:
436,336,39580,1,2,0:3:0:0:
440,284,39744,1,2,0:3:0:0:
444,236,39909,1,8,0:0:0:0:
144,332,40239,6,0,P|108:268|260:116,1,320,2|2,0:0|0:0,0:0:0:0:
320,336,41558,6,0,P|248:328|132:104,1,320,2|2,0:0|0:0,0:0:0:0:
344,120,42711,1,0,0:0:0:0:
264,120,42876,6,0,P|192:148|280:316,1,320,2|2,0:0|0:0,0:0:0:0:
416,300,43865,1,0,0:0:0:0:
264,288,44195,6,0,P|224:248|276:168,1,160,2|2,0:0|0:0,0:0:0:0:
400,140,44854,1,2,0:0:0:0:
268,116,45184,1,2,0:0:0:0:
104,76,45514,5,0,3:0:0:0:
104,76,45843,1,0,3:0:0:0:
240,128,46173,1,2,3:2:0:0:
240,128,46503,1,0,3:0:0:0:
376,172,46832,5,2,3:2:0:0:
376,172,47162,1,0,3:0:0:0:
240,220,47492,1,2,3:2:0:0:
240,220,47821,1,0,3:0:0:0:
352,308,48151,5,2,3:2:0:0:
216,260,48481,1,0,3:0:0:0:
356,232,48810,1,2,3:2:0:0:
216,180,49140,1,0,3:0:0:0:
356,152,49470,5,2,3:2:0:0:
212,312,49799,2,0,L|116:300,1,80,4|0,0:0|0:0,0:0:0:0:
216,288,50129,2,0,L|396:272,1,160,2|8,3:2|0:0,0:0:0:0:
308,252,50623,1,0,0:0:0:0:
156,192,50788,6,0,P|120:228|172:316,1,160,4|4,0:1|0:0,0:0:0:0:
308,324,51448,1,6,0:0:0:0:
164,332,51777,2,0,L|268:324,1,80,4|0,0:0|0:0,0:0:0:0:
316,328,52107,6,0,P|363:273|300:216,1,160,6|4,0:0|0:0,0:0:0:0:
172,200,52766,1,6,0:0:0:0:
312,168,53096,2,0,L|391:171,1,80,4|0,0:0|0:0,0:0:0:0:
240,148,53426,6,0,L|68:136,1,160,4|0,0:0|0:0,0:0:0:0:
204,212,54085,1,6,0:0:0:0:
84,288,54415,2,0,L|76:196,1,80,4|0,0:0|0:0,0:0:0:0:
148,196,54744,6,0,L|324:180,2,160,2|6|6,0:0|0:0|0:0,0:0:0:0:
272,312,55733,2,0,L|280:212,1,80,4|0,0:0|0:0,0:0:0:0:
128,220,56063,6,0,P|80:174|136:112,1,160,4|10,0:0|0:0,0:0:0:0:
200,108,56558,1,2,0:0:0:0:
60,324,56887,2,0,L|52:232,2,80,2|8|0,0:0|0:0|0:0,0:0:0:0:
132,324,57382,6,0,L|296:296,1,160,2|10,0:0|0:0,0:0:0:0:
224,268,57876,1,2,0:0:0:0:
368,264,58206,2,0,L|376:180,2,80,2|8|0,0:0|0:0|0:0,0:0:0:0:
212,176,58700,6,0,P|172:204|208:300,1,160,6|2,0:0|0:0,0:0:0:0:
272,300,59193,1,10,0:0:0:0:
416,292,59521,1,0,0:0:0:0:
344,292,59686,6,0,P|272:256|260:180,1,160,10|4,0:0|0:3,0:0:0:0:
284,116,60179,1,8,0:0:0:0:
428,96,60508,1,0,0:0:0:0:
500,96,60672,2,0,L|508:200,2,80,10|2|2,0:0|0:0|0:0,0:0:0:0:
428,96,61165,1,2,0:0:0:0:
264,96,61330,6,0,L|248:204,3,80,10|2|2|2,0:0|0:0|0:0|0:0,0:0:0:0:
432,336,62308,6,0,L|444:232,3,80,2|2|2|2,0:0|0:0|0:0|0:0,0:0:0:0:
272,192,62984,1,8,0:0:0:0:
400,112,63320,5,2,0:0:0:0:
464,168,63481,1,2,0:0:0:0:
464,248,63642,1,10,0:0:0:0:
392,288,63810,1,0,0:0:0:0:
200,276,63978,6,0,P|161:193|212:156,1,160,4|10,0:1|0:0,0:0:0:0:
276,148,64472,2,0,L|444:132,2,160,2|2|2,0:0|0:0|0:0,0:0:0:0:
116,144,65295,6,0,P|80:176|124:268,1,160,10|10,0:0|0:0,0:0:0:0:
188,264,65790,2,0,L|384:248,2,160,2|2|2,0:0|0:0|0:0,0:0:0:0:
40,332,66613,6,0,P|3:279|50:206,1,160,10|10,0:0|0:0,0:0:0:0:
120,200,67108,2,0,L|316:192,1,160,2|2,0:0|0:0,0:0:0:0:
352,188,67602,1,8,0:0:0:0:
200,288,67931,6,0,L|188:184,2,80,10|2|10,0:0|0:0|0:0,0:0:0:0:
372,192,68590,2,0,L|380:100,2,80,10|0|8,0:0|0:0|0:0,0:0:0:0:
92,296,69249,6,0,P|44:244|104:176,1,160,4|10,0:0|0:0,0:0:0:0:
160,172,69744,1,2,0:0:0:0:
304,172,70073,2,0,L|204:160,1,80,2|10,0:0|0:0,0:0:0:0:
152,156,70403,6,0,L|336:136,1,160,2|2,0:0|0:0,0:0:0:0:
384,132,70897,1,8,0:0:0:0:
311,138,71062,1,2,0:0:0:0:
180,272,71391,2,0,L|80:280,2,80,2|10|2,0:0|0:0|0:0,0:0:0:0:
340,264,71885,6,0,P|379:187|319:145,1,160,4|10,0:0|0:0,0:0:0:0:
248,144,72379,2,0,P|204:84|280:24,1,160,2|2,0:0|0:0,0:0:0:0:
324,24,72874,1,10,0:0:0:0:
396,24,73038,1,2,0:0:0:0:
304,160,73368,5,0,0:0:0:0:
228,160,73533,1,10,0:0:0:0:
88,252,73862,1,10,0:0:0:0:
224,252,74192,2,0,L|320:252,1,80,10|0,0:0|0:0,0:0:0:0:
156,252,74521,6,0,P|108:192|188:132,1,160,4|8,0:1|0:0,0:0:0:0:
292,132,75180,1,6,0:0:0:0:
149,132,75510,1,10,0:0:0:0:
76,132,75674,6,0,P|44:156|96:256,1,160,2|0,0:0|0:0,0:0:0:0:
148,252,76169,1,10,0:0:0:0:
220,252,76333,2,0,L|396:244,1,160,2|2,0:0|0:0,0:0:0:0:
312,224,76828,1,8,0:0:0:0:
48,188,77157,5,10,0:0:0:0:
192,168,77487,1,8,0:0:0:0:
48,188,77816,1,10,0:0:0:0:
328,324,78146,6,0,P|383:280|311:149,1,240,10|0,0:0|0:0,0:0:0:0:
248,152,78805,1,8,0:0:0:0:
384,196,79134,2,0,L|392:100,2,80,4|8|8,0:0|0:0|0:0,0:0:0:0:
304,196,79628,1,8,0:0:0:0:
152,184,79793,6,0,P|109:223|179:296,1,160,4|10,0:1|0:0,0:0:0:0:
228,292,80287,1,2,0:0:0:0:
76,328,80617,2,0,L|68:228,2,80,2|8|2,0:0|0:0|0:0,0:0:0:0:
148,332,81111,6,0,P|208:328|276:228,1,160,10|10,0:0|0:0,0:0:0:0:
200,252,81605,2,0,P|159:172|202:130,1,160,2|0,0:0|0:0,0:0:0:0:
284,120,82099,2,0,L|284:32,1,80,10|2,0:0|0:0,0:0:0:0:
136,68,82429,6,0,P|104:108|152:196,1,160,4|8,0:0|0:0,0:0:0:0:
292,216,83088,1,10,0:0:0:0:
148,272,83417,1,10,0:0:0:0:
220,276,83582,6,0,L|396:272,1,160,8|8,0:0|0:0,0:0:0:0:
312,248,84076,1,8,0:0:0:0:
428,244,84406,2,0,P|463:196|425:99,1,160,2|4,0:0|0:0,0:0:0:0:
348,104,84894,1,0,0:0:0:0:
164,108,85081,5,4,0:0:0:0:
256,192,85412,12,0,88157,0:0:0:0:
