osu file format v14

[General]
AudioFilename: audio.mp3
AudioLeadIn: 0
PreviewTime: 63726
Countdown: 0
SampleSet: Soft
StackLeniency: 0.7
Mode: 2
LetterboxInBreaks: 0
WidescreenStoryboard: 1

[Editor]
Bookmarks: 8591,19140,29689,40239,50788,63978,74521
DistanceSpacing: 1.3
BeatDivisor: 8
GridSize: 4
TimelineZoom: 5.999997

[Metadata]
Title:Megumi no Ame (TV Size)
TitleUnicode:芽ぐみの雨 (TV Size)
Artist:yanaginagi
ArtistUnicode:やなぎなぎ
Creator:Yumeno Himiko
Version:Finale
Source:やはり俺の青春ラブコメはまちがっている。完
Tags:My Youth Romantic Comedy Is Wrong, As I Expected Yahari Ore no Seishun Rabukome wa Machigatteiru OreGairu Kan Hamachi Season 3 op opening Anime Japanese Pop JPop J-Pop 比企谷八幡 Hikigaya Hachiman 雪ノ下雪乃 Yukinoshita Yukino 由比ヶ浜結衣 Yuigahama Yui examination exam -Luminate Greaper
BeatmapID:2509415
BeatmapSetID:1192135

[Difficulty]
HPDrainRate:7
CircleSize:4.6
OverallDifficulty:9.6
ApproachRate:9.6
SliderMultiplier:1.92
SliderTickRate:2

[Events]
//Background and Video events
0,0,"78259498_p0.jpg",0,0
Video,-229,"op.avi"
//Break Periods
//Storyboard Layer 0 (Background)
//Storyboard Layer 1 (Fail)
//Storyboard Layer 2 (Pass)
//Storyboard Layer 3 (Foreground)
//Storyboard Layer 4 (Overlay)
//Storyboard Sound Samples

[TimingPoints]
694,328.767123287672,4,2,1,40,1,0
3324,331.034482758621,4,2,1,40,1,0
5958,338.983050847458,4,2,1,70,1,0
6940,342.857142857143,4,2,1,70,1,0
7625,304.568527918782,4,2,1,70,1,0
7625,-83.3333333333333,4,2,1,70,0,0
7931,309.278350515464,4,2,1,50,1,0
7931,-71.4285714285714,4,2,1,50,0,0
8240,329.67032967033,4,2,1,50,1,0
8240,-71.4285714285714,4,2,1,70,0,0
8591,329.67032967033,4,2,1,80,1,0
8591,-71.4285714285714,4,2,1,80,0,0
11228,-71.4285714285714,4,2,0,80,0,0
11310,-71.4285714285714,4,2,1,80,0,0
12382,-71.4285714285714,4,2,0,80,0,0
12464,-71.4285714285714,4,2,1,80,0,0
13865,-71.4285714285714,4,2,0,80,0,0
13948,-71.4285714285714,4,2,1,80,0,0
15019,-71.4285714285714,4,2,0,80,0,0
15101,-71.4285714285714,4,2,1,80,0,0
16503,-71.4285714285714,4,2,0,80,0,0
16585,-71.4285714285714,4,2,1,80,0,0
16750,-71.4285714285714,4,2,0,80,0,0
16832,-71.4285714285714,4,2,1,80,0,0
18975,-71.4285714285714,4,2,1,60,0,0
19140,-100,4,2,0,60,0,0
19222,-100,4,2,1,60,0,0
24415,-100,4,2,0,60,0,0
24497,-100,4,2,1,60,0,0
28371,-100,4,2,1,70,0,0
29689,-100,4,2,0,60,0,0
29772,-100,4,2,1,60,0,0
32327,-100,4,2,0,60,0,0
32409,-100,4,2,1,60,0,0
34964,-100,4,2,0,60,0,0
35047,-100,4,2,1,60,0,0
35211,-100,4,2,0,60,0,0
35294,-100,4,2,1,60,0,0
36118,-100,4,2,0,60,0,0
36200,-100,4,2,1,60,0,0
37601,-100,4,2,0,60,0,0
37684,-100,4,2,1,60,0,0
37765,-100,4,2,0,60,0,0
37931,-100,4,2,1,60,0,0
38920,-100,4,2,0,60,0,0
39003,-100,4,2,1,60,0,0
39167,-100,4,2,0,60,0,0
39250,-100,4,2,1,60,0,0
39580,-100,4,2,1,50,0,0
39909,-100,4,2,1,60,0,0
40239,-71.4285714285714,4,2,1,50,0,0
40857,-71.4285714285714,4,2,1,5,0,0
40898,-71.4285714285714,4,2,1,50,0,0
41516,-71.4285714285714,4,2,1,5,0,0
41558,-71.4285714285714,4,2,1,50,0,0
42176,-71.4285714285714,4,2,1,5,0,0
42217,-71.4285714285714,4,2,1,50,0,0
44483,-71.4285714285714,4,2,1,5,0,0
44525,-71.4285714285714,4,2,1,50,0,0
44813,-71.4285714285714,4,2,1,5,0,0
44854,-71.4285714285714,4,2,1,50,0,0
45143,-71.4285714285714,4,2,1,5,0,0
45184,-71.4285714285714,4,2,1,50,0,0
49799,-71.4285714285714,4,2,0,50,0,0
49882,-71.4285714285714,4,2,1,50,0,0
50788,-71.4285714285714,4,2,1,60,0,0
53426,-71.4285714285714,4,2,0,60,0,0
53508,-71.4285714285714,4,2,1,60,0,0
53673,-71.4285714285714,4,2,0,60,0,0
53755,-71.4285714285714,4,2,1,60,0,0
56063,-71.4285714285714,4,2,0,60,0,0
56145,-71.4285714285714,4,2,1,60,0,0
56310,-71.4285714285714,4,2,0,60,0,0
56393,-71.4285714285714,4,2,1,60,0,0
58700,328.767123287672,4,2,0,70,1,0
58700,-71.4285714285714,4,2,0,70,0,0
58782,-71.4285714285714,4,2,1,70,0,0
61330,326.086956521739,4,2,1,70,1,0
62883,400,4,2,1,70,1,0
62883,-71.4285714285714,4,2,1,70,0,0
62984,335.195530726257,4,2,1,70,1,0
62984,-71.4285714285714,4,2,1,70,0,0
63320,322.58064516129,4,2,1,70,1,0
63320,-71.4285714285714,4,2,1,70,0,0
63642,337.078651685393,4,2,1,70,1,0
63642,-71.4285714285714,4,2,1,70,0,0
63978,329.489291598023,4,2,1,80,1,1
63978,-71.4285714285714,4,2,1,80,0,1
69249,-71.4285714285714,4,2,0,80,0,1
69332,-71.4285714285714,4,2,1,80,0,1
69414,-71.4285714285714,4,2,0,80,0,1
69579,-71.4285714285714,4,2,1,80,0,1
71885,-71.4285714285714,4,2,0,80,0,1
71968,-71.4285714285714,4,2,1,80,0,1
72050,-71.4285714285714,4,2,0,80,0,1
72215,-71.4285714285714,4,2,1,80,0,1
74521,-71.4285714285714,4,2,1,70,0,0
77487,-71.4285714285714,4,2,1,75,0,0
77816,-71.4285714285714,4,2,1,80,0,0
79793,-71.4285714285714,4,2,1,80,0,0
82429,-71.4285714285714,4,2,0,80,0,0
82511,-71.4285714285714,4,2,1,80,0,0
84406,319.148936170213,4,2,1,80,1,0
84406,-71.4285714285714,4,2,1,80,0,0
84565,-71.4285714285714,4,2,1,60,0,0
84725,338.983050847458,4,2,1,60,1,0
84725,-71.4285714285714,4,2,1,60,0,0
85081,331.034482758621,4,2,0,60,1,0
85081,-71.4285714285714,4,2,0,60,0,0
86901,-71.4285714285714,4,2,1,50,0,0
87232,370.37037037037,4,2,1,40,1,0
87232,-62.5,4,2,1,40,0,0
88157,-62.5,4,2,1,20,0,0

[Colours]
Combo1 : 140,140,181
Combo2 : 255,151,151

[HitObjects]
124,305,529,5,2,0:0:0:0:
360,304,694,5,2,0:0:0:0:
340,192,858,1,0,0:0:0:0:
228,192,1022,1,2,0:0:0:0:
468,192,1187,2,0,L|276:152,1,192,2|2,0:0|0:0,0:0:0:0:
396,120,1680,2,0,L|500:96,1,96,0|2,0:0|0:0,0:0:0:0:
192,96,2009,5,2,0:0:0:0:
232,204,2173,1,0,0:0:0:0:
340,244,2337,1,2,0:0:0:0:
76,324,2502,2,0,L|280:304,1,192,2|2,0:0|0:0,0:0:0:0:
144,280,2995,2,0,L|128:176,1,96,0|2,0:0|0:0,0:0:0:0:
364,88,3324,5,2,0:0:0:0:
276,148,3489,1,0,0:0:0:0:
364,208,3655,1,2,0:0:0:0:
104,320,3820,2,0,P|108:252|236:188,1,192,2|2,0:0|0:0,0:0:0:0:
340,168,4317,2,0,L|460:160,1,96,2|2,0:0|0:0,0:0:0:0:
128,344,4648,6,0,L|120:240,1,96
264,192,4979,1,2,0:0:0:0:
120,152,5144,1,0,0:0:0:0:
348,124,5310,2,0,L|456:108,1,96,2|0,0:0|0:0,0:0:0:0:
188,300,5641,2,0,L|56:284,1,96,2|0,0:0|0:0,0:0:0:0:
428,268,5958,5,2,0:0:0:0:
292,200,6127,1,2,0:0:0:0:
428,136,6296,1,2,0:0:0:0:
168,88,6466,1,2,0:0:0:0:
168,164,6940,5,2,0:0:0:0:
312,224,7111,1,2,0:0:0:0:
168,292,7282,1,2,0:0:0:0:
444,328,7454,1,2,0:0:0:0:
72,344,7625,6,0,L|200:336,1,115.199996484375,4|0,0:1|0:0,0:0:0:0:
424,268,7931,6,0,L|344:260,1,67.1999979492188
180,240,8085,2,0,L|96:228,1,67.1999979492188
340,120,8240,2,0,L|424:112,1,67.1999979492188,4|0,0:3|0:0,0:0:0:0:
124,140,8404,2,0,L|57:145,1,67.1999979492188,0|0,0:3|0:0,0:0:0:0:
296,312,8591,6,0,P|423:262|445:178,1,201.599993847656,4|0,0:1|0:0,0:0:0:0:
256,208,8920,2,0,L|252:72,1,134.399995898438,8|0,0:0|0:0,0:0:0:0:
32,304,9250,2,0,L|40:160,1,134.399995898438,10|0,0:0|0:0,0:0:0:0:
264,312,9580,2,0,L|272:160,1,134.399995898438,8|0,0:0|0:0,0:0:0:0:
496,168,9909,6,0,L|332:144,1,134.399995898438,10|2,0:0|0:0,0:0:0:0:
124,96,10239,1,10,0:0:0:0:
296,168,10404,1,2,0:0:0:0:
28,320,10569,2,0,L|32:168,1,134.399995898438,8|2,0:0|0:0,0:0:0:0:
276,88,10898,2,0,L|128:100,1,134.399995898438,8|0,0:0|0:0,0:0:0:0:
376,304,11228,6,0,L|516:292,2,134.399995898438,6|2|8,0:0|0:0|0:0,0:0:0:0:
120,244,11722,1,2,0:0:0:0:
272,192,11887,2,0,L|128:180,1,134.399995898438,8|2,0:0|0:0,0:0:0:0:
416,80,12217,1,10,0:0:0:0:
136,88,12382,6,0,L|420:116,1,268.799991796875,4|0,0:0|0:0,0:0:0:0:
240,188,12876,1,8,0:0:0:0:
472,336,13041,6,0,P|342:327|224:236,1,268.799991796875,2|2,0:0|0:0,0:0:0:0:
288,216,13453,1,2,0:0:0:0:
452,116,13536,2,0,L|300:104,1,134.399995898438,10|0,0:0|0:0,0:0:0:0:
40,272,13865,6,0,L|180:260,2,134.399995898438,6|0|10,0:0|0:0|0:0,0:0:0:0:
288,340,14360,2,0,P|332:280|188:160,1,268.799991796875,2|2,0:0|0:0,0:0:0:0:
360,120,14854,1,10,0:0:0:0:
92,304,15019,6,0,L|384:284,1,268.799991796875,4|2,0:0|0:0,0:0:0:0:
104,188,15514,2,0,L|128:36,1,134.399995898438,10|0,0:0|0:0,0:0:0:0:
360,216,15843,2,0,L|204:196,1,134.399995898438,8|0,0:0|0:0,0:0:0:0:
468,344,16173,2,0,L|484:192,1,134.399995898438,8|0,0:0|0:0,0:0:0:0:
404,188,16420,1,0,0:0:0:0:
140,92,16503,6,0,P|144:176|248:224,1,201.599993847656,6|0,0:0|0:0,0:0:0:0:
416,264,16832,2,0,L|332:280,1,67.1999979492188,8|0,0:0|0:0,0:0:0:0:
188,336,16997,6,0,P|108:288|188:208,1,201.599993847656,10|0,0:0|0:0,0:0:0:0:
324,180,17327,2,0,L|408:172,1,67.1999979492188
216,108,17492,2,0,L|144:96,1,67.1999979492188,8|0,0:0|0:0,0:0:0:0:
328,88,17656,6,0,P|396:116|316:268,1,268.799991796875,10|2,0:0|0:0,0:0:0:0:
268,264,18069,1,2,0:0:0:0:
76,264,18151,1,0,0:0:0:0:
416,328,18975,5,0,0:0:0:0:
172,328,19140,2,0,L|164:204,1,96,4|2,0:0|0:0,0:0:0:0:
412,204,19470,2,0,L|420:76,1,96,10|0,0:0|0:0,0:0:0:0:
288,64,19799,1,6,0:0:0:0:
416,48,19964,1,6,0:0:0:0:
148,184,20129,1,8,0:0:0:0:
264,184,20294,6,0,L|44:208,1,192,6|6,0:0|0:0,0:0:0:0:
352,320,20788,1,8,0:0:0:0:
236,320,20953,2,0,P|178:279|241:192,1,192,2|6,0:0|0:0,0:0:0:0:
496,96,21448,2,0,L|388:88,1,96,10|2,0:0|0:0,0:0:0:0:
128,276,21777,6,0,L|128:164,1,96,2|2,0:0|0:0,0:0:0:0:
372,276,22107,2,0,L|492:276,1,96,10|0,0:0|0:0,0:0:0:0:
288,276,22437,2,0,L|176:276,1,96,4|4,0:0|0:0,0:0:0:0:
448,104,22766,2,0,L|440:212,1,96,8|4,0:0|0:0,0:0:0:0:
296,280,23096,6,0,L|188:292,1,96,0|4,0:0|0:0,0:0:0:0:
388,164,23426,2,0,L|504:152,1,96,10|0,0:0|0:0,0:0:0:0:
228,176,23755,2,0,L|344:160,1,96,2|4,0:0|0:0,0:0:0:0:
264,148,24003,1,0,0:0:0:0:
120,108,24085,2,0,L|4:88,1,96,10|0,0:0|0:0,0:0:0:0:
248,68,24415,6,0,P|292:96|216:184,1,192,4|10,0:0|0:0,0:0:0:0:
120,208,24909,1,0,0:0:0:0:
252,292,25074,2,0,L|140:288,1,96,6|4,0:0|0:0,0:0:0:0:
396,156,25404,1,10,0:0:0:0:
256,156,25569,6,0,P|297:222|416:256,1,192,2|4,0:0|0:0,0:0:0:0:
168,332,26063,2,0,L|168:204,1,96,10|0,0:0|0:0,0:0:0:0:
328,224,26393,2,0,L|324:108,1,96,2|4,0:0|0:0,0:0:0:0:
60,80,26722,2,0,L|168:68,1,96,10|0,0:0|0:0,0:0:0:0:
420,40,27052,6,0,P|476:72|425:170,1,192,2|10,0:0|0:0,0:0:0:0:
300,188,27547,1,0,0:0:0:0:
52,308,27711,1,2,0:0:0:0:
184,296,27876,1,4,0:0:0:0:
328,280,28041,1,10,0:0:0:0:
472,256,28206,1,0,0:0:0:0:
88,124,28371,5,10,0:0:0:0:
416,92,28536,1,10,0:0:0:0:
124,244,29030,5,10,0:0:0:0:
488,344,29195,2,0,L|296:333,1,192,10|0,0:0|0:0,0:0:0:0:
60,328,29689,6,0,L|60:220,1,96,4|2,0:0|0:0,0:0:0:0:
324,112,30019,2,0,L|312:228,1,96,10|2,0:0|0:0,0:0:0:0:
176,260,30349,1,0,0:0:0:0:
316,304,30514,1,6,0:0:0:0:
72,352,30678,1,8,0:0:0:0:
224,352,30843,6,0,P|212:288|104:232,1,192,2|4,0:0|0:0,0:0:0:0:
392,232,31338,2,0,L|400:120,1,96,8|2,0:0|0:0,0:0:0:0:
240,120,31667,2,0,L|124:104,1,96,0|6,0:0|0:0,0:0:0:0:
420,44,31997,2,0,L|304:28,1,96,10|2,0:0|0:0,0:0:0:0:
88,280,32327,6,0,L|208:268,1,96,6|2,0:0|0:0,0:0:0:0:
440,252,32656,2,0,L|456:144,1,96,10|0,0:0|0:0,0:0:0:0:
192,128,32986,5,2,0:0:0:0:
48,160,33151,1,6,0:0:0:0:
372,324,33316,1,10,0:0:0:0:
228,288,33481,1,2,0:0:0:0:
380,256,33645,6,0,L|492:240,1,96,2|4,0:0|0:0,0:0:0:0:
232,248,33975,2,0,L|224:148,1,96,8|2,0:0|0:0,0:0:0:0:
496,88,34305,2,0,L|388:100,1,96,2|4,0:0|0:0,0:0:0:0:
140,288,34634,2,0,L|136:176,1,96,10|2,0:0|0:0,0:0:0:0:
408,148,34964,6,0,P|432:208|356:272,1,144,4|0,0:0|0:0,0:0:0:0:
220,312,35294,2,0,L|348:304,1,96,8|2,0:0|0:0,0:0:0:0:
144,188,35623,2,0,L|24:172,1,96,2|0,0:0|0:0,0:0:0:0:
332,88,35953,1,10,0:0:0:0:
84,104,36118,6,0,P|76:176|196:240,1,192,6|4,0:0|0:0,0:0:0:0:
392,260,36612,2,0,L|504:256,1,96,8|2,0:0|0:0,0:0:0:0:
348,148,36942,1,2,0:0:0:0:
472,140,37107,1,0,0:0:0:0:
176,328,37272,2,0,L|176:200,1,96,10|2,0:0|0:0,0:0:0:0:
396,128,37601,6,0,L|276:112,1,96,4|0,0:0|0:0,0:0:0:0:
48,220,37931,2,0,L|56:100,1,96,8|0,0:0|0:0,0:0:0:0:
328,288,38261,1,2,0:0:0:0:
192,280,38426,1,0,0:0:0:0:
452,152,38591,1,8,0:0:0:0:
320,140,38755,1,0,0:0:0:0:
48,320,38920,6,0,P|71:241|136:216,1,144,6|0,0:0|0:0,0:0:0:0:
308,164,39250,2,0,L|412:156,1,96,8|0,0:0|0:0,0:0:0:0:
180,316,39580,2,0,L|172:264,1,48,2|2,0:3|0:3,0:0:0:0:
364,240,39744,2,0,L|372:176,1,48,2|2,0:3|0:3,0:0:0:0:
188,124,39909,2,0,L|28:112,1,144,8|0,0:0|0:0,0:0:0:0:
296,76,40239,6,0,P|429:129|248:317,1,503.999984619141,2|0,0:0|0:0,0:0:0:0:
244,324,40898,6,0,B|80:240|80:240|284:236|392:120,1,503.999984619141,2|0,0:0|0:0,0:0:0:0:
375,137,41558,6,0,P|272:88|324:312,1,503.999984619141,2|0,0:0|0:0,0:0:0:0:
348,312,42217,6,0,B|484:288|484:288|204:216,1,403.199987695313,2|0,0:0|0:0,0:0:0:0:
480,76,42876,6,0,P|484:144|130:321,1,537.59998359375,2|2,0:0|0:0,0:0:0:0:
292,240,43700,2,0,L|316:84,2,134.399995898438
124,104,44195,6,0,P|159:188|298:230,1,235.199992822266,2|0,0:0|0:0,0:0:0:0:
289,199,44525,2,0,P|192:208|80:308,1,235.199992822266,2|0,0:0|0:0,0:0:0:0:
88,292,44854,6,0,P|188:288|328:240,1,235.199992822266,2|0,0:0|0:0,0:0:0:0:
315,246,45184,2,0,L|35:222,1,268.799991796875,2|0,0:0|3:0,0:0:0:0:
256,176,45843,5,0,3:0:0:0:
464,224,46173,1,2,3:2:0:0:
256,272,46503,1,0,3:0:0:0:
64,224,46832,5,2,3:2:0:0:
288,164,47162,1,0,3:0:0:0:
64,128,47492,1,2,3:2:0:0:
192,112,47656,1,0,3:0:0:0:
64,128,47821,1,0,3:0:0:0:
160,192,47986,2,0,L|240:192,1,67.1999979492188,0|0,3:0|3:0,0:0:0:0:
416,192,48151,5,2,3:2:0:0:
256,192,48481,1,0,3:0:0:0:
48,192,48810,1,2,3:2:0:0:
256,192,49140,1,0,3:0:0:0:
464,192,49470,5,2,3:2:0:0:
48,192,49799,2,0,L|200:176,1,134.399995898438,4|0,0:0|0:0,0:0:0:0:
312,320,50129,2,0,L|296:248,1,67.1999979492188,2|0,3:2|0:0,0:0:0:0:
208,252,50294,2,0,L|136:216,1,67.1999979492188
316,132,50459,2,0,L|392:132,1,67.1999979492188,8|0,0:0|0:0,0:0:0:0:
152,320,50623,2,0,L|240:320,1,67.1999979492188
448,320,50788,6,0,P|424:236|304:192,1,201.599993847656,4|0,0:1|0:0,0:0:0:0:
104,160,51118,2,0,L|240:152,1,134.399995898438,4|0,0:0|0:0,0:0:0:0:
104,320,51448,2,0,L|104:240,1,67.1999979492188,6|0,0:0|0:0,0:0:0:0:
276,196,51612,2,0,L|284:116,1,67.1999979492188,4|0,0:0|0:0,0:0:0:0:
108,84,51777,2,0,P|64:144|116:188,1,134.399995898438,4|0,0:0|0:0,0:0:0:0:
172,208,52025,1,0,0:0:0:0:
368,300,52107,6,0,L|204:280,1,134.399995898438,6|0,0:0|0:0,0:0:0:0:
308,248,52354,1,0,0:0:0:0:
472,224,52437,2,0,L|480:144,2,67.1999979492188,4|0|0,0:0|0:0|0:0,0:0:0:0:
176,148,52766,2,0,L|320:140,1,134.399995898438,6|0,0:0|0:0,0:0:0:0:
240,96,53014,1,0,0:0:0:0:
84,292,53096,2,0,L|168:280,1,67.1999979492188,4|0,0:0|0:0,0:0:0:0:
344,256,53261,2,0,L|420:244,1,67.1999979492188
224,340,53426,6,0,P|160:288|256:216,1,201.599993847656,4|0,0:0|0:0,0:0:0:0:
392,184,53755,2,0,P|440:128|404:80,1,134.399995898438
336,64,54003,1,0,0:0:0:0:
88,56,54085,2,0,L|236:68,1,134.399995898438,6|0,0:0|0:0,0:0:0:0:
480,304,54415,2,0,L|392:292,1,67.1999979492188,4|0,0:0|0:0,0:0:0:0:
212,240,54580,2,0,L|300:232,1,67.1999979492188
416,224,54744,6,0,L|428:88,1,134.399995898438,2|0,0:0|0:0,0:0:0:0:
192,320,55074,2,0,L|184:176,1,134.399995898438,6|0,0:0|0:0,0:0:0:0:
264,172,55321,1,0,0:0:0:0:
427,90,55404,2,0,L|416:240,1,134.399995898438,6|0,0:0|0:0,0:0:0:0:
172,316,55733,2,0,P|106:270|160:180,1,201.599993847656,8|0,0:3|0:0,0:0:0:0:
368,112,56063,6,0,P|424:148|344:240,1,201.599993847656,4|0,0:0|0:0,0:0:0:0:
132,336,56393,2,0,L|124:228,1,67.1999979492188,10|0,0:0|0:0,0:0:0:0:
304,176,56558,2,0,P|209:167|144:72,1,201.599993847656,2|0,0:0|0:0,0:0:0:0:
308,60,56887,1,2,0:0:0:0:
72,260,57052,2,0,L|224:244,1,134.399995898438,8|0,0:0|0:0,0:0:0:0:
456,240,57382,6,0,L|284:224,1,134.399995898438,2|0,0:0|0:0,0:0:0:0:
84,140,57711,1,10,0:0:0:0:
344,140,57876,2,0,P|384:196|284:268,1,201.599993847656,2|0,0:0|0:0,0:0:0:0:
100,336,58206,2,0,L|192:332,1,67.1999979492188,2|0,0:0|0:0,0:0:0:0:
364,336,58371,2,0,L|376:264,1,67.1999979492188,8|0,0:0|0:0,0:0:0:0:
164,200,58536,2,0,L|156:108,1,67.1999979492188
384,60,58700,6,0,L|396:208,1,134.399995898438,6|0,0:0|0:0,0:0:0:0:
228,280,59028,1,2,0:0:0:0:
472,112,59193,2,0,L|488:264,1,134.399995898438,10|0,0:0|0:0,0:0:0:0:
320,304,59521,1,0,0:0:0:0:
88,256,59686,6,0,L|76:104,1,134.399995898438,10|0,0:0|0:0,0:0:0:0:
240,96,60015,1,4,0:3:0:0:
16,348,60179,2,0,L|8:208,1,134.399995898438,8|0,0:0|0:0,0:0:0:0:
176,184,60508,1,0,0:0:0:0:
448,136,60672,1,10,0:0:0:0:
200,312,60836,2,0,L|360:312,2,134.399995898438,2|2|2,0:0|0:0|0:0,0:0:0:0:
456,312,61330,5,10,0:0:0:0:
456,312,61493,1,2,0:0:0:0:
168,160,61656,1,2,0:0:0:0:
328,152,61819,1,2,0:0:0:0:
328,284,62308,5,2,0:0:0:0:
484,248,62471,1,2,0:0:0:0:
168,104,62634,1,2,0:0:0:0:
168,104,62797,1,2,0:0:0:0:
168,104,62883,1,0,3:0:0:0:
272,100,62933,1,0,3:0:0:0:
380,104,62984,2,0,L|392:248,1,134.399995898438,8|0,0:0|0:0,0:0:0:0:
64,328,63320,6,0,L|62:238,1,67.1999979492188,2|2,0:0|0:0,0:0:0:0:
280,192,63481,2,0,L|378:180,1,67.1999979492188,2|2,0:0|0:0,0:0:0:0:
144,128,63642,2,0,L|222:118,1,67.1999979492188,10|0,0:0|0:0,0:0:0:0:
440,320,63810,2,0,L|351:312,1,67.1999979492188
56,240,63978,6,0,L|192:224,1,134.399995898438,4|0,0:1|0:0,0:0:0:0:
464,192,64307,1,10,0:0:0:0:
160,328,64472,2,0,L|156:184,1,134.399995898438,2|8,0:0|0:0,0:0:0:0:
340,136,64801,1,2,0:0:0:0:
72,60,64966,2,0,L|80:228,1,134.399995898438,8|2,0:0|0:0,0:0:0:0:
368,296,65295,6,0,L|200:284,1,134.399995898438,10|0,0:0|0:0,0:0:0:0:
468,184,65625,1,10,0:0:0:0:
208,160,65790,2,0,L|348:152,1,134.399995898438,2|8,0:0|0:0,0:0:0:0:
76,60,66119,2,0,L|232:56,1,134.399995898438,2|8,0:0|0:0,0:0:0:0:
480,48,66449,1,2,0:0:0:0:
176,316,66613,6,0,L|176:172,1,134.399995898438,10|0,0:0|0:0,0:0:0:0:
432,152,66943,1,10,0:0:0:0:
296,248,67108,2,0,L|452:236,1,134.399995898438,2|8,0:0|0:0,0:0:0:0:
152,312,67437,1,2,0:0:0:0:
404,320,67602,2,0,L|256:308,1,134.399995898438,10|0,0:0|0:0,0:0:0:0:
16,192,67931,5,10,0:0:0:0:
336,92,68096,1,2,0:0:0:0:
180,168,68261,1,10,0:0:0:0:
496,288,68426,1,0,0:0:0:0:
220,288,68590,6,0,L|212:208,1,67.1999979492188,8|0,0:0|0:0,0:0:0:0:
392,176,68755,2,0,L|408:100,1,67.1999979492188
184,92,68920,2,0,L|88:80,1,67.1999979492188,8|0,0:0|0:0,0:0:0:0:
320,280,69085,2,0,L|408:272,1,67.1999979492188
128,344,69249,6,0,L|124:200,1,134.399995898438,4|0,0:0|0:0,0:0:0:0:
412,120,69579,1,10,0:0:0:0:
252,124,69744,2,0,L|256:280,1,134.399995898438,2|0,0:0|0:0,0:0:0:0:
492,312,70073,1,2,0:0:0:0:
328,300,70238,1,10,0:0:0:0:
76,268,70403,6,0,L|304:112,1,268.799991796875,2|0,0:0|0:0,0:0:0:0:
52,96,70897,2,0,L|204:96,1,134.399995898438,10|2,0:0|0:0,0:0:0:0:
52,188,71226,1,0,0:0:0:0:
308,188,71391,2,0,L|320:336,1,134.399995898438,2|10,0:0|0:0,0:0:0:0:
156,320,71720,1,2,0:0:0:0:
440,312,71885,6,0,L|264:288,2,134.399995898438,4|0|10,0:0|0:0|0:0,0:0:0:0:
168,276,72379,2,0,L|176:124,1,134.399995898438,2|0,0:0|0:0,0:0:0:0:
336,120,72709,1,2,0:0:0:0:
88,260,72874,1,10,0:0:0:0:
372,264,73038,6,0,P|420:216|304:84,1,268.799991796875
72,88,73533,2,0,L|236:100,1,134.399995898438,10|0,0:0|0:0,0:0:0:0:
436,112,73862,2,0,L|432:192,1,67.1999979492188,10|0,0:0|0:0,0:0:0:0:
264,208,74027,2,0,L|180:204,1,67.1999979492188
392,296,74192,2,0,L|464:304,1,67.1999979492188,10|0,0:0|0:0,0:0:0:0:
216,328,74356,2,0,L|292:336,1,67.1999979492188
488,216,74521,6,0,P|447:143|329:103,1,201.599993847656,4|0,0:1|0:0,0:0:0:0:
160,104,74851,2,0,L|20:200,1,134.399995898438,8|0,0:0|0:0,0:0:0:0:
312,296,75180,2,0,L|324:148,1,134.399995898438,6|4,0:0|0:0,0:0:0:0:
160,144,75510,1,10,0:0:0:0:
420,296,75674,6,0,L|268:288,1,134.399995898438,2|0,0:0|0:0,0:0:0:0:
420,224,76003,1,0,0:0:0:0:
148,292,76168,2,0,L|144:140,1,134.399995898438,10|2,0:0|0:0,0:0:0:0:
396,152,76498,2,0,L|408:4,1,134.399995898438
76,300,76827,2,0,L|228:280,1,134.399995898438,10|0,0:0|0:0,0:0:0:0:
480,252,77157,5,10,0:0:0:0:
320,228,77322,1,0,0:0:0:0:
48,144,77487,1,10,0:0:0:0:
208,124,77651,1,0,0:0:0:0:
48,228,77816,1,10,0:0:0:0:
388,152,77981,1,0,0:0:0:0:
80,336,78146,6,0,L|372:324,1,268.799991796875,10|0,0:0|0:0,0:0:0:0:
104,248,78640,2,0,L|32:236,1,67.1999979492188,0|0,0:0|3:0,0:0:0:0:
236,176,78804,2,0,L|376:152,1,134.399995898438,8|0,0:0|0:0,0:0:0:0:
84,68,79134,6,0,L|188:92,1,67.1999979492188,4|0,0:0|0:0,0:0:0:0:
324,220,79299,2,0,L|396:240,1,67.1999979492188,8|0,0:0|0:0,0:0:0:0:
164,300,79464,2,0,L|64:284,1,67.1999979492188,8|0,0:0|0:0,0:0:0:0:
308,112,79628,2,0,L|224:96,1,67.1999979492188,8|0,0:0|0:0,0:0:0:0:
36,176,79793,6,0,L|200:164,1,134.399995898438,4|0,0:1|0:0,0:0:0:0:
476,144,80121,1,10,0:0:0:0:
308,220,80286,1,2,0:0:0:0:
64,328,80452,2,0,L|80:172,1,134.399995898438,8|2,0:0|0:0,0:0:0:0:
392,160,80781,2,0,L|404:20,1,134.399995898438,8|2,0:0|0:0,0:0:0:0:
160,260,81111,6,0,L|4:252,1,134.399995898438,10|0,0:0|0:0,0:0:0:0:
308,116,81440,2,0,L|160:108,1,134.399995898438,10|2,0:0|0:0,0:0:0:0:
452,224,81769,1,8,0:0:0:0:
300,276,81934,1,0,0:0:0:0:
76,328,82099,1,10,0:0:0:0:
256,328,82264,1,2,0:0:0:0:
16,160,82429,6,0,L|24:308,1,134.399995898438,4|0,0:0|0:0,0:0:0:0:
284,124,82758,2,0,L|136:132,1,134.399995898438,8|0,0:0|0:0,0:0:0:0:
372,304,83088,2,0,L|512:296,1,134.399995898438,10|0,0:0|0:0,0:0:0:0:
204,188,83417,1,10,0:0:0:0:
444,176,83582,6,0,P|412:252|260:292,1,201.599993847656,8|0,0:0|0:0,0:0:0:0:
128,276,83912,1,8,0:0:0:0:
364,236,84076,2,0,L|376:88,1,134.399995898438,8|0,0:0|0:0,0:0:0:0:
80,108,84406,6,0,L|240:132,1,134.399995898438,2|0,0:0|3:0,0:0:0:0:
152,160,84645,1,0,3:0:0:0:
320,288,84725,2,0,L|328:204,1,67.1999979492188,8|0,0:0|0:0,0:0:0:0:
148,340,84894,2,0,L|144:260,1,67.1999979492188
396,136,85081,5,4,0:0:0:0:
256,192,85246,12,0,86901,0:0:0:0:
224,320,87232,6,0,P|160:299|108:212,1,153.6
300,344,87602,2,0,P|392:280|252:32,1,460.8
