osu file format v14

[General]
AudioFilename: audio.mp3
AudioLeadIn: 0
PreviewTime: 63726
Countdown: 0
SampleSet: Soft
StackLeniency: 0.7
Mode: 2
LetterboxInBreaks: 0
WidescreenStoryboard: 1

[Editor]
Bookmarks: 8591,19140,29689,40239,50788,63978,74521
DistanceSpacing: 0.9
BeatDivisor: 4
GridSize: 16
TimelineZoom: 1

[Metadata]
Title:Megumi no Ame (TV Size)
TitleUnicode:芽ぐみの雨 (TV Size)
Artist:yanaginagi
ArtistUnicode:やなぎなぎ
Creator:Yumeno Himiko
Version:Cup
Source:やはり俺の青春ラブコメはまちがっている。完
Tags:My Youth Romantic Comedy Is Wrong, As I Expected Yahari Ore no Seishun Rabukome wa Machigatteiru OreGairu Kan Hamachi Season 3 op opening Anime Japanese Pop JPop J-Pop 比企谷八幡 Hikigaya Hachiman 雪ノ下雪乃 Yukinoshita Yukino 由比ヶ浜結衣 Yuigahama Yui examination exam -Luminate Greaper
BeatmapID:2484260
BeatmapSetID:1192135

[Difficulty]
HPDrainRate:3
CircleSize:2
OverallDifficulty:6
ApproachRate:6
SliderMultiplier:1.5
SliderTickRate:1

[Events]
//Background and Video events
0,0,"78259498_p0.jpg",0,0
Video,-229,"op.avi"
//Break Periods
//Storyboard Layer 0 (Background)
//Storyboard Layer 1 (Fail)
//Storyboard Layer 2 (Pass)
//Storyboard Layer 3 (Foreground)
//Storyboard Layer 4 (Overlay)
//Storyboard Sound Samples

[TimingPoints]
694,328.767123287672,4,2,1,40,1,0
3324,331.034482758621,4,2,1,40,1,0
5958,338.983050847458,4,2,1,70,1,0
6940,342.857142857143,4,2,1,70,1,0
7625,304.568527918782,4,2,1,70,1,0
7931,309.278350515464,4,2,1,50,1,0
8240,329.67032967033,4,2,1,50,1,0
8240,-100,4,2,1,70,0,0
8591,329.67032967033,4,2,1,80,1,0
11228,-100,4,2,0,80,0,0
11310,-100,4,2,1,80,0,0
11887,-100,4,2,1,70,0,0
12051,-100,4,2,1,80,0,0
12382,-100,4,2,0,80,0,0
12464,-100,4,2,1,80,0,0
13865,-100,4,2,0,80,0,0
14195,-100,4,2,1,80,0,0
14525,-100,4,2,1,70,0,0
14689,-100,4,2,1,80,0,0
15019,-100,4,2,0,80,0,0
15101,-100,4,2,1,80,0,0
16503,-100,4,2,0,80,0,0
16585,-100,4,2,1,80,0,0
18975,-100,4,2,1,60,0,0
19140,-100,4,2,0,60,0,0
19222,-100,4,2,1,60,0,0
24415,-100,4,2,0,60,0,0
24497,-100,4,2,1,60,0,0
28371,-100,4,2,1,70,0,0
29689,-100,4,2,0,60,0,0
29772,-100,4,2,1,60,0,0
32327,-100,4,2,0,60,0,0
32409,-100,4,2,1,60,0,0
34964,-100,4,2,0,60,0,0
35047,-100,4,2,1,60,0,0
36118,-100,4,2,0,60,0,0
36200,-100,4,2,1,60,0,0
37601,-100,4,2,0,60,0,0
37684,-100,4,2,1,60,0,0
38920,-100,4,2,0,60,0,0
39003,-100,4,2,1,60,0,0
39580,-100,4,2,1,50,0,0
39909,-100,4,2,1,60,0,0
40239,-100,4,2,1,50,0,0
49799,-100,4,2,0,50,0,0
49882,-100,4,2,1,50,0,0
50788,-100,4,2,1,60,0,0
53426,-100,4,2,0,60,0,0
53508,-100,4,2,1,60,0,0
56063,-100,4,2,0,60,0,0
56145,-100,4,2,1,60,0,0
58700,328.767123287672,4,2,0,70,1,0
58700,-100,4,2,0,70,0,0
58782,-100,4,2,1,70,0,0
61330,326.086956521739,4,2,1,70,1,0
62883,400,4,2,1,70,1,0
62984,335.195530726257,4,2,1,70,1,0
63320,322.58064516129,4,2,1,70,1,0
63642,337.078651685393,4,2,1,70,1,0
63978,329.489291598023,4,2,1,80,1,1
63979,-100,4,2,1,80,0,1
69249,-100,4,2,0,80,0,1
69332,-100,4,2,1,80,0,1
70567,-100,4,2,1,70,0,1
70897,-100,4,2,1,80,0,1
71885,-100,4,2,0,80,0,1
71968,-100,4,2,1,80,0,1
73368,-100,4,2,1,70,0,1
73533,-100,4,2,1,80,0,1
74521,-100,4,2,1,70,0,0
77487,-100,4,2,1,75,0,0
77816,-100,4,2,1,80,0,0
79793,-100,4,2,1,80,0,0
82429,-100,4,2,0,80,0,0
82511,-100,4,2,1,80,0,0
84406,319.148936170213,4,2,1,80,1,0
84725,338.983050847458,4,2,1,60,1,0
84894,-100,4,2,1,60,0,0
85081,331.034482758621,4,2,0,60,1,0
85081,-100,4,2,0,60,0,0
87232,370.37037037037,4,2,1,40,1,0
88157,-100,4,2,1,20,0,0

[Colours]
Combo1 : 140,140,181
Combo2 : 255,151,151

[HitObjects]
208,304,529,5,2,0:0:0:0:
304,304,694,6,0,P|352:192|288:112,1,225,2|2,0:0|0:0,0:0:0:0:
192,112,1515,1,2,0:0:0:0:
313,77,1844,1,2,0:0:0:0:
208,80,2009,6,0,P|144:128|224:240,1,225,2|2,0:0|0:0,0:0:0:0:
304,272,2830,1,2,0:0:0:0:
192,320,3159,1,2,0:0:0:0:
304,320,3324,6,0,P|352:256|240:160,1,225,2|2,0:0|0:0,0:0:0:0:
160,160,4151,2,0,L|64:160,2,75,2|2|2,0:0|0:0|0:0,0:0:0:0:
352,288,4979,6,0,P|368:208|304:176,1,150,2|2,0:0|0:0,0:0:0:0:
192,160,5641,1,2,0:0:0:0:
352,160,5958,6,0,L|368:64,3,75,2|2|2|2,0:0|0:0|0:0|0:0,0:3:0:0:
192,160,6940,2,0,L|176:256,3,75,2|2|2|2,0:0|0:0|0:0|0:0,0:0:0:0:
64,240,7625,5,4,0:1:0:0:
208,240,7931,2,0,P|303:222|350:171,1,150,0|4,0:0|0:3,0:0:0:0:
176,160,8591,6,0,P|142:119|188:27,1,150,4|8,0:1|0:0,0:0:0:0:
336,32,9250,2,0,L|416:32,2,75,10|0|8,0:0|0:0|0:0,0:0:0:0:
192,32,9909,5,10,0:0:0:0:
336,112,10239,1,10,0:0:0:0:
192,176,10569,1,8,0:0:0:0:
336,256,10898,1,8,0:0:0:0:
176,336,11228,6,0,P|112:320|80:240,1,150,6|8,0:0|0:0,0:0:0:0:
240,240,11887,1,8,0:0:0:0:
128,192,12217,1,10,0:0:0:0:
224,192,12382,6,0,P|256:144|204:58,1,150,4|0,0:0|0:0,0:0:0:0:
128,64,12876,1,8,0:0:0:0:
256,112,13206,1,8,0:0:0:0:
256,160,13536,1,10,0:0:0:0:
416,272,13865,5,6,0:0:0:0:
416,272,14195,1,10,0:0:0:0:
256,272,14525,2,0,L|176:272,2,75,8|2|10,0:0|0:0|0:0,0:0:0:0:
352,272,15019,6,0,P|384:208|339:137,1,150,4|2,0:0|0:0,0:0:0:0:
256,144,15514,1,10,0:0:0:0:
96,144,15843,2,0,P|64:192|97:272,1,150,8|8,0:0|0:0,0:0:0:0:
256,288,16503,6,0,P|304:288|368:208,1,150,6|8,0:0|0:0,0:0:0:0:
384,144,16997,1,10,0:0:0:0:
224,112,17327,1,0,0:0:0:0:
160,112,17492,1,8,0:0:0:0:
96,112,17656,1,10,0:0:0:0:
256,320,18151,1,0,0:0:0:0:
352,320,18975,5,0,0:0:0:0:
448,320,19140,2,0,P|479:256|416:176,1,150,4|10,0:0|0:0,0:0:0:0:
272,192,19799,2,0,L|272:96,1,75,6|6,0:0|0:0,0:0:0:0:
272,64,20129,1,8,0:0:0:0:
336,64,20294,5,6,0:0:0:0:
176,144,20623,1,6,0:0:0:0:
336,224,20953,1,2,0:0:0:0:
176,224,21283,2,0,L|80:224,2,75,6|10|2,0:0|0:0|0:0,0:0:0:0:
256,224,21777,6,0,P|288:272|240:368,1,150,2|10,0:0|0:0,0:0:0:0:
128,352,22437,2,0,L|128:256,2,75,4|4|8,0:0|0:0|0:0,0:0:0:0:
224,352,22931,1,4,0:0:0:0:
384,304,23261,5,4,0:0:0:0:
384,240,23426,2,0,L|384:160,1,75,10|0,0:0|0:0,0:0:0:0:
288,160,23755,1,2,0:0:0:0:
448,160,24085,2,0,L|448:64,1,75,10|0,0:0|0:0,0:0:0:0:
352,80,24415,6,0,L|176:80,1,150,4|10,0:0|0:0,0:0:0:0:
352,160,25074,1,6,0:0:0:0:
192,160,25404,1,10,0:0:0:0:
112,160,25569,2,0,P|80:208|115:296,1,150,2|4,0:0|0:0,0:0:0:0:
192,288,26063,5,10,0:0:0:0:
320,288,26393,1,2,0:0:0:0:
144,256,26722,1,10,0:0:0:0:
288,256,27052,6,0,L|448:256,1,150,2|10,0:0|0:0,0:0:0:0:
304,192,27711,1,2,0:0:0:0:
432,192,28041,2,0,L|432:112,1,75,10|0,0:0|0:0,0:0:0:0:
320,112,28371,6,0,L|320:16,1,75,10|10,0:0|0:0,0:0:0:0:
112,112,29030,2,0,L|112:208,1,75,10|10,0:0|0:0,0:0:0:0:
224,192,29525,1,0,0:0:0:0:
144,192,29689,6,0,L|48:192,2,75,4|2|10,0:0|0:0|0:0,0:0:0:0:
224,192,30184,1,2,0:0:0:0:
368,192,30514,1,6,0:0:0:0:
208,192,30843,6,0,P|169:255|224:320,1,150,2|4,0:0|0:0,0:0:0:0:
384,320,31503,1,2,0:0:0:0:
256,320,31832,2,0,L|240:240,2,75,6|10|2,0:0|0:0|0:0,0:0:0:0:
368,320,32327,6,0,P|401:275|348:192,1,150,6|10,0:0|0:0,0:0:0:0:
224,192,32986,1,2,0:0:0:0:
368,128,33316,1,10,0:0:0:0:
272,128,33481,6,0,L|112:128,1,150,2|4,0:0|0:0,0:0:0:0:
112,192,33975,1,8,0:0:0:0:
272,240,34305,1,2,0:0:0:0:
144,240,34634,1,10,0:0:0:0:
320,240,34964,6,0,P|364:292|305:349,1,150,4|8,0:0|0:0,0:0:0:0:
192,352,35623,2,0,L|16:352,1,150,2|10,0:0|0:0,0:0:0:0:
103,320,36118,1,6,0:0:0:0:
240,256,36448,6,0,L|336:256,1,75,4|8,0:0|0:0,0:0:0:0:
176,256,36942,1,2,0:0:0:0:
336,192,37272,1,10,0:0:0:0:
400,192,37437,1,2,0:0:0:0:
464,192,37601,5,4,0:0:0:0:
320,64,37931,1,8,0:0:0:0:
192,64,38261,2,0,L|176:160,2,75,2|0|8,0:0|0:0|0:0,0:0:0:0:
352,288,38920,6,0,L|368:192,2,75,6|0|8,0:0|0:0|0:0,0:0:0:0:
192,192,39580,2,0,L|112:192,2,75,2|2|8,0:3|0:3|0:0,0:0:0:0:
320,288,40239,6,0,P|382:243|266:92,1,300,2|2,0:0|0:0,0:0:0:0:
416,288,41558,5,2,0:0:0:0:
160,224,42217,1,2,0:0:0:0:
304,160,42711,1,0,0:0:0:0:
208,160,42876,6,0,P|144:176|208:336,1,300,2|2,0:0|0:0,0:0:0:0:
432,192,44195,6,0,L|336:320,2,150,2|2|2,0:0|0:0|0:0,0:0:0:0:
304,96,45184,1,2,0:0:0:0:
128,112,45514,5,0,3:0:0:0:
128,112,45843,1,0,3:0:0:0:
128,112,46173,1,2,3:2:0:0:
128,112,46503,1,0,3:0:0:0:
256,144,46832,5,2,3:2:0:0:
256,144,47162,1,0,3:0:0:0:
256,144,47492,1,2,3:2:0:0:
256,144,47821,1,0,3:0:0:0:
400,192,48151,5,2,3:2:0:0:
400,192,48481,1,0,3:0:0:0:
400,192,48810,1,2,3:2:0:0:
400,192,49140,1,0,3:0:0:0:
240,272,49470,5,2,3:2:0:0:
240,272,49799,1,4,0:0:0:0:
240,272,49964,1,0,0:1:0:0:
336,272,50129,2,0,L|336:192,1,75,2|0,3:2|0:0,0:0:0:0:
432,192,50459,1,8,0:0:0:0:
304,112,50788,6,0,L|128:112,1,150,4|4,0:1|0:0,0:0:0:0:
304,192,51448,1,6,0:0:0:0:
176,192,51777,1,4,0:0:0:0:
320,304,52107,6,0,P|352:256|320:160,1,150,6|4,0:0|0:0,0:0:0:0:
208,144,52766,1,6,0:0:0:0:
368,112,53096,1,4,0:0:0:0:
208,112,53426,6,0,L|48:112,1,150,4|0,0:0|0:0,0:0:0:0:
176,192,54085,1,6,0:0:0:0:
320,192,54415,1,4,0:0:0:0:
144,320,54744,6,0,L|128:160,2,150,2|6|6,0:0|0:0|0:0,0:0:0:0:
320,320,55733,2,0,L|416:320,1,75,4|0,0:0|0:0,0:0:0:0:
448,320,56063,6,0,P|480:256|432:176,1,150,4|10,0:0|0:0,0:0:0:0:
384,176,56558,1,2,0:0:0:0:
224,128,56887,1,2,0:0:0:0:
352,128,57217,1,0,0:0:0:0:
416,128,57382,6,0,P|432:192|352:240,1,150,2|10,0:0|0:0,0:0:0:0:
288,240,57876,2,0,L|128:240,2,150,2|2|0,0:0|0:0|0:0,0:0:0:0:
368,240,58700,6,0,P|400:272|352:368,1,150,6|2,0:0|0:0,0:0:0:0:
288,352,59193,1,10,0:0:0:0:
144,352,59521,1,0,0:0:0:0:
64,336,59686,6,0,P|25:284|76:137,1,225,10|8,0:0|0:0,0:0:0:0:
240,96,60508,1,0,0:0:0:0:
320,96,60672,2,0,P|365:152|306:203,1,150,10|2,0:0|0:0,0:0:0:0:
160,96,61330,6,0,L|144:192,3,75,10|2|2|2,0:0|0:0|0:0|0:0,0:0:0:0:
368,176,62308,6,0,L|384:256,3,75,2|2|2|2,0:0|0:0|0:0|0:0,0:0:0:0:
304,256,62984,1,8,0:0:0:0:
160,256,63320,1,2,0:0:0:0:
112,192,63481,1,2,0:0:0:0:
128,112,63642,1,10,0:0:0:0:
208,80,63810,1,0,0:0:0:0:
320,80,63978,6,0,L|448:176,1,150,4|10,0:1|0:0,0:0:0:0:
368,176,64472,2,0,P|290:195|240:256,2,150,2|2|2,0:0|0:0|0:0,0:0:0:0:
432,176,65295,5,10,0:0:0:0:
304,192,65625,1,10,0:0:0:0:
384,192,65790,2,0,P|456:200|496:272,2,150,2|2|2,0:0|0:0|0:0,0:0:0:0:
304,192,66613,5,10,0:0:0:0:
160,192,66943,1,10,0:0:0:0:
80,192,67108,2,0,P|64:240|80:336,1,150,2|2,0:0|0:0,0:0:0:0:
160,336,67602,1,10,0:0:0:0:
304,336,67931,6,0,L|320:256,2,75,10|2|10,0:0|0:0|0:0,0:0:0:0:
128,192,68590,2,0,L|112:96,2,75,8|0|8,0:0|0:0|0:0,0:0:0:0:
304,192,69249,6,0,P|352:192|416:112,1,150,4|10,0:0|0:0,0:0:0:0:
416,32,69744,1,2,0:0:0:0:
272,32,70073,2,0,L|192:32,2,75,2|10|2,0:0|0:0|0:0,0:0:0:0:
336,32,70567,6,0,P|372:84|304:160,1,150,0|10,0:0|0:0,0:0:0:0:
256,160,71062,1,2,0:0:0:0:
96,160,71391,2,0,L|80:80,2,75,2|10|2,0:0|0:0|0:0,0:0:0:0:
176,160,71885,5,4,0:0:0:0:
320,160,72215,2,0,L|416:160,1,75,10|2,0:0|0:0,0:0:0:0:
256,288,72709,1,2,0:0:0:0:
192,288,72874,1,10,0:0:0:0:
272,288,73038,6,0,P|320:256|224:144,1,225,2|10,0:0|0:0,0:0:0:0:
96,96,73862,1,10,0:0:0:0:
240,96,74192,1,10,0:0:0:0:
400,96,74521,6,0,P|434:164|402:242,1,150,4|8,0:1|0:0,0:0:0:0:
272,256,75180,1,6,0:0:0:0:
416,304,75510,1,10,0:0:0:0:
336,304,75674,6,0,P|276:197|352:126,1,225,2|10,0:0|0:0,0:0:0:0:
496,96,76498,1,0,0:0:0:0:
355,85,76828,1,10,0:0:0:0:
208,80,77157,6,0,L|64:144,2,150,10|10|10,0:0|0:0|0:0,0:0:0:0:
320,304,78146,6,0,P|183:217|201:79,1,300,10|8,0:0|0:0,0:0:0:0:
320,128,79134,1,4,0:0:0:0:
400,128,79299,2,0,L|416:32,2,75,8|8|8,0:0|0:0|0:0,0:0:0:0:
304,128,79793,6,0,L|128:128,1,150,4|10,0:1|0:0,0:0:0:0:
144,208,80287,1,2,0:0:0:0:
288,256,80617,1,2,0:0:0:0:
144,304,80946,1,2,0:0:0:0:
224,304,81111,6,0,P|304:304|384:240,1,150,10|10,0:0|0:0,0:0:0:0:
384,192,81605,1,2,0:0:0:0:
256,112,81935,1,0,0:0:0:0:
188,145,82099,2,0,L|284:97,1,75,10|2,0:0|0:0,0:0:0:0:
336,112,82429,6,0,P|368:144|320:240,1,150,4|8,0:0|0:0,0:0:0:0:
192,272,83088,1,10,0:0:0:0:
336,320,83417,2,0,L|336:240,1,75,10|8,0:0|0:0,0:0:0:0:
160,192,83912,6,0,L|160:112,1,75,8|8,0:0|0:0,0:0:0:0:
304,112,84406,2,0,P|352:128|336:224,1,150,2|4,0:0|0:0,0:0:0:0:
304,256,84894,1,0,0:0:0:0:
192,256,85081,5,4,0:0:0:0:
256,192,85412,12,0,88157,0:0:0:0:
