osu file format v14

[General]
AudioFilename: audio.mp3
AudioLeadIn: 0
PreviewTime: 63865
Countdown: 0
SampleSet: Soft
StackLeniency: 0.5
Mode: 0
LetterboxInBreaks: 0
WidescreenStoryboard: 1

[Editor]
DistanceSpacing: 0.9
BeatDivisor: 4
GridSize: 32
TimelineZoom: 2.699999

[Metadata]
Title:Megumi no Ame (TV Size)
TitleUnicode:芽ぐみの雨 (TV Size)
Artist:yanaginagi
ArtistUnicode:yanaginagi
Creator:Stratos
Version:Nao's Hard
Source:やはり俺の青春ラブコメはまちがっている。完
Tags:My Teen Romantic Comedy SNAFU 3 youth is wrong as i expected yahari ore no seishun rabukome wa machigatteiru kan oregairu season three opening yukinoshita japanese anime pop nao tomori naotoshi kibbleru
BeatmapID:2625718
BeatmapSetID:1240047

[Difficulty]
HPDrainRate:5
CircleSize:3.8
OverallDifficulty:6.5
ApproachRate:8
SliderMultiplier:1.4
SliderTickRate:1

[Events]
//Background and Video events
0,0,"nao anime bg.jpg",0,0
//Break Periods
//Storyboard Layer 0 (Background)
//Storyboard Layer 1 (Fail)
//Storyboard Layer 2 (Pass)
//Storyboard Layer 3 (Foreground)
//Storyboard Layer 4 (Overlay)
//Storyboard Sound Samples

[TimingPoints]
539,337.078651685393,4,2,1,40,1,0
708,342.857142857143,4,2,1,40,1,0
1565,327.868852459016,4,2,1,40,1,0
2056,337.078651685393,4,2,1,40,1,0
2898,319.148936170213,4,2,1,40,1,0
3376,329.67032967033,4,2,1,40,1,0
6013,333.333333333333,4,2,1,40,1,0
6013,-100,4,2,1,40,0,0
6512,319.148936170213,4,2,1,40,1,0
6990,344.827586206897,4,2,1,40,1,0
7507,329.67032967033,4,2,1,60,1,0
7507,-100,4,2,1,60,0,0
7671,444.444444444444,4,2,1,60,1,0
7671,-90.9090909090909,4,2,1,60,0,0
8004,315.789473684211,4,2,1,60,1,0
8004,-100,4,2,1,60,0,0
8319,-125,4,2,1,60,0,0
8635,340.909090909091,4,2,1,60,1,0
8635,-90.9090909090909,4,2,1,60,0,0
8975,329.67032967033,4,2,1,60,1,0
8975,-90.9090909090909,4,2,1,60,0,0
9964,329.67032967033,4,2,1,60,1,0
9964,-90.9090909090909,4,2,1,60,0,0
19194,-111.111111111111,4,2,1,45,0,0
28425,-111.111111111111,4,2,1,55,0,0
29744,-111.111111111111,4,2,1,45,0,0
34359,-111.111111111111,4,2,1,50,0,0
35018,-100,4,2,1,50,0,0
39304,-83.3333333333333,4,2,1,50,0,0
40293,-133.333333333333,4,2,1,40,0,0
41612,-133.333333333333,4,2,1,40,0,0
42271,-133.333333333333,4,2,1,40,0,0
42931,-133.333333333333,4,2,1,40,0,0
43590,-133.333333333333,4,2,1,40,0,0
45568,-133.333333333333,4,2,1,45,0,0
47546,-133.333333333333,4,2,1,45,0,0
49853,-133.333333333333,4,2,1,50,0,0
50842,-116.279069767442,4,2,1,50,0,0
53480,-107.52688172043,4,2,1,50,0,0
54798,-107.52688172043,4,2,1,50,0,0
56117,-107.52688172043,4,2,1,55,0,0
56612,-107.52688172043,4,2,1,55,0,0
58095,-100,4,2,1,55,0,0
58754,-100,4,2,1,60,0,0
61392,-100,4,2,1,60,0,0
64029,-90.9090909090909,4,2,1,60,0,1
64524,-90.9090909090909,4,2,1,60,0,1
73095,-90.9090909090909,4,2,1,60,0,1
73590,-90.9090909090909,4,2,1,60,0,1
74579,-90.9090909090909,4,2,1,60,0,1
77216,-83.3333333333333,4,2,1,60,0,1
77546,-90.9090909090909,4,2,1,60,0,1
79853,-90.9090909090909,4,2,1,60,0,1
80348,-90.9090909090909,4,2,1,60,0,1
84551,-90.9090909090909,4,2,1,60,0,1
85211,-90.9090909090909,4,2,1,30,0,0
87601,-181.818181818182,4,2,1,30,0,0

[Colours]
Combo1 : 250,180,240
Combo2 : 120,200,230
Combo3 : 255,230,130
Combo4 : 160,230,150

[HitObjects]
201,119,6013,6,0,B|138:127|138:127|116:173|116:173|25:228,1,210,2|2,0:1|0:0,0:0:0:0:
282,203,6990,6,0,B|336:214|336:214|355:244|355:244|419:284,1,140,2|2,0:1|0:0,0:0:0:0:
473,214,7507,1,2,1:2:0:0:
427,138,7671,2,0,P|387:122|340:149,1,77.0000023498536,12|0,0:0|0:0,0:0:0:0:
267,81,8004,1,8,0:3:0:0:
267,81,8082,1,8,0:0:0:0:
267,81,8161,1,8,0:0:0:0:
267,81,8240,1,8,0:0:0:0:
267,81,8319,2,0,L|313:75,3,28,4|4|4|4,0:3|0:3|0:3|0:3,0:0:0:0:
225,32,8635,6,0,P|159:21|110:83,1,154.000004699707,4|8,1:2|0:0,0:0:0:0:
72,167,9139,1,2,0:0:0:0:
72,167,9222,1,2,0:0:0:0:
72,167,9304,2,0,P|79:209|84:248,1,77.0000023498536,8|0,0:0|1:0,0:0:0:0:
183,264,9634,2,0,P|188:225|195:188,1,77.0000023498536,8|0,0:0|1:0,0:0:0:0:
267,128,9964,5,8,0:0:0:0:
345,167,10128,1,2,0:0:0:0:
415,116,10293,1,8,0:0:0:0:
480,166,10458,2,0,P|467:211|464:252,1,77.0000023498536,2|8,0:0|0:0,0:0:0:0:
402,357,10788,2,0,P|397:318|386:282,1,77.0000023498536,0|8,1:2|0:0,0:0:0:0:
318,229,11117,1,0,1:0:0:0:
256,294,11282,6,0,B|243:319|216:322|216:322|181:282|122:294,1,154.000004699707,14|8,0:0|0:0,0:0:0:0:
149,204,11777,2,0,B|95:196|55:232|55:232|28:229|10:194,1,154.000004699707,2|0,0:0|1:0,0:0:0:0:
2,117,12271,1,8,0:0:0:0:
79,78,12436,6,0,B|162:66|143:126|233:114,1,154.000004699707,6|0,1:2|1:2,0:0:0:0:
299,58,12931,1,8,0:0:0:0:
382,102,13095,2,0,B|368:164|366:181|364:203,1,77.0000023498536,2|8,0:0|0:0,0:0:0:0:
437,244,13425,1,2,1:2:0:0:
437,244,13507,1,2,1:2:0:0:
437,244,13590,2,0,B|453:272|453:272|441:335,1,77.0000023498536,8|0,0:0|0:0,0:0:0:0:
359,366,13920,6,0,L|268:350,1,77.0000023498536,12|0,0:0|0:0,0:0:0:0:
215,296,14249,1,8,0:0:0:0:
263,216,14414,2,0,L|338:202,1,77.0000023498536,2|8,0:0|0:0,0:0:0:0:
387,124,14744,1,0,1:0:0:0:
387,124,14826,1,0,1:0:0:0:
387,124,14909,1,8,0:0:0:0:
305,74,15073,6,0,B|257:69|257:69|223:94|223:94|139:84,1,154.000004699707,4|0,1:2|1:2,0:0:0:0:
92,27,15568,1,8,0:0:0:0:
25,97,15733,2,0,P|6:140|17:187,1,77.0000023498536,0|10,1:2|0:0,0:0:0:0:
80,233,16062,2,0,P|99:276|88:323,1,77.0000023498536,0|8,1:0|0:0,0:0:0:0:
32,361,16392,1,0,1:0:0:0:
32,361,16474,1,0,1:0:0:0:
32,361,16557,6,0,P|78:341|165:392,1,154.000004699707,14|8,0:0|0:0,0:0:0:0:
253,325,17051,2,0,B|226:257|280:250|238:153,1,154.000004699707,4|0,1:2|1:2,0:0:0:0:
184,106,17546,1,8,0:0:0:0:
249,36,17711,6,0,B|295:14|294:15|299:16|299:16|425:57,1,154.000004699707,6|0,1:2|1:0,0:0:0:0:
393,46,18123,1,0,1:0:0:0:
393,46,18205,1,12,0:0:0:0:
485,23,19194,6,0,P|459:55|474:145,2,125.999996154785,4|10|0,1:2|0:0|0:0,0:0:0:0:
419,77,20018,2,0,P|381:86|341:83,1,62.9999980773926,0|8,1:2|0:0,0:0:0:0:
283,47,20348,2,0,P|245:38|205:41,1,62.9999980773926,2|0,1:2|0:0,0:0:0:0:
151,96,20678,2,0,P|142:134|145:174,1,62.9999980773926,0|8,1:2|0:0,0:0:0:0:
199,236,21007,2,0,P|208:274|205:314,1,62.9999980773926,0|2,3:0|0:0,0:0:0:0:
140,365,21337,1,0,1:2:0:0:
140,365,21502,2,0,P|84:352|57:346,1,62.9999980773926,8|0,0:0|3:0,0:0:0:0:
221,307,21832,6,0,B|305:291|305:291|359:323,1,125.999996154785,4|10,1:2|0:0,0:0:0:0:
416,264,22326,1,0,0:0:0:0:
499,296,22491,2,0,P|495:253|508:214,1,62.9999980773926,0|0,1:2|1:0,0:0:0:0:
435,170,22821,2,0,L|422:88,1,62.9999980773926,8|2,0:0|1:2,0:0:0:0:
361,42,23150,5,0,0:0:0:0:
361,42,23315,1,0,1:0:0:0:
307,115,23480,2,0,P|272:126|235:117,1,62.9999980773926,10|0,0:0|0:0,0:0:0:0:
200,201,23810,2,0,P|227:225|237:262,1,62.9999980773926,2|0,1:2|1:0,0:0:0:0:
327,247,24139,2,0,P|334:211|361:183,1,62.9999980773926,10|0,0:0|0:0,0:0:0:0:
445,173,24469,6,0,B|483:207|483:207|470:284,2,125.999996154785,4|10|0,1:2|0:0|1:0,0:0:0:0:
491,99,25293,1,0,1:0:0:0:
491,99,25458,1,8,0:0:0:0:
418,46,25623,2,0,P|370:66|304:30,1,125.999996154785,2|0,1:2|1:0,0:0:0:0:
231,90,26117,6,0,L|242:174,1,62.9999980773926,10|0,0:0|0:0,0:0:0:0:
294,230,26447,2,0,L|283:314,1,62.9999980773926,2|0,1:2|1:0,0:0:0:0:
214,361,26777,2,0,P|166:341|100:377,1,125.999996154785,10|4,0:2|1:2,0:0:0:0:
5,208,27436,6,0,P|2:171|15:128,1,62.9999980773926,10|0,0:0|0:0,0:0:0:0:
67,82,27766,2,0,P|104:79|147:92,1,62.9999980773926,0|0,1:0|1:0,0:0:0:0:
208,140,28095,2,0,P|245:143|288:130,1,62.9999980773926,8|0,0:0|1:0,0:0:0:0:
344,74,28425,5,2,1:2:0:0:
308,218,28590,1,4,1:2:0:0:
357,97,29084,5,2,1:2:0:0:
393,241,29249,1,4,1:0:0:0:
391,266,29744,6,0,P|350:255|313:256,1,62.9999980773926,4|0,1:2|0:0,0:0:0:0:
254,303,30073,1,8,0:0:0:0:
177,267,30238,2,0,L|179:187,1,62.9999980773926,0|0,3:0|1:2,0:0:0:0:
89,171,30568,2,0,L|87:233,1,62.9999980773926,2|8,1:2|0:0,0:0:0:0:
21,110,30898,6,0,P|80:80|151:110,1,125.999996154785,2|0,1:2|1:2,0:0:0:0:
212,43,31392,1,8,0:0:0:0:
286,101,31557,2,0,P|276:135|279:175,1,62.9999980773926,0|2,3:2|1:2,0:0:0:0:
339,229,31887,1,0,1:2:0:0:
339,229,32051,2,0,P|384:217|418:213,1,62.9999980773926,8|0,0:0|0:0,0:0:0:0:
281,305,32381,6,0,P|227:299|146:280,2,125.999996154785,4|10|0,1:2|0:0|1:2,0:0:0:0:
358,361,33205,1,0,1:2:0:0:
427,308,33370,2,0,P|462:304|499:321,1,62.9999980773926,8|2,0:0|1:2,0:0:0:0:
367,241,33700,2,0,L|371:168,1,62.9999980773926,0|0,0:0|1:2,0:0:0:0:
437,115,34029,2,0,L|441:53,1,62.9999980773926,10|0,0:0|0:0,0:0:0:0:
361,5,34359,6,0,B|323:-4|310:1|280:6,1,62.9999980773926,0|0,1:2|1:2,0:0:0:0:
226,78,34689,1,8,0:0:0:0:
137,36,34854,1,2,0:0:0:0:
55,98,35018,2,0,P|89:150|72:251,1,140,4|8,1:2|0:0,0:0:0:0:
22,306,35513,5,2,0:0:0:0:
108,246,35678,2,0,L|182:259,2,70,0|2|8,1:2|1:2|0:0,0:0:0:0:
215,181,36172,2,0,B|259:191|259:191|284:215|284:215|351:241,1,140,4|0,1:2|1:2,0:0:0:0:
424,196,36667,2,0,P|454:241|421:320,1,140,8|2,0:0|1:2,0:0:0:0:
363,374,37161,1,0,1:2:0:0:
286,325,37326,2,0,L|203:340,1,70,8|2,0:0|0:0,0:0:0:0:
144,276,37656,6,0,B|61:257|61:257|-3:296,2,140,4|8|2,1:2|0:0|1:2,0:0:0:0:
222,214,38480,1,0,1:2:0:0:
156,141,38645,2,0,P|109:130|65:148,1,70,8|0,0:0|1:2,0:0:0:0:
216,73,38974,2,0,P|251:77|284:67,1,70,4|0,0:0|1:2,0:0:0:0:
284,66,39222,1,0,1:0:0:0:
284,66,39304,6,0,B|318:90|348:83|348:83|376:60|430:69,1,125.999996154785,12|0,0:0|0:0,0:0:0:0:
429,75,39634,5,8,0:3:0:0:
403,158,39799,1,8,0:3:0:0:
466,217,39964,1,4,0:3:0:0:
313,353,40293,6,0,L|304:244,1,105.000004005432,4|0,1:1|0:0,0:0:0:0:
191,163,40953,2,0,L|200:272,1,105.000004005432,2|0,0:0|0:0,0:0:0:0:
108,347,41612,2,0,P|67:328|0:350,1,105.000004005432,2|0,0:0|0:0,0:0:0:0:
184,280,42271,2,0,B|214:296|214:296|244:280|289:286,1,105.000004005432,2|0,0:0|0:0,0:0:0:0:
403,343,42931,6,0,L|385:223,1,105.000004005432,2|0,0:0|0:0,0:0:0:0:
443,173,43425,1,0,0:0:0:0:
443,173,43590,2,0,L|461:53,1,105.000004005432,2|0,0:0|0:0,0:0:0:0:
326,14,44249,2,0,P|268:12|232:62,3,105.000004005432,0|2|0|2,0:0|0:0|0:0|0:0,0:0:0:0:
138,148,45568,6,0,P|97:153|57:105,1,105.000004005432,2|0,3:2|3:2,0:0:0:0:
85,24,46062,1,2,0:0:0:0:
159,69,46227,2,0,L|224:63,1,52.5000020027161,0|0,3:2|0:0,0:0:0:0:
273,4,46557,2,0,L|325:0,1,52.5000020027161,0|2,3:2|0:0,0:0:0:0:
382,65,46887,2,0,P|432:75|482:59,2,105.000004005432,0|0|0,3:2|3:2|1:0,0:0:0:0:
266,172,47876,2,0,L|258:212,3,26.2500010013581,0|0|0|0,1:0|3:0|3:0|3:0,0:0:0:0:
276,227,48205,6,0,B|309:244|309:244|395:228,1,105.000004005432,2|0,1:2|1:2,0:0:0:0:
446,170,48700,1,2,0:0:0:0:
505,238,48865,2,0,P|492:269|486:301,1,52.5000020027161,0|0,1:2|0:0,0:0:0:0:
413,329,49194,2,0,P|417:362|428:393,1,52.5000020027161,0|2,1:2|0:0,3:0:0:0:
337,281,49524,2,0,B|273:296|273:296|239:282,1,78.7500030040742,0|0,1:2|0:0,0:0:0:0:
234,274,49854,6,0,P|182:268|141:318,1,105.000004005432,12|8,0:2|0:0,0:0:0:0:
68,357,50348,1,8,0:0:0:0:
68,357,50431,1,8,0:0:0:0:
68,357,50513,2,0,P|51:320|41:300,1,52.5000020027161,0|8,1:0|0:0,0:0:0:0:
76,217,50843,6,0,P|80:174|105:86,2,120.400001837158,4|4|0,1:2|0:3|3:0,0:0:0:0:
148,268,51667,1,8,0:3:0:0:
218,204,51832,2,0,L|284:197,1,60.2000009185791,4|2,0:3|1:2,0:0:0:0:
360,248,52161,2,0,P|394:259|430:259,1,60.2000009185791,8|0,0:3|0:0,0:0:0:0:
418,260,52409,1,8,2:3:0:0:
418,260,52491,2,0,P|456:245|491:239,1,60.2000009185791,8|8,2:3|0:3,0:0:0:0:
502,149,52821,2,0,L|483:64,1,60.2000009185791,0|8,1:0|0:3,0:0:0:0:
488,90,53068,1,8,0:3:0:0:
488,90,53150,2,0,L|507:5,1,60.2000009185791,0|4,1:0|0:3,0:0:0:0:
400,34,53480,6,0,B|326:32|362:90|257:84,1,130.200004072724,4|4,1:2|0:3,0:0:0:0:
204,43,53974,1,0,0:0:0:0:
128,101,54139,2,0,L|137:191,1,65.1000020363618,8|2,0:3|0:0,0:0:0:0:
73,233,54469,1,4,0:3:0:0:
73,233,54634,1,4,1:2:0:0:
145,291,54799,6,0,P|187:302|218:289,1,65.1000020363618,0|0,1:2|0:0,0:0:0:0:
277,233,55128,2,0,P|319:222|350:235,1,65.1000020363618,8|0,0:3|0:0,0:0:0:0:
338,227,55376,1,0,1:2:0:0:
338,227,55458,2,0,L|332:308,2,65.1000020363618,0|8|4,1:2|0:3|0:3,0:0:0:0:
406,170,55953,1,2,1:2:0:0:
479,227,56117,6,0,B|494:274|494:274|472:364,1,130.200004072724,6|8,1:2|0:0,0:0:0:0:
390,322,56612,2,0,P|349:315|307:329,1,65.1000020363618,2|0,3:2|1:2,0:0:0:0:
248,360,56942,2,0,P|207:367|165:353,1,65.1000020363618,0|8,1:2|0:0,0:0:0:0:
109,312,57271,1,2,1:2:0:0:
109,312,57354,1,0,1:2:0:0:
109,312,57436,2,0,L|114:220,1,65.1000020363618,2|0,0:2|1:0,0:0:0:0:
20,264,57766,1,8,0:0:0:0:
20,264,57931,2,0,L|23:198,1,65.1000020363618,2|0,0:0|1:2,0:0:0:0:
86,132,58260,2,0,P|121:126|165:144,2,70,2|10|0,1:2|0:0|1:0,0:0:0:0:
242,176,58755,6,0,P|286:186|332:101,1,140,12|0,0:0|1:2,0:0:0:0:
424,8,59249,2,0,B|399:58|399:58|431:99|420:151,1,140,12|0,0:0|1:2,0:0:0:0:
445,230,59744,2,0,B|484:219|484:219|533:242,2,70,14|0|0,0:0|1:2|1:2,0:0:0:0:
384,302,60238,2,0,B|310:294|333:353|233:344,1,140,12|0,0:0|1:2,0:0:0:0:
171,292,60733,2,0,L|180:197,1,70,14|2,0:0|1:2,0:0:0:0:
83,341,61062,2,0,L|74:246,1,70,8|0,0:3|0:0,0:0:0:0:
6,208,61392,5,4,1:0:0:0:
473,24,62876,5,2,0:0:0:0:
473,24,62958,1,0,1:0:0:0:
473,24,63040,1,12,1:2:0:0:
512,173,63370,5,8,2:3:0:0:
512,173,63453,1,8,2:3:0:0:
512,173,63535,1,8,2:3:0:0:
512,173,63617,1,8,2:3:0:0:
512,173,63700,2,0,P|464:163|428:171,1,70,4|4,2:3|2:3,0:0:0:0:
368,222,64029,6,0,P|318:244|248:166,1,154.000004699707,4|8,1:2|0:0,0:0:0:0:
307,53,64524,2,0,L|315:138,1,77.0000023498536,2|8,0:0|0:0,0:0:0:0:
215,100,64854,2,0,L|207:15,1,77.0000023498536,2|8,1:2|0:0,0:0:0:0:
161,177,65183,1,0,1:2:0:0:
161,177,65348,6,0,P|111:155|41:233,1,154.000004699707,10|8,0:0|0:0,0:0:0:0:
99,340,65843,2,0,B|115:307|115:307|107:268,1,77.0000023498536,2|8,0:0|0:0,0:0:0:0:
214,250,66172,2,0,B|198:283|198:283|206:322,1,77.0000023498536,2|8,1:2|0:0,0:0:0:0:
282,372,66502,1,0,1:2:0:0:
449,344,66667,6,0,B|396:314|396:314|291:348,1,154.000004699707,14|8,0:0|0:0,0:0:0:0:
317,243,67161,2,0,L|407:216,1,77.0000023498536,2|8,0:0|0:0,0:0:0:0:
441,141,67491,1,2,1:2:0:0:
368,84,67656,2,0,P|318:73|278:96,1,77.0000023498536,8|2,0:0|1:2,0:0:0:0:
232,152,67985,6,0,P|186:162|145:139,1,77.0000023498536,10|0,0:0|1:2,0:0:0:0:
130,73,68315,2,0,L|108:225,1,154.000004699707,12|0,0:0|1:2,0:0:0:0:
40,291,68810,1,8,0:3:0:0:
40,291,68892,1,8,0:3:0:0:
40,291,68974,2,0,L|49:356,3,38.5000011749268,8|4|4|4,0:3|0:3|0:3|0:3,0:0:0:0:
23,355,69304,6,0,B|75:378|75:378|174:348,1,154.000004699707,6|8,1:2|0:0,0:0:0:0:
298,292,69799,2,0,P|244:275|214:283,1,77.0000023498536,2|0,0:0|1:2,0:0:0:0:
142,232,70128,1,0,1:2:0:0:
231,174,70293,1,8,0:0:0:0:
147,118,70458,6,0,P|93:141|20:57,1,154.000004699707,2|0,1:2|1:2,0:0:0:0:
101,26,70953,1,8,0:0:0:0:
165,104,71117,2,0,P|236:91|259:80,1,77.0000023498536,2|0,0:0|1:2,0:0:0:0:
318,28,71447,1,2,1:2:0:0:
373,95,71612,1,8,0:0:0:0:
450,38,71777,5,2,0:0:0:0:
450,38,71859,1,0,1:0:0:0:
450,38,71942,2,0,P|475:83|451:194,1,154.000004699707,4|8,1:2|0:0,0:0:0:0:
374,234,72436,2,0,L|289:221,1,77.0000023498536,2|0,0:0|0:0,0:0:0:0:
421,325,72766,1,0,1:2:0:0:
498,278,72931,1,10,0:0:0:0:
407,342,73095,6,0,L|240:374,1,154.000004699707,4|0,1:2|1:2,0:0:0:0:
175,319,73590,2,0,P|127:311|78:323,1,77.0000023498536,12|0,0:0|0:0,0:0:0:0:
40,215,73920,2,0,P|78:219|115:211,1,77.0000023498536,0|2,1:2|1:2,0:0:0:0:
115,211,74167,1,8,0:0:0:0:
115,211,74249,2,0,L|123:126,1,77.0000023498536,8|8,0:0|0:3,0:0:0:0:
189,65,74579,6,0,B|247:62|247:62|276:84|276:84|355:102,2,154.000004699707,4|8|2,1:2|0:0|1:2,0:0:0:0:
114,16,75403,1,0,1:2:0:0:
42,82,75568,1,8,0:0:0:0:
86,169,75733,6,0,P|103:220|80:323,1,154.000004699707,6|0,1:2|0:0,0:0:0:0:
162,374,76227,1,8,0:0:0:0:
235,321,76392,1,2,0:0:0:0:
310,364,76557,2,0,L|397:355,1,77.0000023498536,0|0,1:2|1:2,0:0:0:0:
421,262,76887,2,0,L|334:271,1,77.0000023498536,8|0,0:0|0:0,0:0:0:0:
271,202,77216,6,0,P|218:186|153:238,1,125.999996154785,4|0,1:2|0:0,0:0:0:0:
138,239,77546,2,0,P|130:183|108:161,1,77.0000023498536,8|0,0:0|1:2,0:0:0:0:
198,23,77876,2,0,P|177:53|176:95,1,77.0000023498536,2|0,0:0|1:2,0:0:0:0:
241,164,78205,6,0,B|337:148|310:211|412:189,1,154.000004699707,12|0,0:0|0:0,0:0:0:0:
461,142,78700,1,0,1:2:0:0:
507,212,78865,2,0,P|496:258|487:304,1,77.0000023498536,8|0,0:0|0:0,0:0:0:0:
419,367,79194,2,0,P|412:325|402:288,1,77.0000023498536,0|8,1:2|0:0,0:0:0:0:
403,291,79442,1,8,0:0:0:0:
403,291,79524,1,8,0:0:0:0:
317,280,79689,1,8,0:3:0:0:
252,201,79854,6,0,B|203:214|203:214|182:243|182:243|105:288,1,154.000004699707,12|8,0:0|0:0,0:0:0:0:
39,235,80348,2,0,P|26:187|45:143,1,77.0000023498536,2|8,0:0|0:0,0:0:0:0:
92,25,80678,2,0,P|105:61|99:99,1,77.0000023498536,2|8,1:2|0:0,0:0:0:0:
174,148,81007,1,2,1:2:0:0:
320,78,81172,6,0,P|261:63|201:148,1,154.000004699707,12|8,0:0|0:0,0:0:0:0:
258,213,81667,2,0,L|268:303,2,77.0000023498536,2|8|2,0:0|0:0|1:2,0:0:0:0:
178,266,82161,1,8,0:0:0:0:
260,319,82326,1,2,1:2:0:0:
350,261,82491,6,0,P|411:252|459:340,2,154.000004699707,12|12|10,0:0|0:0|0:0,0:0:0:0:
279,198,83315,1,0,0:0:0:0:
342,128,83480,1,2,1:2:0:0:
265,72,83645,6,0,B|210:52|210:52|96:95,1,154.000004699707,4|2,1:2|1:2,0:0:0:0:
41,127,84139,1,4,1:2:0:0:
216,226,84469,6,0,P|234:286|223:322,1,77.0000023498536,0|0,1:2|1:2,0:0:0:0:
232,298,84716,1,8,0:0:0:0:
232,298,84799,2,0,P|199:336|189:387,1,77.0000023498536,8|4,0:3|0:3,0:0:0:0:
191,362,85046,1,4,0:3:0:0:
191,362,85128,5,4,1:0:0:0:
256,192,85211,12,2,87601,0:0:0:0:
