osu file format v14

[General]
AudioFilename: audio.mp3
AudioLeadIn: 0
PreviewTime: 63865
Countdown: 0
SampleSet: Soft
StackLeniency: 0.5
Mode: 0
LetterboxInBreaks: 0
WidescreenStoryboard: 0

[Editor]
DistanceSpacing: 1.1
BeatDivisor: 4
GridSize: 32
TimelineZoom: 2.699999

[Metadata]
Title:Megumi no Ame (TV Size)
TitleUnicode:芽ぐみの雨 (TV Size)
Artist:yanaginagi
ArtistUnicode:yanaginagi
Creator:Stratos
Version:Insane
Source:やはり俺の青春ラブコメはまちがっている。完
Tags:My Teen Romantic Comedy SNAFU 3 youth is wrong as i expected yahari ore no seishun rabukome wa machigatteiru kan oregairu season three opening yukinoshita japanese anime pop nao tomori naotoshi kibbleru
BeatmapID:2578077
BeatmapSetID:1240047

[Difficulty]
HPDrainRate:6
CircleSize:4.2
OverallDifficulty:8
ApproachRate:9
SliderMultiplier:1.75
SliderTickRate:1

[Events]
//Background and Video events
0,0,"poggers.jpg",0,0
//Break Periods
//Storyboard Layer 0 (Background)
//Storyboard Layer 1 (Fail)
//Storyboard Layer 2 (Pass)
//Storyboard Layer 3 (Foreground)
//Storyboard Layer 4 (Overlay)
//Storyboard Sound Samples

[TimingPoints]
539,337.078651685393,4,2,1,40,1,0
700,-100,4,2,1,40,0,0
708,342.857142857143,4,2,1,40,1,0
1565,327.868852459016,4,2,1,40,1,0
2056,337.078651685393,4,2,1,40,1,0
2898,319.148936170213,4,2,1,40,1,0
3376,329.67032967033,4,2,1,40,1,0
6013,333.333333333333,4,2,1,40,1,0
6013,-100,4,2,1,40,0,0
6512,319.148936170213,4,2,1,40,1,0
6990,344.827586206897,4,2,1,40,1,0
7507,329.67032967033,4,2,1,60,1,0
7507,-100,4,2,1,60,0,0
7671,444.444444444444,4,2,1,60,1,0
7671,-90.9090909090909,4,2,1,60,0,0
8004,315.789473684211,4,2,1,60,1,0
8004,-100,4,2,1,60,0,0
8319,-125,4,2,1,60,0,0
8635,340.909090909091,4,2,1,60,1,0
8635,-90.9090909090909,4,2,1,60,0,0
8975,329.67032967033,4,2,1,60,1,0
9304,-90.9090909090909,4,2,1,60,0,0
9964,329.67032967033,4,2,1,60,1,0
9964,-90.9090909090909,4,2,1,60,0,0
19194,-111.111111111111,4,2,1,45,0,0
28425,-111.111111111111,4,2,1,55,0,0
29744,-111.111111111111,4,2,1,45,0,0
34359,-111.111111111111,4,2,1,50,0,0
35018,-100,4,2,1,50,0,0
39304,-83.3333333333333,4,2,1,50,0,0
40293,-166.666666666667,4,2,1,40,0,0
41612,-142.857142857143,4,2,1,40,0,0
42271,-166.666666666667,4,2,1,40,0,0
42931,-133.333333333333,4,2,1,40,0,0
43590,-166.666666666667,4,2,1,40,0,0
45568,-133.333333333333,4,2,1,45,0,0
47546,-121.951219512195,4,2,1,45,0,0
49854,-76.9230769230769,4,2,1,50,0,0
50843,-95.2380952380952,4,2,1,50,0,0
53480,-86.9565217391304,4,2,1,50,0,0
54799,-95.2380952380952,4,2,1,50,0,0
56117,-86.9565217391304,4,2,1,55,0,0
56612,-90.9090909090909,4,2,1,55,0,0
58095,-100,4,2,1,55,0,0
58754,-80,4,2,1,60,0,0
61392,-117.647058823529,4,2,1,60,0,0
64029,-80,4,2,1,60,0,1
64524,-83.3333333333333,4,2,1,60,0,1
73095,-68.9655172413793,4,2,1,60,0,1
73590,-83.3333333333333,4,2,1,60,0,1
74579,-90.9090909090909,4,2,1,60,0,0
77216,-83.3333333333333,4,2,1,60,0,0
79854,-80,4,2,1,60,0,1
80348,-83.3333333333333,4,2,1,60,0,1
84551,-90.9090909090909,4,2,1,60,0,1
85128,-90.9090909090909,4,2,1,60,0,0
85210,-90.9090909090909,4,2,1,30,0,0
87601,-181.818181818182,4,2,1,30,0,0
88260,-181.818181818182,4,2,1,10,0,0

[Colours]
Combo1 : 250,180,240
Combo2 : 120,200,230
Combo3 : 255,230,130
Combo4 : 160,230,150

[HitObjects]
468,336,6013,5,2,0:0:0:0:
428,260,6179,1,0,0:0:0:0:
460,346,6346,1,2,0:0:0:0:
421,271,6512,1,0,0:0:0:0:
255,262,6990,5,2,0:0:0:0:
295,338,7162,1,0,0:0:0:0:
263,252,7334,1,2,0:0:0:0:
303,328,7507,1,0,1:2:0:0:
498,197,7671,6,0,L|403:181,1,96.250002937317,12|0,0:0|0:0,0:0:0:0:
288,127,8004,1,8,0:3:0:0:
257,97,8082,1,2,0:0:0:0:
251,54,8161,1,8,0:0:0:0:
271,16,8240,1,8,0:0:0:0:
288,11,8319,6,4,L|283:45,3,35,4|4|4|4,0:3|0:3|0:3|0:3,0:3:0:0:
369,28,8635,6,0,B|318:18|265:55|303:66|253:102|197:92,1,192.500005874634,4|8,1:2|0:0,0:0:0:0:
15,214,9139,1,2,0:0:0:0:
15,214,9222,1,2,0:0:0:0:
15,214,9304,2,0,P|-6:173|-1:126,1,96.250002937317,8|0,0:0|1:0,0:0:0:0:
166,214,9634,2,0,P|187:255|182:302,1,96.250002937317,8|0,0:0|1:0,0:0:0:0:
256,179,9964,5,8,0:0:0:0:
101,270,10128,1,2,0:0:0:0:
265,174,10293,1,8,0:0:0:0:
336,233,10458,2,0,P|385:240|431:246,1,96.250002937317,2|8,0:0|0:0,0:0:0:0:
512,108,10788,2,0,P|463:101|417:95,1,96.250002937317,0|8,1:2|0:0,0:0:0:0:
432,328,11117,1,0,1:0:0:0:
450,330,11200,1,0,1:0:0:0:
468,332,11282,5,14,0:0:0:0:
336,233,11447,1,0,0:0:0:0:
417,95,11612,1,8,0:0:0:0:
311,126,11777,2,0,P|228:92|240:5,1,192.500005874634,2|0,0:0|1:0,0:0:0:0:
311,126,12271,1,8,0:0:0:0:
185,239,12436,6,0,P|115:229|61:274,1,144.375004405975,4|0,1:2|0:0,0:0:0:0:
64,288,12766,2,0,P|83:244|76:198,1,96.250002937317,0|8,1:2|0:0,0:0:0:0:
253,72,13095,2,0,P|233:115|240:161,1,96.250002937317,2|8,0:0|0:0,0:0:0:0:
348,291,13425,1,2,1:2:0:0:
348,291,13507,1,2,1:2:0:0:
348,291,13590,2,0,L|443:304,1,96.250002937317,8|0,0:0|0:0,0:0:0:0:
488,81,13920,6,0,P|439:157|349:142,1,192.500005874634,12|8,0:0|0:0,0:0:0:0:
164,58,14414,2,0,P|210:52|253:72,1,96.250002937317,2|8,0:0|0:0,0:0:0:0:
139,171,14744,1,0,1:0:0:0:
87,6,14909,1,8,0:0:0:0:
262,159,15073,6,0,P|247:226|295:277,1,144.375004405975,4|0,1:2|0:0,0:0:0:0:
308,268,15403,2,0,P|265:247|217:253,1,96.250002937317,0|8,1:2|0:0,0:0:0:0:
443,360,15733,2,0,P|439:312|410:273,1,96.250002937317,0|10,1:2|0:0,0:0:0:0:
250,339,16062,1,0,1:0:0:0:
397,182,16227,1,8,0:0:0:0:
307,92,16392,1,0,1:0:0:0:
310,110,16474,1,0,1:0:0:0:
313,128,16557,5,14,0:0:0:0:
166,104,16722,2,0,P|142:64|147:17,1,96.250002937317,0|8,3:0|0:0,0:0:0:0:
261,207,17051,2,0,P|173:234|101:177,1,192.500005874634,4|0,1:2|1:2,0:0:0:0:
313,128,17546,1,8,0:0:0:0:
157,329,17711,2,0,P|88:267|101:175,1,192.500005874634,4|0,1:0|1:0,0:0:0:0:
100,175,18123,1,0,1:0:0:0:
100,175,18205,1,12,0:0:0:0:
108,182,19194,6,0,P|146:185|181:167,1,78.7499975967408,4|0,1:2|0:0,0:0:0:0:
207,32,19524,2,0,P|162:93|181:167,1,157.499995193482,10|0,0:0|0:0,0:0:0:0:
349,150,20018,1,0,1:2:0:0:
284,108,20183,1,8,0:0:0:0:
284,189,20348,6,0,P|328:127|309:53,1,157.499995193482,2|0,1:2|1:2,0:0:0:0:
284,189,20843,1,8,0:0:0:0:
359,265,21007,1,0,3:0:0:0:
359,265,21090,1,0,3:0:0:0:
359,265,21172,2,0,P|396:277|434:271,1,78.7499975967408,2|0,0:0|1:2,0:0:0:0:
268,366,21502,2,0,P|256:329|262:291,1,78.7499975967408,8|0,0:0|3:0,0:0:0:0:
121,153,21832,6,0,P|152:223|139:300,2,157.499995193482,4|10|2,1:2|0:0|1:3,0:0:0:0:
49,76,22656,1,0,1:0:0:0:
18,176,22821,1,8,0:0:0:0:
151,53,22985,2,0,P|229:61|288:111,1,157.499995193482,2|0,1:2|1:0,0:0:0:0:
334,233,23480,6,0,P|373:238|412:243,1,78.7499975967408,10|0,0:0|0:0,0:0:0:0:
504,164,23810,2,0,P|465:159|426:154,1,78.7499975967408,2|0,1:2|1:0,0:0:0:0:
434,330,24139,2,0,P|473:335|512:340,1,78.7499975967408,10|0,0:0|0:0,0:0:0:0:
426,154,24469,5,4,1:2:0:0:
247,323,24799,2,0,P|172:339|111:293,1,157.499995193482,10|0,0:0|1:0,0:0:0:0:
59,154,25293,1,0,1:0:0:0:
23,321,25458,1,8,0:0:0:0:
192,248,25623,6,0,P|229:181|203:109,1,157.499995193482,2|0,1:2|1:0,0:0:0:0:
303,250,26117,2,0,P|332:276|371:282,1,78.7499975967408,10|0,0:0|0:0,0:0:0:0:
492,203,26447,2,0,L|502:124,1,78.7499975967408,2|0,1:2|1:0,0:0:0:0:
382,64,26777,2,0,L|372:143,1,78.7499975967408,10|0,0:2|0:0,0:0:0:0:
499,214,27106,1,4,1:2:0:0:
259,72,27436,6,0,P|184:56|123:102,1,157.499995193482,10|0,0:0|1:0,0:0:0:0:
76,245,27931,1,0,1:0:0:0:
141,187,28095,1,8,0:0:0:0:
123,102,28260,1,0,1:0:0:0:
58,159,28425,5,2,1:2:0:0:
205,319,28590,1,4,1:2:0:0:
138,382,29084,5,2,1:2:0:0:
309,225,29249,1,4,1:2:0:0:
309,225,29744,6,0,P|348:229|387:234,2,78.7499975967408,4|0|8,1:2|0:0|0:0,0:0:0:0:
241,153,30238,2,0,P|228:117|233:78,1,78.7499975967408,0|0,3:0|1:2,0:0:0:0:
364,10,30568,2,0,P|377:46|372:85,1,78.7499975967408,2|8,1:2|0:0,0:0:0:0:
230,163,30898,6,0,P|154:171|107:112,1,157.499995193482,2|0,1:2|1:2,0:0:0:0:
196,260,31392,1,8,0:0:0:0:
267,321,31557,1,0,3:2:0:0:
267,321,31639,1,0,3:0:0:0:
267,321,31722,2,0,P|306:325|345:330,1,78.7499975967408,2|0,1:2|1:2,0:0:0:0:
466,370,32051,2,0,P|489:339|496:300,1,78.7499975967408,8|0,0:0|0:0,0:0:0:0:
485,165,32381,6,0,B|442:167|419:203|419:203|395:238|353:241,2,157.499995193482,4|10|0,1:2|0:0|1:2,0:0:0:0:
512,77,33205,1,0,1:2:0:0:
437,24,33370,1,8,0:0:0:0:
324,108,33535,2,0,P|247:114|190:63,1,157.499995193482,2|0,1:2|1:2,0:0:0:0:
268,201,34029,6,0,P|278:237|273:275,1,78.7499975967408,10|0,0:0|0:0,0:0:0:0:
162,362,34359,1,0,1:2:0:0:
272,277,34524,1,0,1:2:0:0:
99,222,34689,2,0,P|93:260|103:298,1,78.7499975967408,8|2,0:0|0:0,0:0:0:0:
193,76,35018,6,0,P|108:62|39:112,1,175,4|8,1:2|0:0,0:0:0:0:
208,181,35513,1,2,0:0:0:0:
265,9,35678,1,0,1:2:0:0:
354,88,35843,2,0,P|397:90|435:70,1,87.5,2|8,1:2|0:0,0:0:0:0:
463,283,36172,6,0,P|451:199|512:141,1,175,4|0,1:2|1:2,0:0:0:0:
387,335,36667,2,0,P|348:355|306:353,1,87.5,8|0,0:0|0:0,0:0:0:0:
212,203,36996,1,2,1:2:0:0:
328,264,37161,1,0,1:2:0:0:
163,376,37326,2,0,P|143:337|145:295,1,87.5,8|2,0:0|0:0,0:0:0:0:
203,96,37656,6,0,B|157:89|121:122|121:122|107:171|62:180,2,175,4|8|2,1:2|0:0|1:2,0:0:0:0:
357,144,38480,1,0,1:2:0:0:
429,86,38645,2,0,P|449:47|447:5,1,87.5,8|0,0:0|1:2,0:0:0:0:
290,71,38974,1,4,0:0:0:0:
443,235,39139,1,0,1:2:0:0:
297,369,39304,6,0,P|263:300|295:231,1,157.499995193482,12|0,0:0|0:0,0:0:0:0:
306,240,39634,2,0,P|282:251|256:253,1,52.4999983978272,8|0,0:3|0:0,0:0:0:0:
190,193,39799,2,0,P|167:177|152:156,1,52.4999983978272,8|0,0:3|0:0,0:0:0:0:
174,69,39964,1,4,0:3:0:0:
174,69,40293,6,0,B|215:83|260:60|231:47|280:24|318:39,1,157.499995193482,4|0,1:1|0:0,0:0:0:0:
402,85,40953,2,0,P|477:78|512:10,1,157.499995193482,2|0,0:0|0:0,0:0:0:0:
388,81,41612,2,0,P|347:159|388:238,1,183.749994392395,2|0,0:0|0:0,0:0:0:0:
512,302,42271,2,0,B|472:322|462:360|462:360|437:329|394:326,1,157.499995193482,2|0,0:0|0:0,0:0:0:0:
298,365,42931,6,0,P|206:382|153:300,1,196.875007510186,2|0,0:0|0:0,0:0:0:0:
0,247,43590,2,0,B|43:250|68:281|68:281|78:243|118:223,1,157.499995193482,2|0,0:0|0:0,0:0:0:0:
69,85,44249,5,0,0:0:0:0:
46,175,44579,1,2,0:0:0:0:
245,48,44909,1,0,0:0:0:0:
155,25,45238,1,2,0:0:0:0:
355,192,45568,6,0,P|417:189|470:130,1,131.25000500679,2|0,3:2|3:2,0:0:0:0:
382,103,46062,1,2,0:0:0:0:
284,248,46227,2,0,L|153:265,1,131.25000500679,0|0,3:2|3:2,0:0:0:0:
284,248,46722,1,2,0:0:0:0:
378,330,46887,6,0,L|509:313,1,131.25000500679,0|0,3:2|3:2,0:0:0:0:
403,244,47381,1,2,0:0:0:0:
270,371,47546,2,0,L|198:378,1,71.7500010948181,0|0,1:0|0:0,0:0:0:0:
187,371,47793,1,0,3:0:0:0:
187,371,47876,1,0,1:0:0:0:
61,285,48040,5,0,3:0:0:0:
61,285,48123,1,0,3:0:0:0:
61,285,48205,2,0,P|100:227|86:158,1,143.500002189636,2|0,1:2|1:2,0:0:0:0:
209,74,48700,1,2,0:0:0:0:
87,159,48865,2,0,P|123:162|156:148,1,71.7500010948181,0|0,1:2|0:0,0:0:0:0:
209,74,49194,2,0,P|213:38|234:10,1,71.7500010948181,0|2,1:2|0:0,0:0:0:0:
273,186,49524,2,0,P|310:223|319:276,1,107.625001642227,0|0,1:2|0:0,0:0:0:0:
333,291,49854,6,0,B|336:340|380:353|380:353|419:329|405:276,1,170.624992189408,12|0,0:2|0:0,0:0:0:0:
507,189,50183,1,8,0:0:0:0:
496,184,50266,1,8,0:0:0:0:
485,179,50348,2,0,P|456:177|430:187,1,56.8749973964692,8|0,0:0|0:0,0:0:0:0:
391,90,50513,1,8,0:0:0:0:
380,95,50595,1,8,0:0:0:0:
369,100,50678,2,0,P|342:109|314:107,1,56.8749973964692,8|8,0:0|0:0,0:0:0:0:
142,152,50843,6,0,P|130:86|174:36,1,137.812495794296,4|0,1:2|0:0,0:0:0:0:
191,40,51172,1,4,0:3:0:0:
8,303,51502,5,0,3:0:0:0:
51,205,51667,1,8,0:3:0:0:
114,291,51832,2,0,L|108:337,2,45.9374985980988,4|4|2,0:3|0:3|1:2,0:0:0:0:
245,245,52161,2,0,L|336:257,1,91.8749971961976,8|0,0:3|0:0,0:0:0:0:
348,246,52409,1,8,2:3:0:0:
322,229,52491,1,8,2:3:0:0:
291,235,52573,1,8,0:3:0:0:
273,261,52656,1,8,0:3:0:0:
467,219,52821,2,0,L|473:174,3,45.9374985980988,0|8|8|8,1:0|0:3|0:3|0:3,0:0:0:0:
390,134,53150,5,0,1:0:0:0:
362,98,53233,1,8,0:3:0:0:
362,53,53315,1,4,0:3:0:0:
389,17,53398,1,4,0:3:0:0:
433,6,53480,2,0,P|369:50|297:32,1,150.937502878904,4|0,1:2|0:0,0:0:0:0:
291,24,53810,1,4,0:3:0:0:
60,262,54139,5,8,0:3:0:0:
182,224,54304,1,2,0:0:0:0:
155,133,54469,1,4,0:3:0:0:
33,171,54634,1,4,1:2:0:0:
252,284,54799,2,0,P|272:244|270:198,1,91.8749971961976,0|0,1:2|0:0,0:0:0:0:
174,47,55128,2,0,P|153:87|155:133,1,91.8749971961976,8|0,0:3|0:0,0:0:0:0:
170,148,55376,1,0,1:2:0:0:
170,148,55458,1,0,1:2:0:0:
291,24,55623,1,8,0:3:0:0:
364,101,55788,2,0,L|454:116,1,91.8749971961976,4|2,0:3|1:2,0:0:0:0:
428,364,56117,6,0,P|365:291|400:201,1,201.250003838539,4|8,1:2|0:0,0:0:0:0:
286,348,56612,2,0,P|243:368|195:363,1,96.250002937317,2|0,3:2|1:2,0:0:0:0:
41,281,56942,2,0,P|84:261|132:266,1,96.250002937317,0|8,1:2|0:0,0:0:0:0:
41,281,57271,1,2,1:2:0:0:
197,191,57436,6,0,P|227:104|169:32,1,192.500005874634,2|8,0:2|0:0,0:0:0:0:
13,25,57931,1,2,0:0:0:0:
70,98,58095,5,2,1:2:0:0:
79,110,58205,2,0,L|137:120,1,58.3333333333333
274,47,58425,5,10,0:0:0:0:
265,35,58535,2,0,L|207:25,1,58.3333333333333
297,206,58755,6,0,B|406:225|406:225|411:223|411:223|518:242,1,218.75,12|0,0:0|1:2,0:0:0:0:
188,384,59249,2,0,L|205:276,1,109.375,12|0,0:0|1:2,0:0:0:0:
149,202,59579,1,0,1:2:0:0:
374,26,59744,2,0,L|357:134,1,109.375,14|0,0:0|1:2,0:0:0:0:
413,208,60073,1,0,1:2:0:0:
192,43,60238,6,0,B|157:26|157:26|80:52|80:52|87:109|43:138,1,218.75,12|0,0:0|1:2,0:0:0:0:
272,300,60733,1,14,0:0:0:0:
225,134,60898,1,2,1:2:0:0:
149,202,61062,2,0,L|311:227,1,164.0625,8|0,0:3|0:0,0:0:0:0:
413,208,61392,5,4,1:0:0:0:
413,208,62876,1,2,0:0:0:0:
434,211,62958,1,0,1:0:0:0:
456,214,63040,1,12,1:2:0:0:
456,214,63370,5,8,2:3:0:0:
478,180,63453,1,8,2:3:0:0:
480,139,63535,1,8,2:3:0:0:
460,103,63617,1,8,2:3:0:0:
431,75,63700,1,4,2:3:0:0:
438,37,63782,1,4,2:3:0:0:
475,22,63865,1,4,2:3:0:0:
508,44,63947,1,4,2:3:0:0:
506,84,64029,6,0,B|365:63|365:63|349:101|308:110,1,218.75,4|8,1:2|0:0,0:0:0:0:
137,205,64524,2,0,L|240:221,1,104.999996795654,2|8,0:0|0:0,0:0:0:0:
61,47,64854,2,0,P|38:93|46:144,1,104.999996795654,2|8,1:2|0:0,0:0:0:0:
0,237,65183,1,0,1:2:0:0:
129,354,65348,6,0,P|167:288|151:213,1,157.499995193482,10|0,0:0|0:0,0:0:0:0:
137,205,65678,1,8,0:0:0:0:
273,335,65843,2,0,L|376:351,1,104.999996795654,2|8,0:0|0:0,0:0:0:0:
512,226,66172,2,0,L|409:210,1,104.999996795654,2|8,1:2|0:0,0:0:0:0:
512,226,66502,1,0,1:2:0:0:
335,134,66667,6,0,B|306:104|291:64|304:21|335:-13|335:-13|356:2|360:25,1,209.999993591309,14|8,0:0|0:0,0:0:0:0:
236,192,67161,2,0,P|188:213|137:205,1,104.999996795654,2|8,0:0|0:0,0:0:0:0:
48,46,67491,1,2,1:2:0:0:
177,121,67656,1,8,0:0:0:0:
53,217,67821,5,2,1:2:0:0:
149,17,67985,1,10,0:0:0:0:
253,44,68150,2,0,L|356:28,1,104.999996795654,2|12,1:2|0:0,0:0:0:0:
499,161,68480,2,0,P|520:113|512:62,1,104.999996795654,2|0,0:0|1:2,0:0:0:0:
347,161,68810,1,8,0:3:0:0:
328,179,68892,1,8,0:3:0:0:
315,202,68974,1,8,0:3:0:0:
308,227,69057,1,4,0:3:0:0:
308,254,69139,1,4,0:3:0:0:
313,279,69222,1,4,0:3:0:0:
324,302,69304,6,0,P|419:337|499:276,1,209.999993591309,4|8,1:2|0:0,0:0:0:0:
235,337,69799,1,2,0:0:0:0:
210,355,69881,1,2,0:0:0:0:
198,384,69964,1,0,1:2:0:0:
324,302,70128,1,0,1:2:0:0:
242,176,70293,1,8,0:0:0:0:
115,258,70458,6,0,P|36:198|56:100,1,209.999993591309,2|0,1:2|1:2,0:0:0:0:
216,4,70953,1,8,0:0:0:0:
282,65,71117,2,0,L|385:81,1,104.999996795654,2|0,0:0|1:2,0:0:0:0:
216,4,71447,1,2,1:2:0:0:
382,167,71612,1,8,0:0:0:0:
300,342,71777,5,2,0:0:0:0:
300,342,71859,1,0,1:0:0:0:
300,342,71942,2,0,B|269:313|253:273|265:230|294:195|294:195|303:220|318:233,1,209.999993591309,4|8,1:2|0:0,0:0:0:0:
139,357,72436,2,0,P|43:358|24:263,1,209.999993591309,2|0,0:0|1:2,0:0:0:0:
183,199,72931,1,10,0:0:0:0:
75,17,73095,6,0,B|39:-7|-39:21|-14:127|80:131|131:91,1,253.750007743836,4|0,1:2|1:2,0:0:0:0:
380,51,73590,1,12,0:0:0:0:
268,5,73755,1,0,0:0:0:0:
383,166,73920,1,0,1:2:0:0:
423,167,74002,1,0,3:0:0:0:
458,150,74084,1,2,1:2:0:0:
483,120,74167,1,8,0:0:0:0:
494,83,74249,2,0,P|493:56|483:32,1,52.4999983978272,8|0,0:0|3:0,0:0:0:0:
390,0,74414,2,0,L|380:51,1,52.4999983978272,8|8,0:3|0:3,0:3:0:0:
301,211,74579,6,0,P|213:217|189:131,1,192.500005874634,4|8,1:2|0:0,0:0:0:0:
301,211,75073,1,0,0:0:0:0:
389,294,75238,2,0,L|484:308,1,96.250002937317,2|0,1:2|1:2,0:0:0:0:
301,211,75568,1,8,0:0:0:0:
193,324,75733,6,0,L|2:293,1,192.500005874634,6|0,1:2|1:2,0:0:0:0:
31,384,76227,1,8,0:0:0:0:
161,234,76392,1,2,0:0:0:0:
72,109,76557,2,0,P|51:151|57:198,1,96.250002937317,0|0,1:2|1:2,0:0:0:0:
246,89,76887,2,0,P|267:47|261:0,1,96.250002937317,8|0,0:0|0:0,0:0:0:0:
474,231,77216,6,0,P|377:222|365:126,1,209.999993591309,4|8,1:2|0:0,0:0:0:0:
422,58,77711,1,0,1:2:0:0:
312,288,77876,2,0,L|208:272,1,104.999996795654,2|0,0:0|1:2,0:0:0:0:
14,80,78205,6,0,B|63:112|122:112|176:81|186:24|186:24|142:-14|91:5,1,314.999990386963,12|0,0:0|1:2,0:0:0:0:
64,208,78865,2,0,L|48:312,1,104.999996795654,8|0,0:0|0:0,0:0:0:0:
339,260,79194,1,0,1:2:0:0:
339,166,79359,6,0,P|323:145|301:130,1,52.4999983978272,8|8,0:0|0:0,0:0:0:0:
258,212,79524,2,0,P|232:215|208:226,1,52.4999983978272,8|8,0:0|0:0,0:0:0:0:
257,304,79689,2,0,P|246:328|244:354,1,52.4999983978272,8|8,0:3|0:0,0:0:0:0:
500,329,79854,6,0,P|440:243|338:261,1,218.75,12|8,0:0|0:0,0:0:0:0:
499,138,80348,2,0,P|520:90|512:39,1,104.999996795654,2|8,0:0|0:0,0:0:0:0:
339,260,80678,2,0,P|318:308|326:359,1,104.999996795654,2|8,1:2|0:0,0:0:0:0:
499,138,81007,1,2,1:2:0:0:
334,9,81172,6,0,P|262:79|164:55,1,209.999993591309,12|8,0:0|0:0,0:0:0:0:
0,197,81667,2,0,P|46:175|97:182,1,104.999996795654,2|8,0:0|0:0,0:0:0:0:
225,351,81996,1,2,1:2:0:0:
276,358,82079,1,0,1:0:0:0:
323,336,82161,1,8,0:0:0:0:
171,237,82326,2,0,P|162:261|164:287,1,52.4999983978272,2|0,1:2|0:0,0:0:0:0:
323,336,82491,6,0,P|348:236|295:149,1,209.999993591309,12|12,0:0|0:0,0:0:0:0:
130,14,82985,1,0,0:0:0:0:
92,99,83150,2,0,P|143:106|190:85,1,104.999996795654,10|0,0:0|0:0,0:0:0:0:
512,21,83480,5,2,1:2:0:0:
446,78,83645,2,0,B|366:60|366:60|335:22|335:22|257:5,1,209.999993591309,4|2,1:2|1:2,0:0:0:0:
9,144,84139,1,4,1:2:0:0:
232,376,84469,5,0,1:2:0:0:
232,376,84551,2,0,L|238:328,1,48.1250014686585,0|0,1:2|1:2,0:0:0:0:
336,261,84716,1,8,0:0:0:0:
336,261,84799,2,0,L|329:308,1,48.1250014686585,8|0,0:3|0:0,0:0:0:0:
193,239,84964,1,4,0:3:0:0:
186,207,85046,1,4,0:3:0:0:
201,179,85128,1,4,1:0:0:0:
256,192,85211,12,2,87271,0:0:0:0:
311,117,87601,6,0,B|296:73|339:42|339:42|317:91|345:143,1,192.500005874634,2|0,0:0|0:0,0:0:0:0:
