osu file format v14

[General]
AudioFilename: audio.mp3
AudioLeadIn: 0
PreviewTime: 63849
Countdown: 0
SampleSet: Soft
StackLeniency: 0.5
Mode: 0
LetterboxInBreaks: 0
WidescreenStoryboard: 1

[Editor]
Bookmarks: 19199,40298,64034
DistanceSpacing: 1
BeatDivisor: 4
GridSize: 4
TimelineZoom: 1.3

[Metadata]
Title:Megumi no Ame (TV Size)
TitleUnicode:芽ぐみの雨 (TV Size)
Artist:yanaginagi
ArtistUnicode:やなぎなぎ
Creator:Kibbleru
Version:Normal
Source:やはり俺の青春ラブコメはまちがっている。完
Tags:My Teen Romantic Comedy SNAFU 3 youth is wrong as i expected yahari ore no seishun rabukome wa machigatteiru. kan oregairu season three 3 opening doormat haruto haruto_aizawa japanese anime
BeatmapID:2393326
BeatmapSetID:1146195

[Difficulty]
HPDrainRate:3.5
CircleSize:3.2
OverallDifficulty:5
ApproachRate:6
SliderMultiplier:0.999999999999999
SliderTickRate:1

[Events]
//Background and Video events
0,0,"BG.jpg",0,0
Video,-388,"oregairu_final_op.mp4"
//Break Periods
//Storyboard Layer 0 (Background)
//Storyboard Layer 1 (Fail)
//Storyboard Layer 2 (Pass)
//Storyboard Layer 3 (Foreground)
//Storyboard Layer 4 (Overlay)
//Storyboard Sound Samples

[TimingPoints]
700,333.333333333333,4,2,1,40,1,0
700,-111.111111111111,4,2,1,40,0,0
6008,333.333333333333,4,2,1,40,1,0
7508,319.148936170213,4,2,1,60,1,0
7667,327.868852459016,4,2,1,60,1,0
7667,-100,4,2,1,60,0,0
7994,319.148936170213,4,2,1,60,1,0
8313,329.67032967033,4,2,1,60,1,0
8650,329.67032967033,4,2,1,60,1,0
17715,-100,4,2,1,60,0,0
19199,-100,4,2,1,45,0,0
28430,-100,4,2,1,55,0,0
29748,-100,4,2,1,45,0,0
34364,-100,4,2,1,50,0,0
39309,-100,4,2,1,50,0,0
39639,-100,4,2,1,50,0,0
39803,-100,4,2,1,50,0,0
40298,-111.111111111111,4,2,1,40,0,0
44254,-111.111111111111,4,2,1,40,0,0
44913,-111.111111111111,4,2,1,40,0,0
45573,-100,4,2,1,45,0,0
46232,-100,4,2,1,45,0,0
46891,-100,4,2,1,45,0,0
47551,-100,4,2,1,45,0,0
48210,-100,4,2,1,45,0,0
49529,-100,4,2,1,45,0,0
49858,-100,4,2,1,50,0,0
50518,-100,4,2,1,50,0,0
50847,-100,4,2,1,50,0,0
51507,-100,4,2,1,50,0,0
53485,-100,4,2,1,50,0,0
54145,-100,4,2,1,50,0,0
56122,-100,4,2,1,55,0,0
56617,-100,4,2,1,55,0,0
58759,-100,4,2,1,60,0,0
63869,-100,4,2,1,60,0,0
64034,-100,4,2,1,60,0,1
73924,-100,4,2,1,60,0,1
74584,-100,4,2,1,60,0,1
78210,-100,4,2,1,60,0,1
78869,-100,4,2,1,60,0,1
79529,-100,4,2,1,60,0,1
80188,-100,4,2,1,60,0,0
81177,-100,4,2,1,60,0,0
81507,-100,4,2,1,60,0,0
85215,-100,4,2,1,30,0,0

[Colours]
Combo1 : 255,203,151
Combo2 : 165,200,248
Combo3 : 180,157,240

[HitObjects]
26,140,700,6,0,P|54:104|155:94,1,134.999995880127,2|2,0:0|0:0,0:0:0:0:
214,135,1533,2,0,P|211:185|202:230,1,89.999997253418,0|0,0:0|0:0,0:0:0:0:
187,266,2033,2,0,L|338:253,1,134.999995880127,2|2,0:0|0:0,0:0:0:0:
400,297,2866,1,0,0:0:0:0:
487,194,3366,6,0,P|448:156|360:151,1,134.999995880127,2|2,0:0|0:0,0:0:0:0:
291,190,4199,1,0,0:0:0:0:
209,152,4533,2,0,L|105:141,1,89.999997253418,0|0,0:0|0:0,0:0:0:0:
76,128,5033,1,0,0:0:0:0:
85,217,5366,1,2,0:0:0:0:
97,306,5699,1,2,0:0:0:0:
352,319,7667,5,12,0:0:0:0:
449,296,7994,2,0,B|466:245|466:245|448:195,1,99.9999999999999,8|4,0:3|0:3,0:0:0:0:
433,100,8650,6,0,L|334:116,1,99.9999999999999,4|8,1:2|0:0,0:0:0:0:
291,136,9144,1,2,0:0:0:0:
291,136,9309,2,0,L|188:116,1,99.9999999999999,8|8,0:0|0:0,0:0:0:0:
129,194,9968,2,0,L|68:214,1,50,8|2,0:0|0:0,0:0:0:0:
35,204,10298,1,8,0:0:0:0:
35,204,10463,2,0,B|17:252|17:252|43:312,1,99.9999999999999,2|0,0:0|1:2,0:0:0:0:
72,330,10957,1,8,0:0:0:0:
165,295,11287,5,10,0:0:0:0:
257,334,11617,1,8,0:0:0:0:
344,285,11946,1,8,0:0:0:0:
344,285,12111,2,0,L|351:220,1,50,0|8,1:0|0:0,0:0:0:0:
380,196,12441,2,0,B|291:190|335:166|218:173,1,150,4|8,1:2|0:0,0:0:0:0:
133,184,13265,2,0,P|117:141|120:86,1,99.9999999999999,8|8,0:0|0:0,0:0:0:0:
191,18,13924,5,8,0:0:0:0:
290,28,14254,1,8,0:0:0:0:
356,110,14584,1,8,0:0:0:0:
356,110,14748,2,0,L|346:167,1,50,0|8,1:0|0:0,0:0:0:0:
377,199,15078,2,0,P|289:206|240:257,1,150,4|8,1:2|0:2,0:0:0:0:
241,295,15737,2,0,L|123:279,1,99.9999999999999,2|0,1:2|1:0,0:0:0:0:
94,298,16232,1,8,0:0:0:0:
24,220,16562,6,0,B|6:173|6:173|30:117,1,99.9999999999999,10|8,0:0|0:0,0:0:0:0:
33,77,17056,2,0,L|150:97,1,99.9999999999999,4|0,1:2|1:2,0:0:0:0:
221,49,17715,2,0,B|245:102|245:102|224:199,1,150,0|12,1:0|0:0,0:0:0:0:
437,330,19199,6,0,P|453:269|447:223,1,99.9999999999999,4|10,1:2|0:0,0:0:0:0:
372,168,19858,1,0,0:0:0:0:
415,24,20353,2,0,P|392:85|255:100,1,200,2|0,1:2|3:0,0:0:0:0:
236,73,21177,2,0,L|123:44,1,99.9999999999999,2|8,0:0|0:0,0:0:0:0:
48,91,21836,5,2,1:2:0:0:
39,190,22166,1,10,0:0:0:0:
97,270,22496,2,0,L|210:241,1,99.9999999999999,0|8,1:2|0:0,0:0:0:0:
229,210,22990,2,0,P|265:261|281:360,1,150,2|10,1:2|0:0,0:0:0:0:
382,347,23814,2,0,P|402:296|405:231,1,99.9999999999999,2|10,1:2|0:0,0:0:0:0:
351,167,24474,5,4,1:0:0:0:
410,86,24803,1,10,0:0:0:0:
344,10,25133,1,0,1:0:0:0:
252,51,25463,2,0,B|133:40|173:93|56:75,1,200,8|10,0:0|0:0,0:0:0:0:
13,165,26452,2,0,P|34:200|46:274,1,99.9999999999999,2|10,1:2|0:2,0:0:0:0:
104,339,27111,5,4,1:0:0:0:
202,324,27441,1,10,0:0:0:0:
234,229,27770,1,0,1:0:0:0:
153,168,28100,2,0,P|140:100|142:50,1,99.9999999999999,8|2,0:0|1:2,0:0:0:0:
164,25,28595,1,4,1:2:0:0:
314,66,29089,1,2,1:2:0:0:
314,66,29254,1,4,1:0:0:0:
457,21,29748,6,0,L|468:128,1,99.9999999999999,4|8,1:2|0:0,0:0:0:0:
499,159,30243,2,0,L|488:266,1,99.9999999999999,0|2,3:0|1:2,0:0:0:0:
412,323,30902,2,0,B|301:317|337:266|219:280,1,200,2|0,1:2|3:2,0:0:0:0:
178,306,31726,2,0,P|163:263|163:199,1,99.9999999999999,2|8,1:2|0:0,0:0:0:0:
170,108,32386,5,4,1:2:0:0:
259,62,32715,1,10,0:0:0:0:
351,101,33045,2,0,P|366:144|366:208,1,99.9999999999999,0|8,1:2|0:0,0:0:0:0:
328,229,33540,2,0,B|416:226|391:261|490:269,1,150,2|10,1:2|0:0,0:0:0:0:
429,358,34364,1,0,1:2:0:0:
332,369,34693,1,8,0:0:0:0:
255,303,35023,6,0,L|140:297,1,99.9999999999999,4|8,1:2|0:0,0:0:0:0:
113,326,35518,1,2,0:0:0:0:
113,326,35682,2,0,P|104:268|96:219,1,99.9999999999999,0|8,1:2|0:0,0:0:0:0:
72,183,36177,2,0,P|123:129|196:125,1,150,4|8,1:2|0:0,0:0:0:0:
251,209,37001,1,2,1:2:0:0:
337,159,37331,1,8,0:0:0:0:
433,184,37660,6,0,P|388:146|378:0,2,200,4|2|4,1:2|1:2|0:0,0:0:0:0:
483,270,39309,1,12,0:0:0:0:
394,316,39639,2,0,L|325:326,1,50,8|8,0:3|0:3,0:0:0:0:
296,335,39968,1,4,0:3:0:0:
220,285,40298,6,0,B|118:280|158:243|42:248,1,179.999994506836,2|2,0:0|0:0,0:0:0:0:
30,68,41617,2,0,P|113:60|179:144,1,179.999994506836,2|2,0:0|0:0,0:0:0:0:
335,207,42935,2,0,P|360:159|366:105,1,89.999997253418,2|0,0:0|0:0,0:0:0:0:
449,89,43595,2,0,P|475:121|492:176,1,89.999997253418,2|0,0:0|0:0,0:0:0:0:
442,242,44254,1,0,0:0:0:0:
471,327,44584,1,2,0:0:0:0:
394,373,44913,2,0,L|300:357,1,89.999997253418,0|2,0:0|0:0,0:0:0:0:
225,297,45573,6,0,L|111:315,1,99.9999999999999,2|0,3:2|3:2,0:0:0:0:
29,340,46232,2,0,P|12:285|57:135,1,200,0|0,3:2|3:2,0:0:0:0:
131,99,47221,1,0,3:2:0:0:
217,148,47551,2,0,L|225:210,2,50,0|0|0,1:0|0:0|1:0,0:0:0:0:
303,96,48210,6,0,L|411:84,1,99.9999999999999,2|0,1:2|1:2,0:0:0:0:
447,63,48704,1,2,0:0:0:0:
447,63,48869,2,0,P|474:106|480:171,1,99.9999999999999,0|0,1:2|1:2,0:0:0:0:
395,204,49529,1,0,1:2:0:0:
360,297,49858,1,12,0:2:0:0:
442,353,50188,2,0,P|469:310|475:245,1,99.9999999999999,8|8,0:0|0:0,0:0:0:0:
395,204,50847,6,0,L|283:186,1,99.9999999999999,4|4,1:2|0:3,0:0:0:0:
217,250,51507,2,0,L|158:259,1,50,0|8,3:0|0:3,0:0:0:0:
125,230,51836,2,0,L|66:221,1,50,4|2,0:3|1:2,0:0:0:0:
35,253,52166,2,0,B|51:137|-1:169|21:56,1,200,8|0,0:3|1:0,0:0:0:0:
115,24,53155,6,0,L|174:37,1,50,0|4,1:0|0:3,0:0:0:0:
205,63,53485,1,4,1:2:0:0:
301,37,53814,1,4,0:3:0:0:
376,102,54144,2,0,L|382:157,1,50,8|2,0:3|0:0,0:0:0:0:
423,179,54474,2,0,L|417:234,1,50,4|4,0:3|1:2,0:0:0:0:
433,276,54803,2,0,L|331:293,1,99.9999999999999,0|8,1:2|0:3,0:0:0:0:
256,355,55463,2,0,P|227:290|239:209,1,150,0|2,1:2|1:2,0:0:0:0:
254,166,56122,6,0,L|132:177,1,99.9999999999999,4|8,1:2|0:0,0:0:0:0:
104,183,56617,2,0,P|84:129|84:69,1,99.9999999999999,2|0,3:2|1:2,0:0:0:0:
102,41,57111,1,10,0:0:0:0:
201,32,57441,2,0,L|323:43,1,99.9999999999999,0|8,0:0|0:0,0:0:0:0:
350,39,57936,2,0,P|370:93|370:153,1,99.9999999999999,2|0,0:0|1:2,0:0:0:0:
349,179,58430,1,10,0:0:0:0:
394,267,58759,5,12,0:0:0:0:
303,310,59089,1,0,1:2:0:0:
303,310,59254,2,0,B|252:293|252:293|196:315,1,99.9999999999999,12|0,0:0|1:2,0:0:0:0:
169,340,59748,2,0,L|150:180,1,150,10|12,0:0|0:0,0:0:0:0:
233,65,60737,1,10,0:0:0:0:
320,113,61067,1,8,0:3:0:0:
274,201,61397,5,8,0:0:0:0:
0,376,63045,5,12,1:2:0:0:
75,310,63375,2,0,L|187:335,1,99.9999999999999,8|0,0:3|1:0,0:0:0:0:
221,319,63869,1,8,0:3:0:0:
266,340,64034,6,0,P|284:280|277:224,1,99.9999999999999,4|8,1:2|0:0,0:0:0:0:
238,218,64529,2,0,P|220:158|227:102,1,99.9999999999999,2|2,0:0|1:2,0:0:0:0:
268,32,65188,1,0,1:2:0:0:
313,51,65353,2,0,L|421:41,1,99.9999999999999,10|8,0:0|0:0,0:0:0:0:
455,16,65847,2,0,L|439:133,1,99.9999999999999,2|2,0:0|1:2,0:0:0:0:
469,211,66507,1,0,1:2:0:0:
429,240,66671,6,0,B|386:261|386:261|321:244,1,99.9999999999999,10|8,0:0|0:0,0:0:0:0:
304,208,67166,2,0,L|183:197,1,99.9999999999999,2|2,0:0|1:2,0:0:0:0:
166,231,67660,1,8,0:0:0:0:
83,287,67990,2,0,L|69:346,2,50,10|0|12,0:0|1:2|0:0,0:0:0:0:
68,238,68485,2,0,B|71:154|48:185|50:86,1,150,2|8,0:0|0:3,0:0:0:0:
119,18,69309,6,0,P|174:25|218:57,1,99.9999999999999,4|8,1:2|0:0,0:0:0:0:
223,97,69803,1,2,0:0:0:0:
319,74,70133,2,0,L|385:67,1,50,0|8,1:2|0:0,0:0:0:0:
410,40,70463,2,0,L|387:204,1,150,2|8,1:2|0:0,0:0:0:0:
414,240,71122,1,2,0:0:0:0:
350,317,71452,2,0,L|282:322,1,50,2|8,1:2|0:0,0:0:0:0:
253,339,71781,1,2,0:0:0:0:
253,339,71946,6,0,P|236:291|234:220,1,99.9999999999999,4|8,1:2|0:0,0:0:0:0:
256,198,72441,2,0,B|166:184|194:217|108:212,1,150,2|10,0:0|0:0,0:0:0:0:
65,187,73100,1,4,1:2:0:0:
52,37,73595,1,12,0:0:0:0:
147,6,73924,1,0,1:2:0:0:
214,79,74254,1,8,0:0:0:0:
310,51,74584,6,0,L|418:38,1,99.9999999999999,4|8,1:2|0:0,0:0:0:0:
494,91,75243,2,0,B|510:139|510:139|489:193,1,99.9999999999999,2|8,1:2|0:0,0:0:0:0:
460,223,75737,2,0,L|360:212,1,99.9999999999999,4|0,1:2|1:2,0:0:0:0:
314,193,76232,1,8,0:0:0:0:
314,193,76397,2,0,P|282:239|284:346,1,150,2|8,0:0|0:0,0:0:0:0:
184,366,77221,5,4,1:2:0:0:
94,321,77551,1,8,0:0:0:0:
107,222,77880,2,0,L|99:163,1,50,2|0,0:0|1:2,0:0:0:0:
64,136,78210,2,0,B|184:123|141:165|259:164,1,200,12|8,0:0|0:0,0:0:0:0:
303,74,79199,2,0,L|404:55,1,99.9999999999999,0|8,1:2|0:0,0:0:0:0:
487,106,79858,6,0,P|495:166|479:216,1,99.9999999999999,12|8,0:0|0:0,0:0:0:0:
462,248,80353,1,2,0:0:0:0:
364,224,80682,2,0,L|303:229,1,50,2|8,1:2|0:0,0:0:0:0:
274,257,81012,1,2,1:2:0:0:
274,257,81177,2,0,L|259:138,1,99.9999999999999,12|8,0:0|0:0,0:0:0:0:
292,118,81671,2,0,L|143:108,1,150,2|8,0:0|0:0,0:0:0:0:
95,111,82331,1,2,1:2:0:0:
95,111,82496,6,0,B|81:157|81:157|99:220,1,99.9999999999999,12|12,0:0|0:0,0:0:0:0:
171,271,83155,2,0,L|281:252,1,99.9999999999999,10|2,0:0|1:2,0:0:0:0:
313,279,83650,1,4,1:2:0:0:
382,207,83979,1,2,1:2:0:0:
382,207,84144,1,4,1:2:0:0:
331,120,84474,2,0,B|242:83|240:141|135:96,1,200,0|4,1:2|1:0,0:0:0:0:
256,192,85215,12,2,87606,0:0:0:0:
