osu file format v14

[General]
AudioFilename: audio.mp3
AudioLeadIn: 0
PreviewTime: 213274
Countdown: 0
SampleSet: Soft
StackLeniency: 0.7
Mode: 3
LetterboxInBreaks: 0
SpecialStyle: 0
WidescreenStoryboard: 0

[Editor]
DistanceSpacing: 0.3
BeatDivisor: 4
GridSize: 32
TimelineZoom: 2.2

[Metadata]
Title:Megumi no Ame
TitleUnicode:芽ぐみの雨
Artist:yanaginagi
ArtistUnicode:やなぎなぎ
Creator:Savageeeee
Version:Happy Ending
Source:やはり俺の青春ラブコメはまちがっている。完
Tags:ml-ysg yahari ore no seishun rabukome wa machigatteiru. kan My Teen youth Romantic Comedy is wrong as I expected oregairu SNAFU 3rd season full ver version opening op anime japanese 123ysg pop 北川勝利 GNCA-0607 21st single
BeatmapID:4102133
BeatmapSetID:1976388

[Difficulty]
HPDrainRate:8
CircleSize:4
OverallDifficulty:8
ApproachRate:5
SliderMultiplier:1.4
SliderTickRate:1

[Events]
//Background and Video events
0,0,"bg.jpg",0,0
//Break Periods
//Storyboard Layer 0 (Background)
//Storyboard Layer 1 (Fail)
//Storyboard Layer 2 (Pass)
//Storyboard Layer 3 (Foreground)
//Storyboard Layer 4 (Overlay)
//Storyboard Sound Samples
Sample,51653,0,"Tom2.wav",50
Sample,52642,0,"Tom1.wav",50
Sample,53631,0,"Tom3.wav",50
Sample,54290,0,"Tom2.wav",50
Sample,54620,0,"Tom2.wav",50
Sample,54950,0,"Tom2.wav",50
Sample,55609,0,"Tom1.wav",50
Sample,55939,0,"Tom3.wav",50
Sample,123521,0,"Tom2.wav",50
Sample,131433,0,"Tom1.wav",50
Sample,132752,0,"Tom2.wav",50
Sample,133741,0,"Tom2.wav",50
Sample,134071,0,"Tom3.wav",50
Sample,135389,0,"Tom3.wav",50
Sample,185499,0,"Tom2.wav",50
Sample,242862,0,"Ride.wav",30
Sample,257038,0,"Ride.wav",30
Sample,258686,0,"Ride.wav",30
Sample,259016,0,"Ride.wav",30
Sample,262972,0,"Ride.wav",30

[TimingPoints]
1214,329.67032967033,4,2,1,50,1,0
64510,-100,4,2,1,50,0,1
84620,-100,4,2,1,50,0,0
144950,-100,4,2,1,50,0,1
163411,-100,4,2,1,50,0,0
213521,-100,4,2,1,50,0,1
233631,-100,4,2,1,50,0,0
245170,-100,4,2,1,50,0,1
255719,-100,4,2,1,50,0,0

[HitObjects]
64,192,1214,128,0,1296:0:0:0:70:C#7S_Db7S.wav
448,192,1214,128,0,2532:0:0:0:0:
192,192,1378,128,0,1461:0:0:0:70:F#6S_Gb6S.wav
320,192,1543,128,0,1626:0:0:0:70:G#6S_Ab6S.wav
64,192,1708,128,0,1790:0:0:0:70:C#6S_Db6S.wav
192,192,2532,128,0,3851:0:0:0:70:C#7S_Db7S.wav
320,192,2532,128,0,2615:0:0:0:0:
64,192,2697,128,0,2779:0:0:0:70:F#6S_Gb6S.wav
448,192,2862,128,0,2944:0:0:0:70:G#6S_Ab6S.wav
320,192,3027,128,0,3109:0:0:0:70:C#6S_Db6S.wav
320,192,3851,128,0,5170:0:0:0:70:C#7S_Db7S.wav
448,192,3851,128,0,3933:0:0:0:0:
64,192,4016,128,0,4098:0:0:0:50:F6S.wav
192,192,4181,128,0,4263:0:0:0:70:F#6S_Gb6S.wav
448,192,4345,128,0,4428:0:0:0:70:C#6S_Db6S.wav
64,192,5170,128,0,6488:0:0:0:70:C#7S_Db7S.wav
192,192,5170,128,0,5252:0:0:0:0:
448,192,5334,128,0,5417:0:0:0:70:F#6S_Gb6S.wav
320,192,5499,128,0,5582:0:0:0:70:G#6S_Ab6S.wav
192,192,5664,128,0,5746:0:0:0:70:C#6S_Db6S.wav
320,192,6488,128,0,6653:0:0:0:0:
448,192,6488,128,0,7148:0:0:0:0:
64,192,6653,128,0,6818:0:0:0:0:
192,192,6818,128,0,6983:0:0:0:0:
320,192,6983,128,0,7148:0:0:0:0:
64,192,7477,128,0,7972:0:0:0:0:
448,192,7477,128,0,7642:0:0:0:0:
320,192,7642,128,0,7807:0:0:0:0:
192,192,7807,128,0,7972:0:0:0:30:Hat Close.wav
320,192,7972,1,2,0:0:0:0:
448,192,7972,1,0,0:0:0:0:
64,192,8137,1,8,0:0:0:0:
192,192,8137,1,4,0:0:0:0:
448,192,8137,1,0,0:0:0:0:
320,192,8384,1,8,0:0:0:20:soft-hitclap.wav
64,192,8466,128,2,8549:0:0:0:0:
448,192,8466,128,0,8549:0:0:0:50:Tom3.wav
192,192,8549,128,8,8631:0:0:0:20:soft-hitclap.wav
320,192,8631,128,8,8714:0:0:0:30:soft-hitclap.wav
448,192,8631,128,0,8714:0:0:0:0:
64,192,8714,128,8,8796:0:0:0:0:
192,192,8714,128,0,8796:0:0:0:0:
320,192,8796,128,2,8878:0:0:0:0:
448,192,8796,128,8,8878:0:0:0:0:
192,192,8878,128,0,8961:0:0:0:0:
64,192,8961,128,8,9043:0:0:0:0:
448,192,8961,128,0,9043:0:0:0:0:
320,192,9043,128,8,9126:0:0:0:0:
64,192,9126,128,4,9620:0:0:0:0:
192,192,9126,1,2,0:0:0:0:
448,192,9126,1,0,0:0:0:0:
320,192,9455,1,8,0:0:0:0:
448,192,9455,1,0,0:0:0:30:Hat Open.wav
192,192,9620,128,0,9703:0:0:0:0:
320,192,9703,128,0,9785:0:0:0:0:
64,192,9785,1,8,0:0:0:0:
192,192,9785,1,0,0:0:0:30:Hat Open.wav
448,192,9785,128,0,10279:0:0:0:0:
64,192,9950,1,2,0:0:0:0:
320,192,9950,1,0,0:0:0:0:
192,192,10115,1,8,0:0:0:0:
320,192,10115,1,0,0:0:0:30:Hat Open.wav
64,192,10279,1,2,0:0:0:0:
192,192,10279,1,0,0:0:0:0:
64,192,10444,1,8,0:0:0:0:
320,192,10444,128,2,10609:0:0:0:0:
448,192,10444,1,0,0:0:0:30:Hat Open.wav
192,192,10609,128,0,10774:0:0:0:0:
64,192,10774,128,8,10939:0:0:0:0:
320,192,10774,1,0,0:0:0:30:Hat Open.wav
448,192,10774,1,0,0:0:0:0:
192,192,10939,128,0,11268:0:0:0:0:
320,192,11104,1,8,0:0:0:0:
448,192,11104,1,0,0:0:0:30:Hat Open.wav
64,192,11268,1,2,0:0:0:0:
448,192,11268,128,0,11598:0:0:0:0:
192,192,11433,1,8,0:0:0:0:
320,192,11433,128,0,11598:0:0:0:30:Hat Open.wav
64,192,11598,128,2,11763:0:0:0:0:
192,192,11763,1,8,0:0:0:0:
320,192,11763,1,2,0:0:0:0:
448,192,11763,128,4,11928:0:0:0:0:
320,192,11928,128,0,12093:0:0:0:0:
64,192,12093,1,8,0:0:0:0:
192,192,12093,128,0,12257:0:0:0:30:Hat Open.wav
448,192,12093,1,0,0:0:0:0:
64,192,12257,128,0,12587:0:0:0:0:
320,192,12422,1,8,0:0:0:0:
448,192,12422,1,0,0:0:0:30:Hat Open.wav
192,192,12587,128,2,12752:0:0:0:0:
448,192,12587,1,0,0:0:0:0:
64,192,12752,1,8,0:0:0:0:
320,192,12752,128,0,12917:0:0:0:30:Hat Open.wav
64,192,12917,1,4,0:0:0:0:
192,192,12917,1,2,0:0:0:0:
448,192,12917,128,0,13411:0:0:0:0:
64,192,13246,128,2,13411:0:0:0:0:
320,192,13246,1,0,0:0:0:0:
192,192,13411,1,8,0:0:0:0:
320,192,13411,1,0,0:0:0:30:Hat Open.wav
64,192,13576,128,2,13906:0:0:0:0:
192,192,13576,1,0,0:0:0:0:
320,192,13741,1,8,0:0:0:0:
448,192,13741,1,0,0:0:0:30:Hat Open.wav
192,192,13906,1,2,0:0:0:0:
448,192,13906,128,0,13988:0:0:0:0:
320,192,13988,128,0,14071:0:0:0:0:
64,192,14071,1,8,0:0:0:0:
192,192,14071,128,0,14400:0:0:0:30:Hat Open.wav
320,192,14235,1,2,0:0:0:0:
448,192,14235,1,0,0:0:0:0:
64,192,14400,1,8,0:0:0:0:
320,192,14400,1,4,0:0:0:0:
448,192,14400,128,0,14565:0:0:0:0:
192,192,14730,128,8,14895:0:0:0:0:
320,192,14730,1,0,0:0:0:30:Hat Open.wav
448,192,14730,1,0,0:0:0:0:
64,192,14895,128,0,15224:0:0:0:0:
320,192,15060,1,8,0:0:0:0:
448,192,15060,1,0,0:0:0:30:Hat Open.wav
192,192,15224,128,2,15389:0:0:0:0:
448,192,15224,1,0,0:0:0:0:
64,192,15389,1,8,0:0:0:0:
320,192,15389,128,0,15554:0:0:0:30:Hat Open.wav
64,192,15554,1,2,0:0:0:0:
192,192,15554,1,4,0:0:0:0:
448,192,15554,128,0,15884:0:0:0:0:
64,192,15884,1,2,0:0:0:0:
192,192,15884,128,0,16214:0:0:0:0:
64,192,16049,1,8,0:0:0:0:
448,192,16049,1,0,0:0:0:30:Hat Open.wav
320,192,16214,128,2,16543:0:0:0:0:
448,192,16214,1,0,0:0:0:0:
64,192,16378,1,8,0:0:0:0:
192,192,16378,1,0,0:0:0:30:Hat Open.wav
64,192,16543,128,2,16955:0:0:0:0:
448,192,16543,1,0,0:0:0:0:
192,192,16708,1,8,0:0:0:0:
448,192,16708,1,0,0:0:0:30:Hat Open.wav
320,192,16873,128,2,16955:0:0:0:0:
192,192,16955,128,0,17038:0:0:0:0:
64,192,17038,1,2,0:0:0:0:
320,192,17038,1,4,0:0:0:0:
448,192,17038,128,0,17367:0:0:0:0:
192,192,17203,1,2,0:0:0:0:
320,192,17203,1,0,0:0:0:30:Hat Open.wav
64,192,17367,1,8,0:0:0:0:
192,192,17367,1,0,0:0:0:0:
64,192,17532,128,2,17862:0:0:0:0:
320,192,17532,1,4,0:0:0:0:
448,192,17532,1,0,0:0:0:0:
192,192,17862,1,2,0:0:0:0:
448,192,17862,1,0,0:0:0:30:Hat Open.wav
192,192,18027,1,8,0:0:0:0:
320,192,18027,1,0,0:0:0:0:
64,192,18192,1,4,0:0:0:0:
192,192,18192,1,2,0:0:0:0:
448,192,18192,128,0,18521:0:0:0:0:
320,192,18356,1,8,0:0:0:0:
64,192,18521,128,0,18604:0:0:0:50:Tom2.wav
192,192,18604,128,2,18686:0:0:0:0:
448,192,18604,1,0,0:0:0:0:
64,192,18686,1,8,0:0:0:0:
320,192,18686,128,0,18768:0:0:0:50:Hat Open2.wav
448,192,18768,128,0,18851:0:0:0:0:
64,192,19675,128,4,20005:0:0:0:0:
192,192,19675,1,2,0:0:0:0:
448,192,19675,1,0,0:0:0:0:
192,192,20005,1,8,0:0:0:0:
320,192,20005,1,0,0:0:0:30:Hat Close.wav
448,192,20005,1,0,0:0:0:0:
64,192,20170,1,0,0:0:0:30:Hat Close.wav
192,192,20252,1,0,0:0:0:30:Hat Close.wav
320,192,20334,1,0,0:0:0:30:Hat Close.wav
448,192,20334,1,0,0:0:0:0:
64,192,20499,1,2,0:0:0:0:
320,192,20499,1,0,0:0:0:0:
64,192,20664,1,8,0:0:0:0:
192,192,20664,1,0,0:0:0:30:Hat Close.wav
448,192,20664,1,0,0:0:0:0:
192,192,20829,1,2,0:0:0:0:
320,192,20829,1,0,0:0:0:0:
448,192,20994,128,0,21076:0:0:0:30:Hat Close.wav
64,192,21159,1,2,0:0:0:0:
320,192,21159,1,0,0:0:0:0:
192,192,21323,1,8,0:0:0:0:
320,192,21323,1,0,0:0:0:30:Hat Close.wav
448,192,21323,1,0,0:0:0:0:
64,192,21488,1,0,0:0:0:30:Hat Close.wav
192,192,21571,1,0,0:0:0:30:Hat Close.wav
320,192,21653,128,0,21735:0:0:0:30:Hat Close.wav
448,192,21653,1,0,0:0:0:0:
192,192,21818,1,2,0:0:0:0:
320,192,21818,1,0,0:0:0:0:
64,192,21983,1,8,0:0:0:0:
320,192,21983,1,0,0:0:0:30:Hat Close.wav
448,192,21983,1,0,0:0:0:0:
192,192,22148,1,0,0:0:0:30:Hat Close.wav
320,192,22230,1,0,0:0:0:30:Hat Close.wav
64,192,22312,128,2,22395:0:0:0:0:
192,192,22312,1,0,0:0:0:50:Hat Open2.wav
448,192,22312,128,0,22642:0:0:0:0:
64,192,22642,1,8,0:0:0:0:
192,192,22642,1,0,0:0:0:30:Hat Close.wav
320,192,22642,1,0,0:0:0:0:
448,192,22807,1,0,0:0:0:0:
64,192,22972,1,2,0:0:0:0:
320,192,22972,1,0,0:0:0:30:Hat Close.wav
192,192,23137,1,2,0:0:0:0:
320,192,23137,1,0,0:0:0:0:
64,192,23301,1,8,0:0:0:0:
192,192,23301,1,0,0:0:0:30:Hat Close.wav
448,192,23301,1,0,0:0:0:0:
320,192,23466,1,2,0:0:0:0:
448,192,23466,1,0,0:0:0:0:
64,192,23631,128,0,23714:0:0:0:30:Hat Close.wav
192,192,23796,128,2,23878:0:0:0:0:
320,192,23796,1,0,0:0:0:0:
64,192,23961,1,8,0:0:0:0:
320,192,23961,128,0,24043:0:0:0:30:Hat Close.wav
448,192,23961,1,0,0:0:0:0:
192,192,24126,128,0,24208:0:0:0:30:Hat Close.wav
320,192,24208,1,0,0:0:0:30:Hat Close.wav
64,192,24290,1,2,0:0:0:0:
448,192,24290,1,0,0:0:0:30:Hat Close.wav
192,192,24455,1,2,0:0:0:0:
320,192,24455,128,0,24538:0:0:0:0:
64,192,24620,1,8,0:0:0:0:
320,192,24620,1,0,0:0:0:30:Hat Close.wav
448,192,24620,1,0,0:0:0:0:
192,192,24785,128,0,24867:0:0:0:0:
64,192,24950,1,2,0:0:0:0:
320,192,24950,1,0,0:0:0:50:Hat Open2.wav
448,192,24950,128,0,25279:0:0:0:0:
64,192,25279,1,8,0:0:0:0:
192,192,25279,1,0,0:0:0:30:Hat Close.wav
320,192,25279,1,0,0:0:0:0:
448,192,25444,1,0,0:0:0:30:Hat Close.wav
320,192,25527,1,0,0:0:0:30:Hat Close.wav
64,192,25609,1,2,0:0:0:0:
192,192,25609,1,0,0:0:0:30:Hat Close.wav
64,192,25774,1,2,0:0:0:0:
320,192,25774,1,0,0:0:0:0:
192,192,25939,1,8,0:0:0:0:
320,192,25939,1,0,0:0:0:30:Hat Close.wav
448,192,25939,1,0,0:0:0:0:
64,192,26104,128,2,26433:0:0:0:0:
448,192,26104,1,0,0:0:0:0:
192,192,26268,1,0,0:0:0:30:Hat Close.wav
320,192,26433,1,2,0:0:0:0:
448,192,26433,1,0,0:0:0:0:
64,192,26598,1,8,0:0:0:0:
192,192,26598,1,0,0:0:0:30:Hat Close.wav
448,192,26598,1,0,0:0:0:0:
320,192,26763,1,0,0:0:0:30:Hat Close.wav
192,192,26845,1,0,0:0:0:30:Hat Close.wav
64,192,26928,1,2,0:0:0:0:
448,192,26928,128,0,27010:0:0:0:30:Hat Close.wav
192,192,27093,1,2,0:0:0:0:
320,192,27093,1,0,0:0:0:0:
64,192,27257,1,8,0:0:0:0:
192,192,27257,1,0,0:0:0:30:Hat Close.wav
448,192,27257,1,0,0:0:0:0:
320,192,27422,1,0,0:0:0:0:
64,192,27587,1,2,0:0:0:0:
192,192,27587,128,0,27917:0:0:0:50:Hat Open2.wav
448,192,27587,1,0,0:0:0:0:
64,192,27917,1,8,0:0:0:0:
320,192,27917,1,0,0:0:0:30:Hat Close.wav
448,192,27917,1,0,0:0:0:0:
192,192,28082,1,0,0:0:0:30:Hat Close.wav
320,192,28164,1,0,0:0:0:30:Hat Close.wav
64,192,28246,1,0,0:0:0:30:Hat Close.wav
448,192,28246,1,2,0:0:0:0:
64,192,28411,1,2,0:0:0:0:
320,192,28411,1,0,0:0:0:0:
192,192,28576,1,8,0:0:0:0:
320,192,28576,1,0,0:0:0:30:Hat Close.wav
448,192,28576,1,0,0:0:0:0:
64,192,28741,1,2,0:0:0:0:
448,192,28741,1,0,0:0:0:0:
64,192,28906,128,8,28988:0:0:0:0:
192,192,28906,128,0,28988:0:0:0:50:Tom3.wav
320,192,28906,128,0,28988:0:0:0:0:
64,192,29071,128,8,29235:0:0:0:0:
192,192,29071,128,0,29235:0:0:0:50:Hat Open2.wav
448,192,29071,128,0,29235:0:0:0:50:Tom3.wav
192,192,29565,128,8,29648:0:0:0:0:
320,192,29565,128,0,29648:0:0:0:50:Tom3.wav
448,192,29565,128,0,29648:0:0:0:0:
64,192,29730,128,8,29895:0:0:0:0:
320,192,29730,128,0,29895:0:0:0:50:Hat Open2.wav
448,192,29730,128,0,29895:0:0:0:50:Tom3.wav
64,192,30224,1,4,0:0:0:0:
320,192,30224,1,2,0:0:0:0:
448,192,30224,128,0,30554:0:0:0:0:
64,192,30554,1,8,0:0:0:0:
192,192,30554,1,0,0:0:0:30:Hat Close.wav
320,192,30554,1,0,0:0:0:0:
448,192,30719,1,0,0:0:0:30:Hat Close.wav
320,192,30801,1,0,0:0:0:30:Hat Close.wav
64,192,30884,1,2,0:0:0:0:
192,192,30884,1,0,0:0:0:30:Hat Close.wav
192,192,31049,1,2,0:0:0:0:
448,192,31049,1,0,0:0:0:0:
64,192,31214,1,8,0:0:0:0:
320,192,31214,1,0,0:0:0:30:Hat Close.wav
448,192,31214,1,0,0:0:0:0:
192,192,31378,1,2,0:0:0:0:
320,192,31378,1,0,0:0:0:0:
64,192,31543,128,0,31626:0:0:0:30:Hat Close.wav
192,192,31708,1,2,0:0:0:0:
448,192,31708,1,0,0:0:0:0:
64,192,31873,1,8,0:0:0:0:
192,192,31873,1,0,0:0:0:30:Hat Close.wav
320,192,31873,1,0,0:0:0:0:
448,192,32038,1,0,0:0:0:30:Hat Close.wav
320,192,32120,1,0,0:0:0:30:Hat Close.wav
64,192,32203,1,2,0:0:0:0:
192,192,32203,128,0,32285:0:0:0:30:Hat Close.wav
320,192,32367,1,2,0:0:0:0:
448,192,32367,1,0,0:0:0:0:
64,192,32532,1,8,0:0:0:0:
192,192,32532,1,0,0:0:0:30:Hat Close.wav
448,192,32532,1,0,0:0:0:0:
320,192,32697,1,0,0:0:0:0:
192,192,32779,1,0,0:0:0:0:
64,192,32862,128,2,33192:0:0:0:0:
320,192,32862,1,0,0:0:0:50:Hat Open2.wav
448,192,32862,128,0,32944:0:0:0:0:
192,192,33192,1,8,0:0:0:0:
320,192,33192,1,0,0:0:0:30:Hat Close.wav
448,192,33192,1,0,0:0:0:0:
64,192,33356,128,0,33439:0:0:0:0:
192,192,33439,1,0,0:0:0:30:Hat Close.wav
320,192,33521,1,2,0:0:0:0:
448,192,33521,1,0,0:0:0:30:Hat Close.wav
192,192,33686,1,2,0:0:0:0:
448,192,33686,128,0,33768:0:0:0:0:
64,192,33851,1,8,0:0:0:0:
320,192,33851,128,0,33933:0:0:0:30:Hat Close.wav
448,192,33851,1,0,0:0:0:0:
64,192,34016,1,2,0:0:0:0:
192,192,34016,128,0,34098:0:0:0:0:
448,192,34181,128,0,34263:0:0:0:30:Hat Close.wav
64,192,34345,128,2,34428:0:0:0:0:
320,192,34345,1,0,0:0:0:0:
64,192,34510,1,8,0:0:0:0:
192,192,34510,128,0,34593:0:0:0:30:Hat Close.wav
448,192,34510,1,0,0:0:0:0:
320,192,34675,128,0,34757:0:0:0:30:Hat Close.wav
192,192,34757,1,0,0:0:0:30:Hat Close.wav
64,192,34840,1,2,0:0:0:0:
448,192,34840,128,0,34922:0:0:0:30:Hat Close.wav
192,192,35005,128,2,35087:0:0:0:0:
320,192,35005,1,0,0:0:0:0:
64,192,35170,1,8,0:0:0:0:
320,192,35170,1,4,0:0:0:0:
448,192,35170,1,0,0:0:0:0:
192,192,35334,1,0,0:0:0:0:
64,192,35499,1,2,0:0:0:0:
320,192,35499,1,4,0:0:0:0:
448,192,35499,128,0,35829:0:0:0:0:
64,192,35829,1,8,0:0:0:0:
192,192,35829,1,0,0:0:0:30:Hat Close.wav
320,192,35829,1,0,0:0:0:0:
448,192,35994,1,0,0:0:0:30:Hat Close.wav
320,192,36076,1,0,0:0:0:30:Hat Close.wav
64,192,36159,1,2,0:0:0:0:
192,192,36159,1,0,0:0:0:30:Hat Close.wav
64,192,36323,1,2,0:0:0:0:
320,192,36323,1,0,0:0:0:50:Hat Open2.wav
192,192,36488,1,8,0:0:0:0:
320,192,36488,1,0,0:0:0:0:
448,192,36488,1,0,0:0:0:0:
64,192,36653,128,2,36983:0:0:0:0:
192,192,36653,1,4,0:0:0:0:
448,192,36653,1,0,0:0:0:0:
320,192,36983,1,2,0:0:0:0:
448,192,36983,1,0,0:0:0:0:
64,192,37148,128,8,37230:0:0:0:0:
192,192,37148,1,0,0:0:0:30:Hat Close.wav
448,192,37148,1,0,0:0:0:0:
320,192,37312,1,0,0:0:0:30:Hat Close.wav
192,192,37395,1,0,0:0:0:30:Hat Close.wav
64,192,37477,1,2,0:0:0:0:
448,192,37477,128,0,37560:0:0:0:30:Hat Close.wav
320,192,37642,1,2,0:0:0:0:
448,192,37642,1,0,0:0:0:0:
64,192,37807,1,8,0:0:0:0:
192,192,37807,1,4,0:0:0:0:
320,192,37807,1,0,0:0:0:0:
192,192,37972,1,0,0:0:0:0:
64,192,38137,1,4,0:0:0:0:
320,192,38137,128,2,38466:0:0:0:0:
448,192,38137,1,0,0:0:0:0:
64,192,38466,1,8,0:0:0:0:
192,192,38466,1,0,0:0:0:30:Hat Close.wav
448,192,38466,1,0,0:0:0:0:
320,192,38631,1,0,0:0:0:30:Hat Close.wav
192,192,38796,128,2,38878:0:0:0:0:
448,192,38796,1,0,0:0:0:30:Hat Close.wav
192,192,38961,1,2,0:0:0:0:
320,192,38961,128,0,39043:0:0:0:0:
64,192,39126,1,8,0:0:0:0:
320,192,39126,1,0,0:0:0:30:Hat Close.wav
448,192,39126,1,0,0:0:0:0:
64,192,39290,128,2,39373:0:0:0:0:
192,192,39290,1,0,0:0:0:0:
320,192,39455,1,0,0:0:0:30:Hat Open.wav
192,192,39620,1,2,0:0:0:0:
448,192,39620,1,0,0:0:0:0:
64,192,39785,1,8,0:0:0:0:
320,192,39785,1,4,0:0:0:0:
448,192,39785,1,0,0:0:0:0:
64,192,40115,1,8,0:0:0:0:
192,192,40115,1,0,0:0:0:0:
320,192,40115,1,0,0:0:0:0:
192,192,40279,128,0,40444:0:0:0:50:Tom2.wav
64,192,40444,1,0,0:0:0:50:Tom2.wav
320,192,40444,1,0,0:0:0:0:
448,192,40444,1,0,0:0:0:0:
64,192,40774,1,0,0:0:0:70:Kick.wav
192,192,40774,1,0,0:0:0:0:
448,192,40774,128,0,41433:0:0:0:0:
320,192,41104,1,0,0:0:0:0:
192,192,41268,1,0,0:0:0:0:
64,192,41433,128,0,42093:0:0:0:0:
320,192,41763,1,0,0:0:0:0:
448,192,41928,1,0,0:0:0:0:
192,192,42093,128,0,42752:0:0:0:0:
320,192,42752,128,0,43411:0:0:0:0:
448,192,43246,128,0,43411:0:0:0:0:
64,192,43411,128,0,44071:0:0:0:0:
320,192,43741,1,0,0:0:0:0:
192,192,43906,128,0,44071:0:0:0:0:
448,192,44071,128,0,44730:0:0:0:0:
64,192,44235,128,0,44318:0:0:0:0:
192,192,44400,128,0,44483:0:0:0:0:
320,192,44565,128,0,44648:0:0:0:0:
64,192,44730,128,0,45060:0:0:0:0:
192,192,44730,128,0,44812:0:0:0:0:
320,192,44895,128,0,44977:0:0:0:0:
192,192,45060,128,0,45389:0:0:0:0:
448,192,45060,128,0,45142:0:0:0:0:
320,192,45389,128,0,45719:0:0:0:0:
448,192,45719,128,0,46049:0:0:0:0:
64,192,46049,1,2,0:0:0:30:soft-hitwhistle.wav
192,192,46049,1,0,0:0:0:0:
64,192,46378,1,2,0:0:0:30:soft-hitwhistle.wav
320,192,46378,1,0,0:0:0:0:
448,192,46543,1,0,0:0:0:0:
64,192,46708,1,2,0:0:0:30:soft-hitwhistle.wav
192,192,46708,1,0,0:0:0:0:
64,192,47038,1,2,0:0:0:30:soft-hitwhistle.wav
320,192,47038,1,0,0:0:0:0:
192,192,47203,1,0,0:0:0:0:
320,192,47367,1,2,0:0:0:30:soft-hitwhistle.wav
448,192,47367,1,0,0:0:0:0:
64,192,47697,1,2,0:0:0:30:soft-hitwhistle.wav
448,192,47697,1,0,0:0:0:0:
192,192,48027,1,2,0:0:0:30:soft-hitwhistle.wav
448,192,48027,1,0,0:0:0:0:
64,192,48192,1,0,0:0:0:0:
192,192,48274,1,0,0:0:0:0:
320,192,48356,1,2,0:0:0:30:soft-hitwhistle.wav
448,192,48356,1,0,0:0:0:0:
448,192,48521,1,0,0:0:0:0:
320,192,48604,1,0,0:0:0:0:
64,192,48686,1,2,0:0:0:30:soft-hitwhistle.wav
192,192,48686,1,0,0:0:0:0:
192,192,49016,1,2,0:0:0:30:soft-hitwhistle.wav
448,192,49016,1,0,0:0:0:0:
64,192,49181,1,0,0:0:0:0:
192,192,49345,1,2,0:0:0:30:soft-hitwhistle.wav
320,192,49345,1,0,0:0:0:0:
64,192,49675,1,2,0:0:0:30:soft-hitwhistle.wav
192,192,49675,1,0,0:0:0:0:
448,192,49840,1,0,0:0:0:0:
64,192,50005,1,2,0:0:0:30:soft-hitwhistle.wav
320,192,50005,1,0,0:0:0:0:
448,192,50334,1,8,0:0:0:0:
192,192,50334,1,4,0:0:0:0:
320,192,50334,1,2,0:0:0:0:
448,192,50582,1,0,0:0:0:0:
320,192,50582,1,0,0:0:0:0:
64,192,50664,1,2,0:0:0:0:
192,192,50664,1,0,0:0:0:0:
320,192,50746,1,8,0:0:0:10:soft-hitclap.wav
448,192,50746,1,0,0:0:0:0:
64,192,50829,1,8,0:0:0:20:soft-hitclap.wav
192,192,50829,1,0,0:0:0:0:
320,192,50911,1,8,0:0:0:0:
448,192,50911,1,0,0:0:0:0:
64,192,50994,1,2,0:0:0:0:
192,192,50994,1,0,0:0:0:0:
320,192,51076,1,8,0:0:0:0:
448,192,51159,1,0,0:0:0:50:Tom2.wav
192,192,51241,1,8,0:0:0:10:soft-hitclap.wav
64,192,51323,128,4,51653:0:0:0:0:
320,192,51323,1,2,0:0:0:0:
448,192,51323,1,0,0:0:0:0:
192,192,51653,1,2,0:0:0:0:
320,192,51653,1,0,0:0:0:30:Hat Close.wav
320,192,51983,1,2,0:0:0:0:
448,192,51983,1,0,0:0:0:30:Hat Close.wav
64,192,52148,1,0,0:0:0:50:Tom1.wav
448,192,52148,1,0,0:0:0:0:
64,192,52312,1,2,0:0:0:0:
192,192,52312,1,0,0:0:0:30:Hat Close.wav
320,192,52395,1,0,0:0:0:50:Tom2.wav
448,192,52477,1,0,0:0:0:50:Tom2.wav
64,192,52642,1,2,0:0:0:0:
192,192,52642,1,0,0:0:0:30:Hat Close.wav
320,192,52807,1,0,0:0:0:50:Tom3.wav
192,192,52889,1,0,0:0:0:50:Tom3.wav
64,192,52972,1,2,0:0:0:0:
448,192,52972,1,0,0:0:0:30:Hat Close.wav
320,192,53054,1,0,0:0:0:50:Tom3.wav
192,192,53137,1,0,0:0:0:50:Tom3.wav
320,192,53301,1,2,0:0:0:0:
448,192,53301,1,0,0:0:0:30:Hat Close.wav
64,192,53466,1,0,0:0:0:50:Tom3.wav
192,192,53549,1,0,0:0:0:50:Tom3.wav
320,192,53631,1,2,0:0:0:0:
448,192,53631,1,0,0:0:0:30:Hat Close.wav
64,192,53714,1,0,0:0:0:50:Tom3.wav
192,192,53796,1,0,0:0:0:50:Tom3.wav
320,192,53878,1,0,0:0:0:50:Tom3.wav
64,192,53961,1,4,0:0:0:0:
192,192,53961,1,2,0:0:0:0:
448,192,53961,128,0,54290:0:0:0:0:
192,192,54290,1,2,0:0:0:0:
320,192,54290,1,0,0:0:0:30:Hat Close.wav
64,192,54455,1,0,0:0:0:0:
320,192,54620,1,2,0:0:0:0:
448,192,54620,1,0,0:0:0:30:Hat Close.wav
192,192,54785,1,0,0:0:0:0:
64,192,54950,1,2,0:0:0:0:
448,192,54950,1,0,0:0:0:30:Hat Close.wav
192,192,55115,1,0,0:0:0:50:Tom2.wav
320,192,55115,1,0,0:0:0:0:
448,192,55115,1,0,0:0:0:0:
64,192,55279,1,2,0:0:0:0:
320,192,55279,1,0,0:0:0:30:Hat Close.wav
192,192,55444,1,0,0:0:0:50:Tom2.wav
320,192,55609,1,2,0:0:0:0:
448,192,55609,1,0,0:0:0:30:Hat Close.wav
192,192,55774,1,0,0:0:0:50:Tom3.wav
320,192,55856,1,0,0:0:0:50:Tom3.wav
64,192,55939,1,2,0:0:0:0:
448,192,55939,1,0,0:0:0:30:Hat Close.wav
192,192,56104,1,0,0:0:0:50:Tom3.wav
320,192,56268,1,0,0:0:0:30:Hat Close.wav
448,192,56268,1,0,0:0:0:50:Tom3.wav
192,192,56433,1,2,0:0:0:0:
64,192,56598,1,4,0:0:0:0:
320,192,56598,128,2,56928:0:0:0:0:
448,192,56598,1,0,0:0:0:0:
64,192,56928,1,4,0:0:0:0:
192,192,56928,1,8,0:0:0:0:
448,192,56928,1,0,0:0:0:0:
320,192,57093,1,0,0:0:0:0:
64,192,57257,1,0,0:0:0:30:Hat Open.wav
192,192,57422,1,2,0:0:0:0:
320,192,57422,1,0,0:0:0:0:
64,192,57587,1,8,0:0:0:0:
320,192,57587,1,0,0:0:0:30:Hat Open.wav
448,192,57587,1,0,0:0:0:0:
64,192,57752,1,2,0:0:0:0:
192,192,57752,1,0,0:0:0:0:
448,192,57917,1,0,0:0:0:30:Hat Open.wav
192,192,58082,1,2,0:0:0:0:
320,192,58082,1,0,0:0:0:0:
64,192,58246,1,8,0:0:0:0:
192,192,58246,1,0,0:0:0:30:Hat Open.wav
448,192,58246,1,0,0:0:0:0:
320,192,58411,1,0,0:0:0:0:
192,192,58576,1,0,0:0:0:30:Hat Open.wav
64,192,58576,1,2,0:0:0:0:
192,192,58741,1,2,0:0:0:0:
448,192,58741,1,0,0:0:0:0:
64,192,58906,1,8,0:0:0:0:
320,192,58906,1,0,0:0:0:30:Hat Open.wav
448,192,58906,1,0,0:0:0:0:
320,192,59071,1,2,0:0:0:0:
192,192,59071,1,0,0:0:0:0:
64,192,59235,1,8,0:0:0:0:
192,192,59235,1,4,0:0:0:0:
448,192,59235,1,0,0:0:0:0:
64,192,59400,1,2,0:0:0:0:
192,192,59400,1,0,0:0:0:0:
64,192,59565,1,2,0:0:0:0:
192,192,59565,1,0,0:0:0:0:
64,192,59730,1,8,0:0:0:0:
320,192,59730,1,4,0:0:0:0:
448,192,59730,1,0,0:0:0:0:
320,192,59895,1,2,0:0:0:0:
448,192,59895,1,0,0:0:0:0:
320,192,60060,1,2,0:0:0:0:
448,192,60060,1,0,0:0:0:0:
64,192,60224,1,8,0:0:0:0:
192,192,60224,1,4,0:0:0:0:
320,192,60224,1,0,0:0:0:0:
64,192,60389,1,2,0:0:0:0:
192,192,60389,1,0,0:0:0:0:
64,192,60554,1,2,0:0:0:0:
192,192,60554,1,0,0:0:0:0:
192,192,60719,1,4,0:0:0:0:
320,192,60719,1,8,0:0:0:0:
448,192,60719,1,0,0:0:0:0:
320,192,60884,1,0,0:0:0:0:
448,192,60884,1,0,0:0:0:0:
320,192,61049,1,2,0:0:0:0:
448,192,61049,1,0,0:0:0:0:
64,192,61214,1,8,0:0:0:0:
192,192,61214,1,4,0:0:0:0:
448,192,61214,1,0,0:0:0:0:
192,192,61378,1,2,0:0:0:0:
320,192,61378,1,0,0:0:0:0:
64,192,61543,1,8,0:0:0:0:
320,192,61543,1,0,0:0:0:50:Tom3.wav
448,192,61543,1,0,0:0:0:0:
192,192,61708,1,2,0:0:0:0:
320,192,61708,1,0,0:0:0:0:
448,192,61873,128,8,62038:0:0:0:0:
192,192,61873,1,0,0:0:0:50:finish-short.wav
64,192,61873,128,0,62532:0:0:0:0:
320,192,62038,128,0,62203:0:0:0:0:
192,192,62203,128,0,62367:0:0:0:0:
448,192,62367,128,0,62532:0:0:0:0:
448,192,62862,128,0,63356:0:0:0:0:
64,192,62862,128,0,63027:0:0:0:0:
192,192,63027,128,0,63192:0:0:0:0:
320,192,63192,128,0,63356:0:0:0:0:
192,192,63411,1,2,0:0:0:0:
320,192,63466,1,2,0:0:0:0:
64,192,63521,1,8,0:0:0:0:
192,192,63521,1,4,0:0:0:0:
448,192,63521,1,0,0:0:0:0:
320,192,63686,1,8,0:0:0:10:soft-hitclap.wav
192,192,63768,1,8,0:0:0:10:soft-hitclap.wav
64,192,63851,128,2,63933:0:0:0:0:
448,192,63851,128,0,63933:0:0:0:0:
320,192,63933,128,8,64016:0:0:0:0:
64,192,64016,128,8,64098:0:0:0:0:
192,192,64016,128,0,64098:0:0:0:0:
320,192,64098,128,8,64181:0:0:0:0:
448,192,64098,128,0,64181:0:0:0:0:
64,192,64181,128,8,64263:0:0:0:0:
192,192,64181,128,2,64263:0:0:0:0:
320,192,64263,128,0,64345:0:0:0:0:
64,192,64345,128,0,64428:0:0:0:50:Tom1.wav
448,192,64345,128,0,64428:0:0:0:0:
192,192,64428,128,0,64510:0:0:0:50:Tom2.wav
64,192,64510,1,4,0:0:0:0:
320,192,64510,128,2,64757:0:0:0:0:
448,192,64510,128,0,64757:0:0:0:0:
64,192,64840,128,8,64922:0:0:0:0:
192,192,64840,1,0,0:0:0:30:Hat Open.wav
320,192,64840,1,0,0:0:0:0:
64,192,65005,128,0,65334:0:0:0:0:
320,192,65170,1,8,0:0:0:0:
448,192,65170,1,0,0:0:0:30:Hat Open.wav
192,192,65334,1,2,0:0:0:0:
448,192,65334,128,0,65664:0:0:0:0:
192,192,65499,1,8,0:0:0:0:
320,192,65499,1,0,0:0:0:30:Hat Open.wav
64,192,65664,1,2,0:0:0:0:
320,192,65664,128,0,65829:0:0:0:0:
64,192,65829,128,8,66159:0:0:0:0:
192,192,65829,1,0,0:0:0:30:Hat Open.wav
448,192,65829,1,0,0:0:0:0:
320,192,65994,1,0,0:0:0:0:
192,192,66159,128,8,66323:0:0:0:0:
320,192,66159,1,0,0:0:0:30:Hat Open.wav
448,192,66159,1,0,0:0:0:0:
448,192,66323,128,0,66653:0:0:0:0:
64,192,66488,1,8,0:0:0:0:
320,192,66488,1,0,0:0:0:30:Hat Open.wav
64,192,66653,1,2,0:0:0:0:
192,192,66653,128,0,66818:0:0:0:0:
64,192,66818,1,8,0:0:0:0:
320,192,66818,1,0,0:0:0:30:Hat Open.wav
448,192,66818,1,0,0:0:0:0:
192,192,66983,1,2,0:0:0:0:
320,192,66983,128,0,67148:0:0:0:0:
64,192,67148,128,8,67395:0:0:0:0:
192,192,67148,128,4,67395:0:0:0:0:
448,192,67148,1,0,0:0:0:0:
64,192,67477,1,8,0:0:0:0:
192,192,67477,1,0,0:0:0:30:Hat Open.wav
448,192,67477,128,0,67642:0:0:0:0:
320,192,67642,128,0,67807:0:0:0:0:
64,192,67807,1,8,0:0:0:0:
192,192,67807,1,0,0:0:0:30:Hat Open.wav
448,192,67807,1,0,0:0:0:0:
192,192,67972,128,2,68137:0:0:0:0:
320,192,67972,1,0,0:0:0:0:
64,192,68137,1,8,0:0:0:0:
320,192,68137,128,0,68301:0:0:0:30:Hat Open.wav
448,192,68137,1,0,0:0:0:0:
64,192,68301,1,2,0:0:0:0:
192,192,68301,1,0,0:0:0:0:
64,192,68466,1,8,0:0:0:0:
320,192,68466,1,0,0:0:0:30:Hat Open.wav
448,192,68466,1,0,0:0:0:0:
192,192,68631,1,2,0:0:0:0:
320,192,68631,1,0,0:0:0:0:
64,192,68796,1,8,0:0:0:0:
192,192,68796,1,4,0:0:0:0:
448,192,68796,1,0,0:0:0:0:
320,192,68961,1,0,0:0:0:0:
192,192,69043,1,8,0:0:0:20:soft-hitclap.wav
64,192,69126,1,2,0:0:0:0:
320,192,69126,1,0,0:0:0:0:
448,192,69126,1,0,0:0:0:0:
192,192,69208,1,8,0:0:0:10:soft-hitclap.wav
64,192,69290,1,8,0:0:0:0:
448,192,69290,1,0,0:0:0:0:
320,192,69373,1,8,0:0:0:0:
64,192,69455,1,8,0:0:0:0:
192,192,69455,1,2,0:0:0:0:
320,192,69538,1,8,0:0:0:10:soft-hitclap.wav
64,192,69620,1,0,0:0:0:50:Tom2.wav
448,192,69620,1,0,0:0:0:0:
192,192,69703,1,8,0:0:0:0:
64,192,69785,1,4,0:0:0:0:
320,192,69785,128,2,70032:0:0:0:0:
448,192,69785,128,0,70032:0:0:0:0:
64,192,70115,128,8,70279:0:0:0:0:
192,192,70115,1,0,0:0:0:30:Hat Open.wav
320,192,70115,1,0,0:0:0:0:
320,192,70279,128,0,70609:0:0:0:0:
192,192,70444,128,0,70609:0:0:0:30:Hat Open.wav
448,192,70444,1,0,0:0:0:0:
64,192,70609,1,2,0:0:0:0:
448,192,70609,128,0,70774:0:0:0:0:
64,192,70774,1,8,0:0:0:0:
192,192,70774,1,0,0:0:0:30:Hat Open.wav
320,192,70774,128,0,70939:0:0:0:0:
64,192,70939,128,2,71268:0:0:0:0:
448,192,70939,1,0,0:0:0:0:
192,192,71104,128,0,71268:0:0:0:30:Hat Open.wav
320,192,71268,1,2,0:0:0:0:
448,192,71268,1,0,0:0:0:0:
64,192,71433,1,8,0:0:0:0:
192,192,71433,128,0,71598:0:0:0:30:Hat Open.wav
448,192,71433,1,0,0:0:0:0:
320,192,71598,128,0,71763:0:0:0:0:
192,192,71763,1,2,0:0:0:0:
448,192,71763,1,0,0:0:0:30:Hat Open.wav
64,192,71928,128,2,72093:0:0:0:0:
320,192,71928,1,0,0:0:0:0:
192,192,72093,128,8,72257:0:0:0:0:
320,192,72093,1,0,0:0:0:30:Hat Open.wav
448,192,72093,1,0,0:0:0:0:
448,192,72257,128,0,72422:0:0:0:0:
64,192,72422,1,2,0:0:0:0:
192,192,72422,128,4,72670:0:0:0:0:
320,192,72422,128,0,72670:0:0:0:0:
64,192,72752,128,8,72917:0:0:0:0:
320,192,72752,1,0,0:0:0:30:Hat Open.wav
448,192,72752,1,0,0:0:0:0:
192,192,72917,128,0,73246:0:0:0:0:
320,192,73082,1,0,0:0:0:30:Hat Open.wav
448,192,73082,1,0,0:0:0:0:
64,192,73246,1,2,0:0:0:0:
448,192,73246,128,0,73411:0:0:0:0:
64,192,73411,128,8,73906:0:0:0:0:
192,192,73411,1,0,0:0:0:30:Hat Open.wav
320,192,73411,1,0,0:0:0:0:
192,192,73576,1,2,0:0:0:0:
448,192,73576,1,0,0:0:0:0:
448,192,73741,1,0,0:0:0:30:Hat Open.wav
192,192,73906,1,2,0:0:0:0:
320,192,73906,1,0,0:0:0:0:
64,192,74071,1,8,0:0:0:0:
320,192,74071,1,4,0:0:0:0:
448,192,74071,1,0,0:0:0:0:
192,192,74235,1,0,0:0:0:0:
320,192,74318,1,8,0:0:0:20:soft-hitclap.wav
64,192,74400,1,2,0:0:0:0:
448,192,74400,1,0,0:0:0:0:
192,192,74483,1,8,0:0:0:20:soft-hitclap.wav
320,192,74565,1,8,0:0:0:0:
448,192,74565,1,0,0:0:0:0:
192,192,74648,1,8,0:0:0:0:
64,192,74730,1,8,0:0:0:0:
448,192,74730,1,2,0:0:0:0:
320,192,74812,1,8,0:0:0:20:soft-hitclap.wav
64,192,74895,1,0,0:0:0:50:Tom2.wav
192,192,74895,1,0,0:0:0:0:
320,192,74977,1,0,0:0:0:50:Tom2.wav
64,192,75060,128,4,75307:0:0:0:0:
192,192,75060,128,2,75307:0:0:0:0:
448,192,75060,1,0,0:0:0:0:
192,192,75389,1,8,0:0:0:0:
320,192,75389,1,0,0:0:0:30:Ride.wav
448,192,75389,1,0,0:0:0:0:
64,192,75554,1,0,0:0:0:0:
192,192,75719,128,0,75884:0:0:0:30:Ride.wav
320,192,75719,1,0,0:0:0:0:
320,192,75884,1,2,0:0:0:0:
448,192,75884,1,0,0:0:0:0:
64,192,76049,1,8,0:0:0:0:
192,192,76049,128,0,76214:0:0:0:30:Ride.wav
448,192,76049,1,0,0:0:0:0:
320,192,76214,1,2,0:0:0:0:
448,192,76214,128,0,76543:0:0:0:0:
64,192,76378,1,0,0:0:0:30:Ride.wav
192,192,76543,1,2,0:0:0:0:
320,192,76543,1,0,0:0:0:0:
64,192,76708,128,8,76873:0:0:0:0:
192,192,76708,1,0,0:0:0:30:Ride.wav
448,192,76708,1,0,0:0:0:0:
320,192,76873,128,0,77367:0:0:0:0:
192,192,77038,1,0,0:0:0:30:Ride.wav
448,192,77038,1,0,0:0:0:0:
64,192,77203,1,2,0:0:0:0:
192,192,77203,128,0,77367:0:0:0:0:
64,192,77367,1,8,0:0:0:0:
448,192,77367,128,0,77697:0:0:0:30:Ride.wav
320,192,77532,1,0,0:0:0:0:
64,192,77697,128,4,77944:0:0:0:0:
192,192,77697,128,2,77944:0:0:0:0:
320,192,77697,1,0,0:0:0:0:
64,192,78027,1,8,0:0:0:0:
320,192,78027,1,0,0:0:0:30:Ride.wav
448,192,78027,128,0,78192:0:0:0:0:
64,192,78192,1,2,0:0:0:0:
192,192,78192,1,0,0:0:0:0:
320,192,78356,128,0,78521:0:0:0:30:Ride.wav
64,192,78521,1,2,0:0:0:0:
448,192,78521,1,0,0:0:0:0:
64,192,78686,128,8,78933:0:0:0:0:
192,192,78686,1,4,0:0:0:0:
448,192,78686,128,0,78933:0:0:0:0:
320,192,79016,1,0,0:0:0:30:Ride.wav
64,192,79181,1,2,0:0:0:0:
192,192,79181,1,0,0:0:0:0:
64,192,79345,1,8,0:0:0:0:
320,192,79345,1,0,0:0:0:30:Ride.wav
448,192,79345,1,0,0:0:0:0:
192,192,79510,1,0,0:0:0:0:
320,192,79675,1,2,0:0:0:0:
448,192,79675,1,0,0:0:0:30:Ride.wav
64,192,79840,1,8,0:0:0:0:
192,192,79840,1,0,0:0:0:0:
320,192,79922,1,8,0:0:0:0:
448,192,79922,1,0,0:0:0:0:
64,192,80005,1,8,0:0:0:0:
192,192,80005,1,2,0:0:0:0:
320,192,80087,1,8,0:0:0:10:soft-hitclap.wav
64,192,80170,1,0,0:0:0:50:Tom2.wav
448,192,80170,1,0,0:0:0:0:
192,192,80252,1,8,0:0:0:20:soft-hitclap.wav
64,192,80334,128,4,80582:0:0:0:0:
320,192,80334,128,2,80582:0:0:0:0:
448,192,80334,128,0,80582:0:0:0:0:
64,192,80664,1,8,0:0:0:0:
192,192,80664,1,0,0:0:0:30:Hat Open.wav
320,192,80664,1,0,0:0:0:0:
192,192,80829,1,0,0:0:0:0:
64,192,80994,1,8,0:0:0:0:
320,192,80994,1,0,0:0:0:30:Hat Open.wav
448,192,80994,1,0,0:0:0:0:
192,192,81159,1,2,0:0:0:0:
448,192,81159,1,0,0:0:0:0:
64,192,81323,1,8,0:0:0:0:
192,192,81323,1,0,0:0:0:30:Hat Open.wav
320,192,81323,1,0,0:0:0:0:
320,192,81488,1,2,0:0:0:0:
64,192,81653,128,8,81900:0:0:0:0:
192,192,81653,1,2,0:0:0:0:
448,192,81653,128,0,81900:0:0:0:30:Hat Open.wav
192,192,81983,1,8,0:0:0:0:
320,192,81983,1,0,0:0:0:30:Hat Open.wav
448,192,81983,1,0,0:0:0:0:
320,192,82148,1,0,0:0:0:0:
64,192,82312,1,8,0:0:0:0:
192,192,82312,1,0,0:0:0:30:Hat Open.wav
448,192,82312,1,0,0:0:0:0:
64,192,82477,1,2,0:0:0:0:
320,192,82477,1,0,0:0:0:0:
192,192,82642,1,8,0:0:0:0:
320,192,82642,1,0,0:0:0:30:Hat Open.wav
448,192,82642,1,0,0:0:0:0:
192,192,82807,1,2,0:0:0:0:
64,192,82972,128,8,83219:0:0:0:0:
320,192,82972,128,4,83219:0:0:0:0:
448,192,82972,128,0,83219:0:0:0:0:
64,192,83301,1,8,0:0:0:0:
192,192,83301,1,0,0:0:0:30:Hat Open.wav
448,192,83301,1,0,0:0:0:0:
64,192,83466,1,0,0:0:0:0:
192,192,83631,1,8,0:0:0:0:
320,192,83631,1,0,0:0:0:30:Hat Open.wav
448,192,83631,1,0,0:0:0:0:
64,192,83796,1,2,0:0:0:0:
448,192,83796,1,0,0:0:0:0:
64,192,83961,1,8,0:0:0:0:
192,192,83961,1,0,0:0:0:30:Hat Open.wav
320,192,83961,1,0,0:0:0:0:
192,192,84126,1,2,0:0:0:0:
320,192,84126,1,4,0:0:0:0:
448,192,84126,1,8,0:0:0:0:
64,192,84455,1,8,0:0:0:0:
192,192,84455,1,0,0:0:0:50:Tom2.wav
448,192,84455,1,0,0:0:0:0:
64,192,84620,1,8,0:0:0:0:
192,192,84620,1,2,0:0:0:0:
448,192,84620,1,0,0:0:0:50:Tom2.wav
320,192,84909,1,2,0:0:0:0:
448,192,84909,1,0,0:0:0:50:Tom3.wav
192,192,84991,1,0,0:0:0:0:
64,192,84991,1,8,0:0:0:20:soft-hitclap.wav
320,192,85073,1,8,0:0:0:20:soft-hitclap.wav
448,192,85073,1,0,0:0:0:0:
192,192,85156,1,8,0:0:0:0:
64,192,85238,1,8,0:0:0:0:
320,192,85238,1,2,0:0:0:0:
448,192,85238,1,0,0:0:0:0:
192,192,85327,1,8,0:0:0:10:soft-hitclap.wav
448,192,85421,1,0,0:0:0:50:Tom3.wav
64,192,85421,1,0,0:0:0:0:
320,192,85515,1,0,0:0:0:50:Tom3.wav
64,192,85609,128,4,87257:0:0:0:0:
192,192,85609,1,2,0:0:0:0:
448,192,85609,1,0,0:0:0:0:
448,192,86763,1,0,0:0:0:0:
320,192,86818,1,0,0:0:0:0:
192,192,86873,1,0,0:0:0:0:
192,192,87752,128,0,88082:0:0:0:0:
320,192,87917,128,0,88082:0:0:0:0:
448,192,88082,128,0,88246:0:0:0:0:
64,192,88246,1,0,0:0:0:30:Hat Close.wav
192,192,88411,1,2,0:0:0:0:
320,192,88411,1,0,0:0:0:0:
64,192,88576,1,8,0:0:0:0:
192,192,88576,1,4,0:0:0:0:
448,192,88576,1,0,0:0:0:0:
320,192,88741,1,0,0:0:0:0:
192,192,88823,1,8,0:0:0:10:soft-hitclap.wav
64,192,88906,128,2,88988:0:0:0:0:
448,192,88906,128,0,88988:0:0:0:0:
320,192,88988,128,8,89071:0:0:0:20:soft-hitclap.wav
64,192,89071,128,8,89153:0:0:0:20:soft-hitclap.wav
192,192,89071,128,0,89153:0:0:0:0:
320,192,89153,128,8,89235:0:0:0:0:
448,192,89153,128,0,89235:0:0:0:0:
64,192,89235,128,8,89318:0:0:0:0:
192,192,89235,128,2,89318:0:0:0:0:
320,192,89318,128,0,89400:0:0:0:0:
64,192,89400,128,0,89483:0:0:0:50:Tom2.wav
448,192,89400,128,0,89483:0:0:0:0:
192,192,89483,128,0,89565:0:0:0:30:Tom1.wav
64,192,89565,1,4,0:0:0:0:
320,192,89565,1,2,0:0:0:0:
448,192,89565,128,0,90060:0:0:0:0:
64,192,89895,1,8,0:0:0:0:
192,192,89895,1,0,0:0:0:30:Hat Open.wav
320,192,90060,128,0,90142:0:0:0:0:
192,192,90142,128,0,90224:0:0:0:0:
64,192,90224,128,8,90719:0:0:0:0:
320,192,90224,1,0,0:0:0:30:Hat Open.wav
448,192,90224,1,0,0:0:0:0:
192,192,90389,1,2,0:0:0:0:
448,192,90389,1,0,0:0:0:0:
192,192,90554,1,8,0:0:0:0:
320,192,90554,1,0,0:0:0:30:Hat Open.wav
320,192,90719,1,2,0:0:0:0:
448,192,90719,1,0,0:0:0:0:
64,192,90884,1,8,0:0:0:0:
192,192,90884,128,2,91049:0:0:0:0:
448,192,90884,1,0,0:0:0:30:Hat Open.wav
320,192,91049,128,0,91214:0:0:0:0:
64,192,91214,1,8,0:0:0:0:
192,192,91214,1,0,0:0:0:30:Hat Open.wav
448,192,91214,128,0,91378:0:0:0:0:
320,192,91378,128,0,91708:0:0:0:0:
64,192,91543,1,8,0:0:0:0:
192,192,91543,1,0,0:0:0:30:Hat Open.wav
64,192,91708,128,2,92038:0:0:0:0:
448,192,91708,1,0,0:0:0:0:
192,192,91873,128,8,92038:0:0:0:0:
320,192,91873,1,0,0:0:0:30:Hat Open.wav
448,192,92038,128,2,92203:0:0:0:0:
64,192,92203,128,8,92367:0:0:0:0:
192,192,92203,1,4,0:0:0:0:
320,192,92203,1,2,0:0:0:0:
192,192,92367,128,0,92532:0:0:0:0:
64,192,92532,1,8,0:0:0:0:
320,192,92532,128,0,92697:0:0:0:30:Hat Open.wav
448,192,92532,1,0,0:0:0:0:
448,192,92697,128,0,93027:0:0:0:0:
64,192,92862,1,8,0:0:0:0:
192,192,92862,1,0,0:0:0:30:Hat Open.wav
64,192,93027,1,2,0:0:0:0:
320,192,93027,128,0,93192:0:0:0:0:
192,192,93192,128,8,93356:0:0:0:0:
448,192,93192,1,0,0:0:0:30:Hat Open.wav
64,192,93356,128,2,93851:0:0:0:0:
320,192,93356,1,4,0:0:0:0:
448,192,93356,1,0,0:0:0:0:
192,192,93686,1,2,0:0:0:0:
448,192,93686,128,0,93851:0:0:0:0:
192,192,93851,1,8,0:0:0:0:
320,192,93851,1,0,0:0:0:30:Hat Open.wav
320,192,94016,1,2,0:0:0:0:
448,192,94016,128,0,94345:0:0:0:0:
64,192,94181,1,8,0:0:0:0:
192,192,94181,1,0,0:0:0:30:Hat Open.wav
64,192,94345,128,2,94428:0:0:0:0:
320,192,94345,1,0,0:0:0:0:
192,192,94428,128,0,94510:0:0:0:0:
320,192,94510,128,8,94840:0:0:0:0:
448,192,94510,1,0,0:0:0:30:Hat Open.wav
64,192,94675,1,2,0:0:0:0:
192,192,94675,1,0,0:0:0:0:
64,192,94840,128,8,95005:0:0:0:0:
192,192,94840,1,4,0:0:0:0:
448,192,94840,1,2,0:0:0:0:
64,192,95170,1,8,0:0:0:0:
192,192,95170,1,0,0:0:0:30:Hat Open.wav
320,192,95170,128,0,95334:0:0:0:0:
448,192,95334,128,0,95664:0:0:0:0:
64,192,95499,1,8,0:0:0:0:
192,192,95499,1,0,0:0:0:30:Hat Open.wav
64,192,95664,1,2,0:0:0:0:
320,192,95664,128,0,95829:0:0:0:0:
192,192,95829,128,8,95994:0:0:0:0:
448,192,95829,1,0,0:0:0:30:Hat Open.wav
64,192,95994,128,4,96323:0:0:0:0:
320,192,95994,1,2,0:0:0:0:
448,192,95994,1,0,0:0:0:0:
320,192,96323,128,2,96653:0:0:0:0:
448,192,96323,1,0,0:0:0:0:
64,192,96488,1,8,0:0:0:0:
448,192,96488,1,0,0:0:0:30:Hat Open.wav
64,192,96653,1,2,0:0:0:0:
192,192,96653,128,0,96983:0:0:0:0:
320,192,96818,1,8,0:0:0:0:
448,192,96818,1,0,0:0:0:30:Hat Open.wav
64,192,96983,1,2,0:0:0:0:
448,192,96983,128,0,97395:0:0:0:0:
64,192,97148,1,8,0:0:0:0:
320,192,97148,1,0,0:0:0:30:Hat Open.wav
192,192,97312,128,2,97395:0:0:0:0:
320,192,97395,128,0,97477:0:0:0:0:
64,192,97477,128,4,97807:0:0:0:0:
192,192,97477,1,2,0:0:0:0:
448,192,97477,1,0,0:0:0:0:
192,192,97642,1,2,0:0:0:0:
320,192,97642,1,0,0:0:0:0:
320,192,97807,1,8,0:0:0:0:
448,192,97807,1,0,0:0:0:30:Hat Close.wav
64,192,97972,1,2,0:0:0:0:
192,192,97972,1,4,0:0:0:0:
448,192,97972,128,0,98301:0:0:0:0:
64,192,98301,1,2,0:0:0:0:
320,192,98301,1,0,0:0:0:50:Hat Open2.wav
192,192,98466,1,8,0:0:0:0:
320,192,98466,1,0,0:0:0:0:
64,192,98631,128,2,98961:0:0:0:0:
320,192,98631,1,4,0:0:0:0:
448,192,98631,1,0,0:0:0:0:
448,192,98961,128,2,99043:0:0:0:0:
64,192,99043,1,2,0:0:0:0:
320,192,99043,128,0,99126:0:0:0:0:
192,192,99126,128,8,99208:0:0:0:0:
448,192,99126,1,0,0:0:0:50:Hat Open2.wav
64,192,99208,128,0,99290:0:0:0:0:
320,192,99290,1,0,0:0:0:0:
192,192,99455,1,0,0:0:0:30:Hat Close.wav
64,192,99620,1,0,0:0:0:30:Hat Close.wav
192,192,99703,1,0,0:0:0:30:Hat Close.wav
320,192,99785,1,0,0:0:0:50:Hat Open2.wav
448,192,99785,1,0,0:0:0:0:
64,192,100115,1,4,0:0:0:0:
320,192,100115,1,2,0:0:0:0:
448,192,100115,128,0,100444:0:0:0:0:
64,192,100444,1,8,0:0:0:0:
192,192,100444,1,0,0:0:0:30:Hat Close.wav
320,192,100444,1,0,0:0:0:0:
448,192,100609,1,0,0:0:0:30:Hat Close.wav
320,192,100692,1,0,0:0:0:30:Hat Close.wav
64,192,100774,1,2,0:0:0:0:
192,192,100774,1,0,0:0:0:30:Hat Close.wav
64,192,100939,1,2,0:0:0:0:
448,192,100939,1,0,0:0:0:0:
320,192,101104,1,0,0:0:0:30:Hat Close.wav
64,192,101268,1,8,0:0:0:0:
192,192,101268,1,0,0:0:0:0:
448,192,101268,1,0,0:0:0:0:
320,192,101433,1,0,0:0:0:30:Hat Close.wav
64,192,101598,1,2,0:0:0:0:
448,192,101598,1,0,0:0:0:0:
192,192,101763,1,8,0:0:0:0:
320,192,101763,1,0,0:0:0:30:Hat Close.wav
448,192,101763,1,0,0:0:0:0:
64,192,101928,1,0,0:0:0:30:Hat Close.wav
192,192,102010,1,0,0:0:0:30:Hat Close.wav
320,192,102093,1,2,0:0:0:0:
448,192,102093,1,0,0:0:0:30:Hat Close.wav
192,192,102257,1,2,0:0:0:0:
320,192,102257,1,0,0:0:0:0:
64,192,102422,1,8,0:0:0:0:
192,192,102422,1,0,0:0:0:30:Hat Close.wav
448,192,102422,1,0,0:0:0:0:
320,192,102587,1,0,0:0:0:30:Hat Close.wav
192,192,102670,1,0,0:0:0:30:Hat Close.wav
64,192,102752,128,2,103082:0:0:0:0:
320,192,102752,1,0,0:0:0:50:Hat Open2.wav
448,192,102752,1,0,0:0:0:0:
192,192,103082,1,8,0:0:0:0:
320,192,103082,1,0,0:0:0:30:Hat Close.wav
448,192,103082,1,0,0:0:0:0:
64,192,103246,1,0,0:0:0:30:Hat Close.wav
192,192,103329,1,0,0:0:0:30:Hat Close.wav
320,192,103411,1,0,0:0:0:30:Hat Close.wav
448,192,103411,1,0,0:0:0:0:
64,192,103576,1,2,0:0:0:0:
448,192,103576,1,0,0:0:0:0:
192,192,103741,1,0,0:0:0:30:Hat Close.wav
64,192,103906,1,0,0:0:0:0:
448,192,103906,1,8,0:0:0:0:
320,192,103906,128,0,103988:0:0:0:0:
192,192,104071,1,0,0:0:0:30:Hat Close.wav
64,192,104235,128,2,104318:0:0:0:0:
320,192,104235,1,0,0:0:0:0:
64,192,104400,1,8,0:0:0:0:
192,192,104400,128,0,104483:0:0:0:30:Hat Close.wav
448,192,104400,1,0,0:0:0:0:
320,192,104565,128,0,104648:0:0:0:30:Hat Close.wav
192,192,104648,1,0,0:0:0:30:Hat Close.wav
64,192,104730,1,2,0:0:0:0:
448,192,104730,1,0,0:0:0:30:Hat Close.wav
192,192,104895,128,2,104977:0:0:0:0:
320,192,104895,1,0,0:0:0:50:Hat Open2.wav
64,192,105060,1,8,0:0:0:0:
320,192,105060,1,0,0:0:0:30:Hat Close.wav
448,192,105060,1,0,0:0:0:0:
192,192,105224,1,0,0:0:0:30:Hat Close.wav
320,192,105307,1,0,0:0:0:30:Hat Close.wav
64,192,105389,1,2,0:0:0:0:
192,192,105389,1,0,0:0:0:50:Hat Open2.wav
448,192,105389,128,0,105719:0:0:0:0:
64,192,105719,1,8,0:0:0:0:
192,192,105719,1,0,0:0:0:30:Hat Close.wav
320,192,105719,1,0,0:0:0:0:
448,192,105884,1,0,0:0:0:30:Hat Close.wav
320,192,105966,1,0,0:0:0:30:Hat Close.wav
64,192,106049,1,2,0:0:0:0:
192,192,106049,1,0,0:0:0:30:Hat Close.wav
64,192,106214,1,2,0:0:0:0:
448,192,106214,1,0,0:0:0:0:
192,192,106378,1,0,0:0:0:30:Hat Close.wav
320,192,106543,1,0,0:0:0:0:
64,192,106543,128,8,106873:0:0:0:0:
448,192,106543,1,0,0:0:0:0:
192,192,106708,1,0,0:0:0:30:Hat Close.wav
320,192,106873,1,2,0:0:0:0:
448,192,106873,1,0,0:0:0:0:
64,192,107038,1,8,0:0:0:0:
192,192,107038,1,0,0:0:0:30:Hat Close.wav
320,192,107038,1,0,0:0:0:0:
448,192,107203,1,0,0:0:0:30:Hat Close.wav
320,192,107285,1,0,0:0:0:30:Hat Close.wav
64,192,107367,1,2,0:0:0:0:
192,192,107367,1,0,0:0:0:30:Hat Close.wav
192,192,107532,1,2,0:0:0:0:
448,192,107532,1,0,0:0:0:0:
64,192,107697,1,8,0:0:0:0:
320,192,107697,1,0,0:0:0:30:Hat Close.wav
448,192,107697,1,0,0:0:0:0:
192,192,107862,1,0,0:0:0:30:Hat Close.wav
64,192,108027,1,2,0:0:0:0:
320,192,108027,128,0,108356:0:0:0:50:Hat Open2.wav
448,192,108027,1,0,0:0:0:0:
64,192,108356,1,8,0:0:0:0:
192,192,108356,1,0,0:0:0:30:Hat Close.wav
448,192,108356,1,0,0:0:0:0:
320,192,108521,1,0,0:0:0:30:Hat Close.wav
192,192,108604,1,0,0:0:0:30:Hat Close.wav
64,192,108686,1,2,0:0:0:0:
448,192,108686,1,0,0:0:0:30:Hat Close.wav
64,192,108851,1,2,0:0:0:0:
320,192,108851,1,0,0:0:0:0:
192,192,109016,1,8,0:0:0:0:
320,192,109016,1,0,0:0:0:30:Hat Close.wav
448,192,109016,1,0,0:0:0:0:
64,192,109181,1,2,0:0:0:0:
448,192,109181,1,0,0:0:0:0:
192,192,109345,128,8,109428:0:0:0:0:
320,192,109345,128,0,109428:0:0:0:50:Tom3.wav
448,192,109345,128,0,109428:0:0:0:0:
64,192,109510,128,8,109675:0:0:0:0:
320,192,109510,128,0,109675:0:0:0:50:Hat Open2.wav
448,192,109510,128,0,109675:0:0:0:50:Tom3.wav
192,192,110005,128,0,110087:0:0:0:30:Hat Close.wav
320,192,110005,128,0,110087:0:0:0:0:
64,192,110170,128,0,110334:0:0:0:40:Splash.wav
192,192,110170,128,0,110334:0:0:0:0:
448,192,110170,128,0,110334:0:0:0:0:
64,192,110664,1,2,0:0:0:0:
192,192,110664,128,4,110994:0:0:0:0:
448,192,110664,1,0,0:0:0:0:
64,192,110994,1,8,0:0:0:0:
320,192,110994,1,0,0:0:0:30:Hat Close.wav
448,192,110994,1,0,0:0:0:0:
192,192,111159,1,0,0:0:0:30:Hat Close.wav
320,192,111241,1,0,0:0:0:30:Hat Close.wav
64,192,111323,1,2,0:0:0:0:
448,192,111323,1,0,0:0:0:30:Hat Close.wav
64,192,111488,1,2,0:0:0:0:
320,192,111488,1,0,0:0:0:0:
192,192,111653,1,0,0:0:0:30:Hat Close.wav
320,192,111818,1,0,0:0:0:0:
64,192,111818,1,8,0:0:0:0:
448,192,111818,1,0,0:0:0:0:
192,192,111983,1,0,0:0:0:30:Hat Close.wav
64,192,112148,1,2,0:0:0:0:
320,192,112148,1,0,0:0:0:0:
192,192,112312,1,8,0:0:0:0:
320,192,112312,1,0,0:0:0:30:Hat Close.wav
448,192,112312,1,0,0:0:0:0:
64,192,112477,1,0,0:0:0:30:Hat Close.wav
192,192,112560,1,0,0:0:0:30:Hat Close.wav
320,192,112642,1,2,0:0:0:0:
448,192,112642,1,0,0:0:0:30:Hat Close.wav
64,192,112807,1,2,0:0:0:0:
192,192,112807,1,0,0:0:0:0:
64,192,112972,1,8,0:0:0:0:
320,192,112972,1,0,0:0:0:30:Hat Close.wav
448,192,112972,1,0,0:0:0:0:
192,192,113137,1,0,0:0:0:30:Hat Close.wav
320,192,113219,1,0,0:0:0:30:Hat Close.wav
64,192,113301,128,2,113631:0:0:0:0:
192,192,113301,1,0,0:0:0:50:Hat Open2.wav
448,192,113301,1,0,0:0:0:0:
320,192,113466,1,0,0:0:0:0:
192,192,113631,1,8,0:0:0:0:
320,192,113631,1,0,0:0:0:30:Hat Close.wav
448,192,113631,1,0,0:0:0:0:
64,192,113796,1,0,0:0:0:30:Hat Close.wav
192,192,113878,1,0,0:0:0:30:Hat Close.wav
320,192,113961,1,2,0:0:0:0:
448,192,113961,1,0,0:0:0:30:Hat Close.wav
64,192,114126,1,2,0:0:0:0:
448,192,114126,128,0,114208:0:0:0:0:
192,192,114290,1,0,0:0:0:30:Hat Close.wav
448,192,114455,1,0,0:0:0:0:
64,192,114455,1,8,0:0:0:0:
320,192,114455,128,0,114538:0:0:0:0:
192,192,114620,1,0,0:0:0:30:Hat Close.wav
64,192,114785,128,2,114867:0:0:0:0:
320,192,114785,1,0,0:0:0:0:
192,192,114950,1,8,0:0:0:0:
320,192,114950,1,0,0:0:0:30:Hat Close.wav
448,192,114950,1,0,0:0:0:0:
64,192,115115,1,0,0:0:0:30:Hat Close.wav
320,192,115197,1,0,0:0:0:30:Hat Close.wav
192,192,115279,1,2,0:0:0:0:
448,192,115279,1,0,0:0:0:30:Hat Close.wav
192,192,115444,1,2,0:0:0:0:
320,192,115444,1,0,0:0:0:0:
64,192,115609,1,8,0:0:0:0:
320,192,115609,1,0,0:0:0:40:Splash.wav
448,192,115609,1,0,0:0:0:0:
192,192,115774,1,8,0:0:0:20:soft-hitclap.wav
320,192,115856,1,8,0:0:0:20:soft-hitclap.wav
64,192,115939,128,2,116268:0:0:0:0:
192,192,115939,1,4,0:0:0:0:
448,192,115939,1,0,0:0:0:0:
192,192,116268,1,8,0:0:0:0:
320,192,116268,1,0,0:0:0:30:Hat Close.wav
448,192,116268,1,0,0:0:0:0:
64,192,116433,1,0,0:0:0:0:
320,192,116598,1,2,0:0:0:0:
448,192,116598,1,0,0:0:0:30:Hat Close.wav
192,192,116763,1,2,0:0:0:0:
448,192,116763,1,0,0:0:0:50:Hat Open2.wav
64,192,116928,1,8,0:0:0:0:
192,192,116928,1,0,0:0:0:0:
320,192,116928,1,0,0:0:0:0:
64,192,117093,1,2,0:0:0:0:
320,192,117093,1,4,0:0:0:0:
448,192,117093,128,0,117422:0:0:0:0:
64,192,117422,1,2,0:0:0:0:
192,192,117422,1,0,0:0:0:0:
64,192,117587,1,8,0:0:0:0:
320,192,117587,1,0,0:0:0:30:Hat Close.wav
448,192,117587,1,0,0:0:0:0:
192,192,117752,1,0,0:0:0:30:Hat Close.wav
320,192,117917,1,2,0:0:0:0:
448,192,117917,1,0,0:0:0:30:Hat Close.wav
64,192,118082,1,2,0:0:0:0:
320,192,118082,1,0,0:0:0:0:
64,192,118246,1,8,0:0:0:0:
192,192,118246,1,0,0:0:0:30:Hat Open.wav
448,192,118246,1,0,0:0:0:0:
320,192,118411,1,0,0:0:0:0:
64,192,118576,1,2,0:0:0:0:
192,192,118576,128,4,118906:0:0:0:0:
448,192,118576,1,0,0:0:0:0:
64,192,118906,1,8,0:0:0:0:
320,192,118906,1,0,0:0:0:30:Hat Close.wav
448,192,118906,1,0,0:0:0:0:
192,192,119071,1,0,0:0:0:30:Hat Close.wav
320,192,119153,1,0,0:0:0:30:Hat Close.wav
64,192,119235,1,2,0:0:0:0:
448,192,119235,1,0,0:0:0:30:Hat Close.wav
448,192,119400,1,2,0:0:0:0:
320,192,119400,1,0,0:0:0:50:Hat Open2.wav
320,192,119565,1,8,0:0:0:0:
192,192,119565,1,0,0:0:0:0:
64,192,119565,1,0,0:0:0:0:
448,192,119730,1,2,0:0:0:0:
64,192,119730,1,0,0:0:0:50:Hat Open2.wav
448,192,119895,1,0,0:0:0:0:
192,192,119895,1,0,0:0:0:0:
320,192,120060,1,2,0:0:0:0:
192,192,120060,1,0,0:0:0:0:
448,192,120224,1,8,0:0:0:0:
320,192,120224,1,4,0:0:0:0:
64,192,120224,1,0,0:0:0:0:
192,192,120389,1,8,0:0:0:0:
64,192,120389,1,0,0:0:0:0:
320,192,120472,1,8,0:0:0:0:
448,192,120554,1,8,0:0:0:0:
64,192,120554,1,0,0:0:0:0:
192,192,120554,1,0,0:0:0:0:
320,192,120664,1,8,0:0:0:0:
448,192,120664,1,0,0:0:0:0:
64,192,120774,1,0,0:0:0:50:Tom1.wav
192,192,120774,1,0,0:0:0:0:
64,192,120884,1,2,0:0:0:0:
448,192,120884,1,0,0:0:0:0:
192,192,120994,1,0,0:0:0:50:Tom3.wav
448,192,120994,1,0,0:0:0:0:
192,192,121104,1,0,0:0:0:50:Tom3.wav
320,192,121104,1,0,0:0:0:0:
64,192,121214,128,4,121873:0:0:0:0:
320,192,121214,1,2,0:0:0:0:
448,192,121214,1,0,0:0:0:0:
192,192,121543,1,0,0:0:0:30:Hat Open.wav
448,192,121543,1,0,0:0:0:0:
192,192,121708,128,2,121873:0:0:0:0:
320,192,121708,1,0,0:0:0:0:
320,192,121873,1,8,0:0:0:0:
448,192,121873,128,4,122532:0:0:0:0:
64,192,122203,1,0,0:0:0:30:Hat Open.wav
320,192,122367,1,2,0:0:0:0:
192,192,122450,1,0,0:0:0:0:
64,192,122532,128,0,123192:0:0:0:30:Hat Open.wav
320,192,122532,1,0,0:0:0:0:
192,192,122697,1,8,0:0:0:0:
320,192,122697,1,0,0:0:0:0:
448,192,122862,1,0,0:0:0:30:Hat Open.wav
192,192,123027,1,2,0:0:0:0:
320,192,123027,1,0,0:0:0:0:
192,192,123192,128,8,123851:0:0:0:0:
448,192,123192,1,0,0:0:0:30:Hat Open.wav
320,192,123356,1,2,0:0:0:0:
448,192,123356,1,0,0:0:0:0:
64,192,123521,1,0,0:0:0:30:Hat Open.wav
320,192,123604,1,0,0:0:0:0:
448,192,123686,1,2,0:0:0:0:
64,192,123768,1,0,0:0:0:0:
320,192,123851,1,4,0:0:0:0:
448,192,123851,128,2,124510:0:0:0:0:
192,192,124181,1,2,0:0:0:0:
320,192,124181,1,0,0:0:0:30:Hat Open.wav
64,192,124345,1,2,0:0:0:0:
320,192,124345,1,0,0:0:0:0:
64,192,124510,128,4,125170:0:0:0:0:
192,192,124510,1,8,0:0:0:0:
448,192,124840,1,0,0:0:0:30:Hat Open.wav
192,192,125005,1,2,0:0:0:0:
320,192,125087,1,8,0:0:0:0:
192,192,125170,1,0,0:0:0:30:Hat Open.wav
448,192,125170,128,0,125829:0:0:0:0:
192,192,125334,1,8,0:0:0:0:
320,192,125334,1,0,0:0:0:0:
64,192,125499,128,2,125829:0:0:0:0:
320,192,125499,1,0,0:0:0:30:Hat Open.wav
192,192,125829,128,8,126159:0:0:0:0:
320,192,125829,1,0,0:0:0:30:Hat Open.wav
64,192,125994,1,2,0:0:0:0:
448,192,125994,1,0,0:0:0:0:
320,192,126159,128,0,126488:0:0:0:30:Hat Open.wav
448,192,126159,1,0,0:0:0:50:Tom1.wav
192,192,126323,1,2,0:0:0:0:
64,192,126488,1,4,0:0:0:0:
448,192,126488,1,2,0:0:0:0:
192,192,126488,1,0,0:0:0:0:
320,192,126818,1,2,0:0:0:0:
448,192,126818,1,0,0:0:0:30:Hat Open.wav
64,192,126983,1,0,0:0:0:0:
192,192,127148,1,2,0:0:0:0:
448,192,127148,1,0,0:0:0:30:Hat Open.wav
320,192,127312,1,0,0:0:0:0:
64,192,127477,1,2,0:0:0:0:
192,192,127477,1,8,0:0:0:0:
448,192,127477,1,0,0:0:0:30:Hat Open.wav
320,192,127642,1,0,0:0:0:0:
64,192,127807,1,2,0:0:0:0:
192,192,127807,1,0,0:0:0:30:Hat Open.wav
448,192,127972,1,0,0:0:0:0:
64,192,128137,1,2,0:0:0:0:
320,192,128137,1,0,0:0:0:30:Hat Open.wav
192,192,128301,1,0,0:0:0:0:
64,192,128466,1,2,0:0:0:0:
448,192,128466,1,0,0:0:0:30:Hat Open.wav
320,192,128631,1,0,0:0:0:0:
64,192,128796,1,10,0:0:0:0:
192,192,128796,1,0,0:0:0:30:Hat Open.wav
320,192,128961,1,0,0:0:0:50:Tom3.wav
192,192,129043,1,0,0:0:0:50:Tom3.wav
64,192,129126,1,2,0:0:0:0:
320,192,129126,1,4,0:0:0:0:
448,192,129126,1,0,0:0:0:0:
192,192,129455,1,2,0:0:0:0:
320,192,129455,1,0,0:0:0:30:Hat Open.wav
448,192,129620,1,0,0:0:0:0:
64,192,129785,1,2,0:0:0:0:
320,192,129785,1,0,0:0:0:30:Hat Open.wav
192,192,129950,1,0,0:0:0:0:
64,192,130115,1,4,0:0:0:0:
320,192,130115,1,8,0:0:0:0:
448,192,130115,1,2,0:0:0:0:
192,192,130279,1,0,0:0:0:0:
64,192,130444,1,2,0:0:0:0:
448,192,130444,1,0,0:0:0:30:Hat Open.wav
192,192,130609,1,8,0:0:0:0:
320,192,130609,1,0,0:0:0:0:
448,192,130609,1,0,0:0:0:0:
64,192,130774,1,2,0:0:0:0:
320,192,130774,1,0,0:0:0:30:Ride.wav
448,192,130939,1,0,0:0:0:50:Tom2.wav
320,192,131021,1,0,0:0:0:0:
64,192,131104,1,2,0:0:0:0:
192,192,131104,1,0,0:0:0:30:Ride.wav
192,192,131268,1,0,0:0:0:50:Tom3.wav
320,192,131268,1,0,0:0:0:0:
320,192,131433,1,2,0:0:0:0:
448,192,131433,1,0,0:0:0:30:Ride.wav
192,192,131598,1,0,0:0:0:0:
64,192,131763,1,4,0:0:0:0:
320,192,131763,128,2,132093:0:0:0:0:
448,192,131763,1,0,0:0:0:0:
64,192,132093,1,2,0:0:0:0:
192,192,132093,1,0,0:0:0:30:Ride.wav
64,192,132257,1,8,0:0:0:0:
320,192,132257,1,4,0:0:0:0:
448,192,132257,1,0,0:0:0:0:
192,192,132422,1,2,0:0:0:0:
448,192,132422,1,0,0:0:0:30:Ride.wav
192,192,132587,1,0,0:0:0:50:Tom2.wav
320,192,132587,1,0,0:0:0:0:
64,192,132752,1,2,0:0:0:0:
320,192,132752,1,0,0:0:0:30:Ride.wav
64,192,132917,1,0,0:0:0:50:Tom2.wav
448,192,132917,1,0,0:0:0:0:
192,192,133082,1,2,0:0:0:0:
320,192,133082,1,0,0:0:0:30:Ride.wav
64,192,133246,1,4,0:0:0:0:
320,192,133246,1,8,0:0:0:0:
448,192,133246,1,0,0:0:0:0:
192,192,133411,1,2,0:0:0:0:
448,192,133411,1,0,0:0:0:30:Ride.wav
192,192,133576,1,0,0:0:0:50:Tom3.wav
320,192,133576,1,0,0:0:0:0:
64,192,133741,1,2,0:0:0:0:
320,192,133741,1,0,0:0:0:30:Ride.wav
448,192,133906,1,0,0:0:0:50:Tom3.wav
320,192,133988,1,0,0:0:0:50:Tom3.wav
64,192,134071,1,2,0:0:0:0:
192,192,134071,1,0,0:0:0:30:Ride.wav
448,192,134153,1,0,0:0:0:50:Tom3.wav
320,192,134235,1,0,0:0:0:50:Tom3.wav
192,192,134318,1,0,0:0:0:50:Tom3.wav
64,192,134400,128,4,134730:0:0:0:0:
320,192,134400,1,2,0:0:0:0:
448,192,134400,1,0,0:0:0:0:
192,192,134730,1,2,0:0:0:0:
320,192,134730,1,0,0:0:0:30:Ride.wav
64,192,134895,1,4,0:0:0:0:
192,192,134895,1,8,0:0:0:0:
448,192,134895,1,0,0:0:0:0:
64,192,135060,1,2,0:0:0:0:
320,192,135060,1,0,0:0:0:30:Ride.wav
192,192,135224,1,0,0:0:0:50:Tom2.wav
320,192,135224,1,0,0:0:0:0:
192,192,135389,1,2,0:0:0:0:
448,192,135389,1,0,0:0:0:30:Ride.wav
64,192,135554,1,8,0:0:0:0:
320,192,135554,1,4,0:0:0:0:
448,192,135554,1,0,0:0:0:0:
192,192,135719,1,2,0:0:0:0:
320,192,135719,1,0,0:0:0:30:Ride.wav
64,192,135884,1,0,0:0:0:50:Tom1.wav
448,192,135884,1,0,0:0:0:0:
64,192,136049,1,2,0:0:0:0:
320,192,136049,1,0,0:0:0:30:Ride.wav
192,192,136214,1,0,0:0:0:50:Tom1.wav
320,192,136214,1,0,0:0:0:0:
192,192,136378,1,2,0:0:0:0:
448,192,136378,1,0,0:0:0:0:
64,192,136543,1,0,0:0:0:50:Tom2.wav
192,192,136626,1,0,0:0:0:50:Tom2.wav
320,192,136708,1,8,0:0:0:0:
448,192,136708,1,2,0:0:0:0:
64,192,136790,1,8,0:0:0:20:soft-hitclap.wav
192,192,136873,1,0,0:0:0:50:Tom3.wav
320,192,136955,1,8,0:0:0:20:soft-hitclap.wav
64,192,137038,1,4,0:0:0:0:
192,192,137038,128,2,137367:0:0:0:0:
448,192,137038,1,0,0:0:0:0:
64,192,137367,1,8,0:0:0:0:
320,192,137367,1,0,0:0:0:30:Hat Open.wav
448,192,137367,1,0,0:0:0:0:
192,192,137532,1,0,0:0:0:0:
320,192,137697,1,2,0:0:0:0:
448,192,137697,1,0,0:0:0:30:Hat Open.wav
192,192,137862,1,2,0:0:0:0:
320,192,137862,1,0,0:0:0:0:
64,192,138027,1,8,0:0:0:0:
192,192,138027,1,0,0:0:0:30:Hat Open.wav
448,192,138027,1,0,0:0:0:0:
320,192,138192,1,2,0:0:0:0:
448,192,138192,1,0,0:0:0:0:
64,192,138356,1,0,0:0:0:30:Hat Open.wav
192,192,138521,1,2,0:0:0:0:
320,192,138521,1,0,0:0:0:0:
64,192,138686,1,8,0:0:0:0:
320,192,138686,1,0,0:0:0:30:Hat Open.wav
448,192,138686,1,0,0:0:0:0:
192,192,138851,1,0,0:0:0:0:
320,192,139016,1,0,0:0:0:0:
448,192,139016,1,0,0:0:0:30:Hat Open.wav
320,192,139181,1,2,0:0:0:0:
64,192,139181,1,0,0:0:0:0:
448,192,139345,1,8,0:0:0:0:
192,192,139345,1,0,0:0:0:30:Hat Open.wav
64,192,139345,1,0,0:0:0:0:
320,192,139510,1,2,0:0:0:0:
192,192,139510,1,0,0:0:0:0:
64,192,139675,1,8,0:0:0:0:
320,192,139675,1,4,0:0:0:0:
448,192,139675,1,0,0:0:0:0:
192,192,139840,1,0,0:0:0:50:Tom2.wav
448,192,139840,1,0,0:0:0:0:
320,192,139922,1,0,0:0:0:50:Tom1.wav
64,192,140005,1,0,0:0:0:50:Tom3.wav
192,192,140005,1,0,0:0:0:0:
320,192,140087,1,2,0:0:0:0:
64,192,140170,1,8,0:0:0:0:
192,192,140170,1,4,0:0:0:0:
448,192,140170,1,0,0:0:0:0:
320,192,140334,1,0,0:0:0:50:Tom3.wav
448,192,140334,1,0,0:0:0:0:
192,192,140417,1,0,0:0:0:50:Tom3.wav
64,192,140499,1,0,0:0:0:50:Tom3.wav
448,192,140499,1,0,0:0:0:0:
320,192,140582,1,2,0:0:0:0:
64,192,140664,1,8,0:0:0:0:
192,192,140664,1,4,0:0:0:0:
448,192,140664,1,0,0:0:0:0:
64,192,140829,1,0,0:0:0:50:Tom3.wav
320,192,140829,1,0,0:0:0:0:
192,192,140911,1,0,0:0:0:50:Tom1.wav
320,192,140994,1,0,0:0:0:50:Tom3.wav
448,192,140994,1,0,0:0:0:0:
192,192,141076,1,2,0:0:0:0:
64,192,141159,1,8,0:0:0:0:
320,192,141159,1,4,0:0:0:0:
448,192,141159,1,0,0:0:0:0:
64,192,141323,1,0,0:0:0:50:Tom3.wav
192,192,141323,1,0,0:0:0:0:
320,192,141406,1,0,0:0:0:50:Tom3.wav
64,192,141488,1,0,0:0:0:50:Tom3.wav
448,192,141488,1,0,0:0:0:0:
192,192,141571,1,2,0:0:0:0:
64,192,141653,1,4,0:0:0:0:
320,192,141653,1,8,0:0:0:0:
448,192,141653,1,0,0:0:0:0:
192,192,141818,1,2,0:0:0:0:
448,192,141818,1,0,0:0:0:0:
320,192,141900,1,2,0:0:0:0:
64,192,141983,1,0,0:0:0:50:Tom2.wav
192,192,141983,1,0,0:0:0:0:
320,192,142065,1,0,0:0:0:50:Tom1.wav
448,192,142148,1,0,0:0:0:50:Tom3.wav
192,192,142230,1,2,0:0:0:0:
64,192,142312,128,8,142477:0:0:0:0:
320,192,142312,1,0,0:0:0:50:finish-short.wav
448,192,142312,128,0,142972:0:0:0:0:
192,192,142477,128,0,142642:0:0:0:0:
320,192,142642,128,0,142807:0:0:0:0:
64,192,142807,128,0,142972:0:0:0:0:
64,192,143301,128,0,143796:0:0:0:0:
448,192,143301,128,0,143466:0:0:0:0:
320,192,143466,128,0,143631:0:0:0:0:
192,192,143631,128,0,143796:0:0:0:0:
320,192,143796,1,2,0:0:0:0:
448,192,143796,1,0,0:0:0:0:
64,192,143961,1,4,0:0:0:0:
192,192,143961,1,8,0:0:0:0:
448,192,143961,1,0,0:0:0:0:
320,192,144126,1,0,0:0:0:0:
192,192,144208,1,8,0:0:0:10:soft-hitclap.wav
64,192,144290,128,2,144373:0:0:0:0:
448,192,144290,128,0,144373:0:0:0:0:
192,192,144373,128,8,144455:0:0:0:0:
320,192,144455,128,8,144538:0:0:0:0:
448,192,144455,128,0,144538:0:0:0:0:
64,192,144538,128,8,144620:0:0:0:0:
192,192,144538,128,0,144620:0:0:0:0:
320,192,144620,128,8,144703:0:0:0:0:
448,192,144620,128,2,144703:0:0:0:0:
192,192,144703,128,0,144785:0:0:0:0:
64,192,144785,128,0,144867:0:0:0:50:Tom1.wav
448,192,144785,128,0,144867:0:0:0:0:
320,192,144867,128,0,144950:0:0:0:50:Tom2.wav
64,192,144950,128,4,145197:0:0:0:0:
192,192,144950,128,2,145197:0:0:0:0:
448,192,144950,1,0,0:0:0:0:
192,192,145279,1,8,0:0:0:0:
320,192,145279,1,0,0:0:0:30:Hat Open.wav
448,192,145279,128,0,145362:0:0:0:0:
448,192,145444,128,0,145774:0:0:0:0:
64,192,145609,1,8,0:0:0:0:
192,192,145609,1,0,0:0:0:30:Hat Open.wav
64,192,145774,128,2,146104:0:0:0:0:
320,192,145774,1,0,0:0:0:0:
192,192,145939,1,8,0:0:0:0:
320,192,145939,1,0,0:0:0:30:Hat Open.wav
192,192,146104,128,2,146268:0:0:0:0:
448,192,146104,1,0,0:0:0:0:
64,192,146268,1,8,0:0:0:0:
320,192,146268,1,2,0:0:0:0:
448,192,146268,128,0,146598:0:0:0:30:Hat Open.wav
192,192,146433,1,0,0:0:0:0:
64,192,146598,1,8,0:0:0:0:
192,192,146598,1,0,0:0:0:30:Hat Open.wav
320,192,146598,128,0,146763:0:0:0:0:
64,192,146763,128,2,147093:0:0:0:0:
192,192,146928,1,8,0:0:0:0:
448,192,146928,1,0,0:0:0:30:Hat Open.wav
320,192,147093,128,2,147257:0:0:0:0:
448,192,147093,1,0,0:0:0:0:
64,192,147257,1,8,0:0:0:0:
192,192,147257,1,0,0:0:0:30:Hat Open.wav
448,192,147257,1,0,0:0:0:0:
192,192,147422,128,2,147587:0:0:0:0:
320,192,147422,1,0,0:0:0:0:
64,192,147587,1,4,0:0:0:0:
320,192,147587,128,2,147834:0:0:0:0:
448,192,147587,128,8,147834:0:0:0:0:
64,192,147917,128,8,148082:0:0:0:0:
320,192,147917,1,0,0:0:0:30:Hat Open.wav
448,192,147917,1,0,0:0:0:0:
192,192,148082,128,0,148246:0:0:0:0:
64,192,148246,1,8,0:0:0:0:
320,192,148246,1,0,0:0:0:30:Hat Open.wav
448,192,148246,1,0,0:0:0:0:
192,192,148411,1,2,0:0:0:0:
320,192,148411,128,0,148576:0:0:0:0:
64,192,148576,1,8,0:0:0:0:
192,192,148576,128,0,148741:0:0:0:30:Hat Open.wav
448,192,148576,1,0,0:0:0:0:
320,192,148741,1,2,0:0:0:0:
448,192,148741,1,0,0:0:0:0:
64,192,148906,1,8,0:0:0:0:
192,192,148906,1,0,0:0:0:30:Hat Open.wav
448,192,148906,1,0,0:0:0:0:
192,192,149071,1,2,0:0:0:0:
320,192,149071,1,0,0:0:0:0:
64,192,149235,1,8,0:0:0:0:
320,192,149235,1,4,0:0:0:0:
448,192,149235,1,0,0:0:0:0:
192,192,149400,1,0,0:0:0:0:
320,192,149483,1,0,0:0:0:0:
64,192,149565,1,2,0:0:0:0:
192,192,149565,1,0,0:0:0:0:
448,192,149565,1,0,0:0:0:0:
320,192,149648,1,0,0:0:0:0:
64,192,149730,1,8,0:0:0:0:
448,192,149730,1,0,0:0:0:0:
192,192,149812,1,8,0:0:0:0:
320,192,149895,1,8,0:0:0:0:
448,192,149895,1,0,0:0:0:0:
192,192,149977,1,0,0:0:0:0:
64,192,150060,1,0,0:0:0:50:Tom2.wav
448,192,150060,1,0,0:0:0:0:
320,192,150142,1,0,0:0:0:0:
64,192,150224,128,2,150472:0:0:0:0:
192,192,150224,128,4,150472:0:0:0:0:
448,192,150224,1,0,0:0:0:0:
192,192,150554,1,8,0:0:0:0:
320,192,150554,1,0,0:0:0:30:Hat Open.wav
448,192,150554,128,0,150719:0:0:0:0:
192,192,150719,128,0,151049:0:0:0:0:
64,192,150884,1,2,0:0:0:0:
320,192,150884,128,0,151049:0:0:0:30:Hat Open.wav
64,192,151049,128,2,151214:0:0:0:0:
448,192,151049,1,0,0:0:0:0:
192,192,151214,128,8,151378:0:0:0:0:
320,192,151214,1,0,0:0:0:30:Hat Open.wav
448,192,151214,1,0,0:0:0:0:
64,192,151378,1,2,0:0:0:0:
448,192,151378,128,0,151708:0:0:0:0:
320,192,151543,128,0,151708:0:0:0:30:Hat Open.wav
64,192,151708,1,2,0:0:0:0:
192,192,151708,1,0,0:0:0:0:
64,192,151873,128,8,152038:0:0:0:0:
320,192,151873,1,0,0:0:0:30:Hat Open.wav
448,192,151873,1,0,0:0:0:0:
192,192,152038,128,0,152203:0:0:0:0:
64,192,152203,1,2,0:0:0:0:
320,192,152203,1,0,0:0:0:30:Hat Open.wav
192,192,152367,1,2,0:0:0:0:
448,192,152367,128,0,152532:0:0:0:0:
64,192,152532,1,8,0:0:0:0:
192,192,152532,1,0,0:0:0:30:Hat Open.wav
320,192,152532,128,0,152697:0:0:0:0:
64,192,152697,128,0,152862:0:0:0:0:
192,192,152862,128,4,153109:0:0:0:0:
320,192,152862,128,2,153109:0:0:0:0:
448,192,152862,1,0,0:0:0:0:
64,192,153192,1,8,0:0:0:0:
192,192,153192,1,0,0:0:0:30:Hat Open.wav
448,192,153192,128,0,153356:0:0:0:0:
320,192,153356,128,0,153686:0:0:0:0:
64,192,153521,1,2,0:0:0:0:
192,192,153521,1,0,0:0:0:30:Hat Open.wav
64,192,153686,128,2,153851:0:0:0:0:
448,192,153686,1,0,0:0:0:0:
192,192,153851,1,8,0:0:0:0:
320,192,153851,1,0,0:0:0:30:Hat Open.wav
448,192,153851,128,0,154345:0:0:0:0:
64,192,154016,1,2,0:0:0:0:
320,192,154016,1,0,0:0:0:0:
64,192,154181,1,0,0:0:0:30:Hat Open.wav
192,192,154345,1,2,0:0:0:0:
320,192,154345,1,0,0:0:0:0:
64,192,154510,1,8,0:0:0:0:
192,192,154510,1,4,0:0:0:0:
448,192,154510,1,0,0:0:0:0:
320,192,154675,1,0,0:0:0:0:
192,192,154757,1,8,0:0:0:20:soft-hitclap.wav
64,192,154840,1,2,0:0:0:0:
448,192,154840,1,0,0:0:0:0:
320,192,154922,1,0,0:0:0:0:
64,192,155005,1,8,0:0:0:0:
192,192,155005,1,0,0:0:0:0:
320,192,155087,1,8,0:0:0:0:
64,192,155170,1,2,0:0:0:0:
448,192,155170,1,8,0:0:0:0:
192,192,155252,1,8,0:0:0:0:
320,192,155334,1,0,0:0:0:50:Tom3.wav
448,192,155334,1,0,0:0:0:0:
192,192,155417,1,0,0:0:0:50:Tom3.wav
64,192,155499,1,4,0:0:0:0:
320,192,155499,128,2,155746:0:0:0:0:
448,192,155499,128,0,155746:0:0:0:0:
64,192,155829,1,8,0:0:0:0:
192,192,155829,1,4,0:0:0:0:
448,192,155829,1,0,0:0:0:0:
320,192,155994,1,0,0:0:0:0:
192,192,156159,1,2,0:0:0:0:
448,192,156159,128,0,156323:0:0:0:30:Ride.wav
64,192,156323,1,2,0:0:0:0:
192,192,156323,1,0,0:0:0:0:
64,192,156488,1,8,0:0:0:0:
320,192,156488,128,0,156653:0:0:0:30:Ride.wav
448,192,156488,1,0,0:0:0:0:
64,192,156653,128,2,156900:0:0:0:0:
192,192,156653,1,0,0:0:0:0:
448,192,156818,1,0,0:0:0:30:Ride.wav
192,192,156983,1,2,0:0:0:0:
320,192,156983,1,0,0:0:0:0:
64,192,157148,1,8,0:0:0:0:
320,192,157148,1,0,0:0:0:30:Ride.wav
448,192,157148,128,0,157312:0:0:0:0:
192,192,157312,128,0,157807:0:0:0:0:
64,192,157477,1,2,0:0:0:0:
320,192,157477,1,0,0:0:0:30:Ride.wav
320,192,157642,128,2,157807:0:0:0:0:
448,192,157642,1,0,0:0:0:0:
64,192,157807,128,8,158137:0:0:0:0:
448,192,157807,1,0,0:0:0:30:Ride.wav
192,192,157972,1,0,0:0:0:0:
192,192,158137,1,2,0:0:0:0:
320,192,158137,128,4,158384:0:0:0:0:
448,192,158137,128,0,158384:0:0:0:0:
64,192,158466,128,8,158631:0:0:0:0:
192,192,158466,1,0,0:0:0:30:Ride.wav
448,192,158466,1,0,0:0:0:0:
320,192,158631,1,2,0:0:0:0:
448,192,158631,1,0,0:0:0:0:
192,192,158796,128,0,158961:0:0:0:30:Ride.wav
64,192,158961,1,2,0:0:0:0:
448,192,158961,1,0,0:0:0:0:
64,192,159126,128,8,159373:0:0:0:0:
320,192,159126,1,4,0:0:0:0:
448,192,159126,128,0,159373:0:0:0:0:
192,192,159455,1,0,0:0:0:30:Ride.wav
320,192,159620,1,2,0:0:0:0:
448,192,159620,1,0,0:0:0:0:
64,192,159785,1,8,0:0:0:0:
192,192,159785,1,0,0:0:0:30:Ride.wav
448,192,159785,1,0,0:0:0:0:
320,192,159950,1,0,0:0:0:0:
64,192,160115,1,2,0:0:0:0:
192,192,160115,1,0,0:0:0:30:Ride.wav
192,192,160279,1,2,0:0:0:0:
448,192,160279,1,0,0:0:0:0:
64,192,160444,1,8,0:0:0:0:
320,192,160444,1,0,0:0:0:30:Ride.wav
448,192,160444,1,0,0:0:0:50:Tom3.wav
192,192,160609,1,0,0:0:0:0:
64,192,160774,128,4,161021:0:0:0:0:
320,192,160774,1,2,0:0:0:0:
448,192,160774,128,0,161021:0:0:0:0:
64,192,161104,1,8,0:0:0:0:
192,192,161104,1,0,0:0:0:30:Hat Open.wav
448,192,161104,1,0,0:0:0:0:
192,192,161268,1,0,0:0:0:0:
64,192,161433,1,8,0:0:0:0:
320,192,161433,1,0,0:0:0:30:Hat Open.wav
448,192,161433,1,0,0:0:0:0:
192,192,161598,1,2,0:0:0:0:
448,192,161598,1,0,0:0:0:0:
64,192,161763,1,8,0:0:0:0:
192,192,161763,1,0,0:0:0:30:Hat Open.wav
320,192,161763,1,0,0:0:0:0:
320,192,161928,1,2,0:0:0:0:
64,192,162093,1,10,0:0:0:0:
448,192,162093,1,0,0:0:0:30:Hat Open.wav
64,192,162257,1,0,0:0:0:0:
192,192,162422,1,8,0:0:0:0:
320,192,162422,1,0,0:0:0:30:Hat Open.wav
448,192,162422,1,0,0:0:0:0:
320,192,162587,1,0,0:0:0:0:
64,192,162752,1,8,0:0:0:0:
192,192,162752,1,0,0:0:0:30:Hat Open.wav
448,192,162752,1,0,0:0:0:0:
64,192,162917,1,2,0:0:0:0:
320,192,162917,1,0,0:0:0:0:
192,192,163082,1,8,0:0:0:0:
320,192,163082,1,0,0:0:0:30:Hat Open.wav
448,192,163082,1,0,0:0:0:0:
192,192,163246,1,0,0:0:0:0:
64,192,163411,128,8,163494:0:0:0:0:
320,192,163411,128,0,163494:0:0:0:50:Tom3.wav
448,192,163411,128,0,163494:0:0:0:0:
64,192,163576,128,8,163741:0:0:0:0:
320,192,163576,128,0,163741:0:0:0:50:Tom3.wav
448,192,163576,128,0,163741:0:0:0:0:
64,192,163906,128,8,163988:0:0:0:0:
192,192,163906,128,0,163988:0:0:0:50:Tom3.wav
320,192,163906,128,0,163988:0:0:0:0:
64,192,164071,128,8,164235:0:0:0:0:
192,192,164071,128,0,164235:0:0:0:50:Tom3.wav
320,192,164071,128,0,164235:0:0:0:0:
192,192,164400,128,8,164483:0:0:0:0:
320,192,164400,128,0,164483:0:0:0:50:Tom3.wav
448,192,164400,128,0,164483:0:0:0:0:
192,192,164565,128,8,164730:0:0:0:0:
320,192,164565,128,0,164730:0:0:0:50:Tom3.wav
448,192,164565,128,0,164730:0:0:0:0:
64,192,164895,128,8,164977:0:0:0:0:
192,192,164895,128,0,164977:0:0:0:50:Tom3.wav
448,192,164895,128,0,164977:0:0:0:0:
64,192,165060,128,8,165224:0:0:0:0:
192,192,165060,128,0,165224:0:0:0:50:Hat Open2.wav
448,192,165060,128,0,165224:0:0:0:50:Tom3.wav
320,192,165389,128,0,165719:0:0:0:0:
64,192,165719,128,0,165801:0:0:0:0:
448,192,165719,128,0,165801:0:0:0:0:
192,192,165801,128,0,165884:0:0:0:0:
320,192,165884,128,0,165966:0:0:0:0:
448,192,165966,128,0,166049:0:0:0:0:
64,192,166049,128,2,166214:0:0:0:0:
192,192,166049,1,4,0:0:0:0:
320,192,166049,1,0,0:0:0:0:
192,192,166214,128,0,166378:0:0:0:0:
64,192,166378,1,8,0:0:0:0:
320,192,166378,128,0,166543:0:0:0:30:Hat Open.wav
448,192,166378,1,0,0:0:0:0:
192,192,166543,128,0,166626:0:0:0:0:
448,192,166543,128,0,166708:0:0:0:0:
64,192,166708,1,0,0:0:0:30:Hat Open.wav
320,192,166708,1,0,0:0:0:0:
192,192,166873,128,2,167038:0:0:0:0:
320,192,166873,128,0,166955:0:0:0:0:
64,192,167038,1,8,0:0:0:0:
320,192,167038,1,0,0:0:0:30:Hat Open.wav
448,192,167038,1,0,0:0:0:0:
192,192,167203,128,2,167285:0:0:0:0:
320,192,167203,128,0,167367:0:0:0:0:
64,192,167367,1,0,0:0:0:30:Hat Open.wav
192,192,167367,1,0,0:0:0:0:
448,192,167367,1,0,0:0:0:0:
64,192,167532,128,2,167697:0:0:0:0:
320,192,167532,128,0,167615:0:0:0:0:
192,192,167697,1,8,0:0:0:0:
320,192,167697,1,0,0:0:0:30:Hat Open.wav
448,192,167697,128,0,167862:0:0:0:0:
320,192,167862,128,0,168027:0:0:0:0:
64,192,168027,1,2,0:0:0:0:
192,192,168027,128,0,168192:0:0:0:30:Hat Open.wav
64,192,168192,128,2,168356:0:0:0:0:
448,192,168192,1,0,0:0:0:0:
192,192,168356,1,8,0:0:0:0:
320,192,168356,1,0,0:0:0:30:Hat Open.wav
448,192,168356,1,0,0:0:0:0:
320,192,168521,128,0,168851:0:0:0:0:
64,192,168686,1,2,0:0:0:0:
448,192,168686,1,4,0:0:0:0:
192,192,168851,128,0,169016:0:0:0:0:
64,192,169016,128,8,169345:0:0:0:0:
320,192,169016,1,0,0:0:0:30:Hat Open.wav
448,192,169016,128,0,169181:0:0:0:0:
192,192,169181,128,0,169345:0:0:0:0:
320,192,169345,128,2,169675:0:0:0:0:
448,192,169345,128,0,169510:0:0:0:30:Hat Open.wav
64,192,169510,1,2,0:0:0:0:
192,192,169510,128,0,169675:0:0:0:0:
64,192,169675,128,8,169840:0:0:0:0:
448,192,169675,128,0,170005:0:0:0:30:Hat Open.wav
192,192,169840,1,2,0:0:0:0:
320,192,169840,128,0,170005:0:0:0:0:
64,192,170005,128,0,170170:0:0:0:30:Hat Open.wav
192,192,170170,128,2,170334:0:0:0:0:
320,192,170170,1,0,0:0:0:0:
64,192,170334,1,8,0:0:0:0:
320,192,170334,128,0,170499:0:0:0:30:Hat Open.wav
448,192,170334,1,0,0:0:0:0:
448,192,170499,128,0,170829:0:0:0:0:
64,192,170664,1,2,0:0:0:0:
192,192,170664,1,0,0:0:0:30:Hat Open.wav
64,192,170829,128,2,170994:0:0:0:0:
320,192,170829,1,0,0:0:0:0:
192,192,170994,1,8,0:0:0:0:
320,192,170994,128,0,171159:0:0:0:30:Hat Open.wav
448,192,170994,1,0,0:0:0:0:
64,192,171159,1,0,0:0:0:0:
448,192,171159,128,0,171323:0:0:0:0:
64,192,171323,1,2,0:0:0:0:
192,192,171323,1,4,0:0:0:0:
320,192,171323,1,0,0:0:0:0:
192,192,171488,128,0,171818:0:0:0:0:
64,192,171653,1,8,0:0:0:0:
320,192,171653,1,0,0:0:0:30:Hat Open.wav
448,192,171653,128,0,171818:0:0:0:0:
320,192,171818,128,0,172148:0:0:0:0:
64,192,171983,1,2,0:0:0:0:
192,192,171983,128,0,172148:0:0:0:30:Hat Open.wav
64,192,172148,128,2,172477:0:0:0:0:
448,192,172148,1,0,0:0:0:0:
192,192,172312,128,8,172477:0:0:0:0:
320,192,172312,1,0,0:0:0:30:Hat Open.wav
448,192,172312,1,0,0:0:0:0:
320,192,172477,1,2,0:0:0:0:
448,192,172477,128,0,172807:0:0:0:0:
64,192,172642,1,0,0:0:0:30:Hat Open.wav
192,192,172807,128,2,173137:0:0:0:0:
320,192,172807,1,0,0:0:0:0:
64,192,172972,1,8,0:0:0:0:
320,192,172972,128,0,173137:0:0:0:30:Hat Open.wav
448,192,172972,1,0,0:0:0:0:
64,192,173137,128,0,173466:0:0:0:0:
192,192,173301,1,2,0:0:0:0:
448,192,173301,1,0,0:0:0:30:Hat Open.wav
320,192,173466,128,2,173796:0:0:0:0:
448,192,173466,1,0,0:0:0:0:
64,192,173631,1,8,0:0:0:0:
192,192,173631,128,0,173796:0:0:0:30:Hat Open.wav
448,192,173796,128,0,174126:0:0:0:0:
64,192,173961,1,2,0:0:0:0:
192,192,173961,1,4,0:0:0:0:
320,192,173961,128,0,174126:0:0:0:0:
64,192,174126,128,0,174455:0:0:0:0:
192,192,174290,128,8,174455:0:0:0:0:
320,192,174290,1,0,0:0:0:30:Hat Open.wav
448,192,174290,1,0,0:0:0:0:
448,192,174455,128,0,174785:0:0:0:0:
64,192,174620,1,2,0:0:0:0:
320,192,174620,1,0,0:0:0:30:Hat Open.wav
192,192,174785,128,2,174867:0:0:0:0:
320,192,174785,1,0,0:0:0:0:
64,192,174950,128,8,175032:0:0:0:0:
192,192,174950,1,0,0:0:0:30:Hat Open.wav
448,192,174950,128,0,175032:0:0:0:0:
320,192,175032,128,0,175115:0:0:0:0:
192,192,175115,128,2,175197:0:0:0:0:
448,192,175115,1,0,0:0:0:0:
64,192,175197,128,0,175279:0:0:0:0:
320,192,175279,1,0,0:0:0:30:Hat Open.wav
448,192,175279,128,0,175527:0:0:0:0:
192,192,175444,128,0,175527:0:0:0:0:
320,192,175527,1,2,0:0:0:0:
64,192,175609,1,8,0:0:0:0:
192,192,175609,1,4,0:0:0:0:
448,192,175609,1,0,0:0:0:0:
320,192,175774,1,0,0:0:0:0:
192,192,175856,1,8,0:0:0:20:soft-hitclap.wav
64,192,175939,1,2,0:0:0:0:
448,192,175939,1,0,0:0:0:0:
320,192,176021,1,8,0:0:0:20:soft-hitclap.wav
192,192,176104,1,8,0:0:0:0:
320,192,176186,1,8,0:0:0:0:
64,192,176268,1,8,0:0:0:0:
448,192,176268,1,2,0:0:0:0:
192,192,176351,1,0,0:0:0:0:
320,192,176433,1,0,0:0:0:50:Tom3.wav
448,192,176516,1,8,0:0:0:0:
64,192,176598,1,4,0:0:0:0:
192,192,176598,1,2,0:0:0:0:
320,192,176598,1,0,0:0:0:0:
64,192,176763,128,0,177093:0:0:0:0:
192,192,176928,128,8,177093:0:0:0:0:
320,192,176928,1,0,0:0:0:30:Hat Open.wav
448,192,176928,1,0,0:0:0:0:
448,192,177093,128,0,177257:0:0:0:0:
64,192,177257,128,8,177340:0:0:0:0:
320,192,177257,1,0,0:0:0:30:Hat Open.wav
192,192,177340,128,0,177422:0:0:0:0:
64,192,177422,1,2,0:0:0:0:
320,192,177422,128,0,177505:0:0:0:0:
448,192,177505,128,0,177587:0:0:0:0:
64,192,177587,1,8,0:0:0:0:
192,192,177587,1,0,0:0:0:30:Hat Open.wav
320,192,177587,1,0,0:0:0:0:
320,192,177752,128,2,178164:0:0:0:0:
448,192,177752,1,0,0:0:0:0:
64,192,177917,1,10,0:0:0:0:
448,192,177917,1,0,0:0:0:30:Hat Open.wav
192,192,178082,128,0,178164:0:0:0:0:
64,192,178246,1,8,0:0:0:0:
192,192,178246,1,0,0:0:0:30:Hat Open.wav
448,192,178246,128,0,178494:0:0:0:0:
320,192,178411,128,0,178494:0:0:0:0:
64,192,178576,1,8,0:0:0:0:
192,192,178576,1,0,0:0:0:30:Hat Open.wav
448,192,178576,1,0,0:0:0:0:
192,192,178741,128,2,178823:0:0:0:0:
320,192,178741,1,0,0:0:0:0:
64,192,178906,128,8,179153:0:0:0:0:
320,192,178906,1,0,0:0:0:30:Hat Open.wav
448,192,178906,1,0,0:0:0:0:
192,192,179071,128,2,179153:0:0:0:0:
64,192,179235,128,8,179318:0:0:0:0:
320,192,179235,1,4,0:0:0:0:
448,192,179235,128,0,179400:0:0:0:0:
192,192,179400,128,0,179483:0:0:0:0:
320,192,179400,128,0,179565:0:0:0:0:
64,192,179565,1,8,0:0:0:0:
192,192,179565,128,0,179730:0:0:0:30:Hat Open.wav
448,192,179565,128,0,179648:0:0:0:0:
64,192,179730,128,0,179895:0:0:0:0:
320,192,179730,128,0,179812:0:0:0:0:
192,192,179895,1,8,0:0:0:0:
448,192,179895,128,0,179977:0:0:0:30:Hat Open.wav
320,192,179977,128,0,180060:0:0:0:0:
64,192,180060,128,2,180142:0:0:0:0:
192,192,180060,128,0,180142:0:0:0:0:
192,192,180224,1,8,0:0:0:0:
320,192,180224,128,0,180389:0:0:0:30:Hat Open.wav
448,192,180224,128,0,180307:0:0:0:0:
64,192,180389,128,2,180719:0:0:0:0:
192,192,180554,128,8,180719:0:0:0:0:
320,192,180554,1,2,0:0:0:0:
448,192,180554,1,0,0:0:0:30:Hat Open.wav
448,192,180719,128,0,181049:0:0:0:0:
64,192,180884,1,8,0:0:0:0:
192,192,180884,1,0,0:0:0:30:Hat Open.wav
320,192,180884,128,0,181049:0:0:0:0:
64,192,181049,128,0,181543:0:0:0:0:
192,192,181214,1,8,0:0:0:0:
320,192,181214,128,0,181378:0:0:0:30:Hat Open.wav
192,192,181378,128,2,181543:0:0:0:0:
448,192,181378,1,0,0:0:0:0:
320,192,181543,1,8,0:0:0:0:
448,192,181543,1,0,0:0:0:30:Hat Open.wav
320,192,181708,128,0,181790:0:0:0:0:
192,192,181790,128,0,181873:0:0:0:0:
64,192,181873,128,8,182120:0:0:0:0:
320,192,181873,1,4,0:0:0:0:
448,192,181873,1,2,0:0:0:0:
192,192,182038,128,0,182120:0:0:0:0:
64,192,182203,1,8,0:0:0:0:
320,192,182203,1,0,0:0:0:30:Hat Open.wav
448,192,182203,128,0,182367:0:0:0:0:
192,192,182367,128,0,182779:0:0:0:0:
64,192,182532,1,8,0:0:0:0:
320,192,182532,1,0,0:0:0:30:Hat Open.wav
320,192,182697,128,2,182779:0:0:0:0:
448,192,182697,1,0,0:0:0:0:
64,192,182862,1,8,0:0:0:0:
192,192,182862,1,0,0:0:0:30:Hat Open.wav
448,192,182862,128,0,183027:0:0:0:0:
320,192,183027,128,2,183192:0:0:0:0:
64,192,183192,1,8,0:0:0:0:
192,192,183192,128,0,183356:0:0:0:30:Hat Open.wav
448,192,183192,1,0,0:0:0:0:
64,192,183356,1,2,0:0:0:0:
448,192,183356,128,0,183439:0:0:0:0:
320,192,183439,128,0,183521:0:0:0:0:
64,192,183521,128,8,183768:0:0:0:0:
192,192,183521,1,0,0:0:0:30:Hat Open.wav
448,192,183521,1,0,0:0:0:0:
192,192,183686,128,2,183768:0:0:0:0:
320,192,183686,1,0,0:0:0:0:
64,192,183851,1,8,0:0:0:0:
320,192,183851,128,0,184098:0:0:0:30:Hat Open.wav
448,192,183851,1,0,0:0:0:0:
192,192,184016,1,2,0:0:0:0:
448,192,184016,128,0,184098:0:0:0:0:
64,192,184181,1,8,0:0:0:0:
192,192,184181,128,0,184428:0:0:0:30:Hat Open.wav
320,192,184181,1,0,0:0:0:0:
64,192,184345,128,2,184428:0:0:0:0:
448,192,184345,1,0,0:0:0:0:
192,192,184510,1,8,0:0:0:0:
320,192,184510,1,4,0:0:0:0:
448,192,184510,128,0,184675:0:0:0:0:
64,192,184675,128,0,184757:0:0:0:0:
192,192,184757,1,8,0:0:0:0:
320,192,184840,128,2,184922:0:0:0:0:
448,192,184840,128,0,184922:0:0:0:30:Hat Open.wav
192,192,184922,1,8,0:0:0:0:
64,192,185005,1,8,0:0:0:0:
448,192,185005,128,0,185087:0:0:0:0:
320,192,185087,1,8,0:0:0:0:
64,192,185170,128,10,185252:0:0:0:0:
192,192,185170,128,0,185252:0:0:0:30:Hat Open.wav
320,192,185252,1,8,0:0:0:0:
64,192,185334,128,0,185417:0:0:0:50:Tom1.wav
448,192,185334,1,0,0:0:0:0:
192,192,185417,1,0,0:0:0:50:Tom1.wav
320,192,185499,128,2,185582:0:0:0:0:
448,192,185499,128,0,185582:0:0:0:30:Hat Open.wav
64,192,185582,1,0,0:0:0:50:Tom2.wav
192,192,185664,1,0,0:0:0:50:Tom3.wav
448,192,185664,128,0,185746:0:0:0:0:
320,192,185746,128,0,185829:0:0:0:50:Tom3.wav
64,192,185829,128,4,187065:0:0:0:0:
192,192,185829,128,2,187065:0:0:0:0:
448,192,185829,1,0,0:0:0:0:
64,192,187148,128,4,188301:0:0:0:0:
448,192,187148,128,0,187642:0:0:0:0:
192,192,187642,128,0,188301:0:0:0:0:
320,192,188137,128,0,188301:0:0:0:0:
192,192,188466,128,0,188961:0:0:0:0:
448,192,188466,128,0,189620:0:0:0:0:
64,192,188796,128,0,188961:0:0:0:0:
320,192,188961,128,0,189620:0:0:0:0:
192,192,189455,128,0,189620:0:0:0:0:
64,192,189785,128,0,190939:0:0:0:0:
448,192,189785,128,0,190115:0:0:0:0:
192,192,190279,128,0,190939:0:0:0:0:
320,192,190774,128,0,190939:0:0:0:0:
448,192,190939,128,0,191104:0:0:0:0:
192,192,191104,128,0,191928:0:0:0:0:
320,192,191104,128,0,192257:0:0:0:0:
448,192,191928,128,0,192257:0:0:0:0:
64,192,192257,1,0,0:0:0:10:Ride.wav
192,192,192340,1,0,0:0:0:0:
64,192,192422,128,0,192752:0:0:0:20:Ride.wav
448,192,192422,128,0,193576:0:0:0:0:
192,192,192752,1,0,0:0:0:0:
320,192,192917,128,0,193411:0:0:0:20:Ride.wav
64,192,193246,1,0,0:0:0:0:
192,192,193411,128,0,193576:0:0:0:0:
64,192,193741,128,0,194895:0:0:0:20:Ride.wav
320,192,193741,128,0,194071:0:0:0:0:
448,192,194071,1,0,0:0:0:10:Ride.wav
192,192,194235,128,0,194565:0:0:0:20:Ride.wav
320,192,194565,1,0,0:0:0:0:
192,192,194730,128,0,194895:0:0:0:0:
64,192,195060,128,0,195554:0:0:0:20:Ride.wav
448,192,195060,128,0,196214:0:0:0:0:
192,192,195389,1,0,0:0:0:10:Ride.wav
320,192,195554,128,0,196049:0:0:0:20:Ride.wav
192,192,195884,1,0,0:0:0:20:Ride.wav
64,192,196049,128,0,196214:0:0:0:20:Ride.wav
64,192,196378,128,0,196708:0:0:0:20:Ride.wav
448,192,196378,1,0,0:0:0:0:
192,192,196543,128,0,196708:0:0:0:0:
320,192,196708,128,0,197038:0:0:0:0:
192,192,196873,128,0,197038:0:0:0:0:
448,192,197038,128,0,197285:0:0:0:30:Hat Close.wav
64,192,197120,1,0,0:0:0:30:Hat Close.wav
192,192,197203,1,0,0:0:0:30:Hat Close.wav
320,192,197285,1,0,0:0:0:30:Hat Close.wav
64,192,197367,128,0,197615:0:0:0:30:Hat Open.wav
448,192,197367,1,0,0:0:0:0:
192,192,197532,128,0,197615:0:0:0:0:
64,192,197697,1,2,0:0:0:0:
320,192,197697,1,4,0:0:0:0:
448,192,197697,1,0,0:0:0:0:
192,192,197862,1,0,0:0:0:0:
64,192,198027,1,2,0:0:0:0:
448,192,198027,1,0,0:0:0:30:Hat Close.wav
320,192,198192,1,0,0:0:0:0:
192,192,198356,1,2,0:0:0:0:
448,192,198356,1,0,0:0:0:30:Hat Close.wav
64,192,198521,1,0,0:0:0:30:Hat Close.wav
320,192,198686,1,2,0:0:0:0:
448,192,198686,1,0,0:0:0:30:Hat Close.wav
192,192,198851,1,0,0:0:0:30:Hat Close.wav
64,192,199016,1,2,0:0:0:0:
320,192,199016,1,0,0:0:0:30:Hat Close.wav
448,192,199181,1,0,0:0:0:30:Hat Close.wav
64,192,199345,1,2,0:0:0:0:
192,192,199345,1,0,0:0:0:30:Hat Close.wav
320,192,199510,1,0,0:0:0:30:Hat Close.wav
64,192,199675,1,2,0:0:0:0:
448,192,199675,1,0,0:0:0:30:Hat Close.wav
192,192,199840,1,0,0:0:0:30:Hat Close.wav
64,192,200005,1,2,0:0:0:0:
320,192,200005,1,0,0:0:0:30:Hat Close.wav
448,192,200170,1,0,0:0:0:30:Hat Close.wav
320,192,200252,1,0,0:0:0:30:Hat Close.wav
64,192,200334,1,2,0:0:0:0:
192,192,200334,1,0,0:0:0:30:Hat Close.wav
448,192,200499,1,0,0:0:0:30:Hat Close.wav
192,192,200664,1,2,0:0:0:0:
320,192,200664,1,0,0:0:0:30:Hat Close.wav
64,192,200829,1,0,0:0:0:30:Hat Close.wav
192,192,200994,1,2,0:0:0:0:
448,192,200994,1,0,0:0:0:30:Hat Close.wav
320,192,201159,1,0,0:0:0:30:Hat Close.wav
64,192,201323,1,2,0:0:0:0:
192,192,201323,1,0,0:0:0:30:Hat Open.wav
320,192,201488,1,0,0:0:0:0:
64,192,201653,128,2,201735:0:0:0:0:
448,192,201653,1,0,0:0:0:30:Hat Open.wav
192,192,201818,128,0,201900:0:0:0:0:
64,192,201983,1,2,0:0:0:0:
320,192,201983,128,0,202065:0:0:0:30:Hat Open.wav
192,192,202148,128,0,202230:0:0:0:0:
320,192,202312,1,2,0:0:0:0:
448,192,202312,128,0,202395:0:0:0:30:Hat Open.wav
192,192,202477,128,2,202560:0:0:0:0:
320,192,202477,1,0,0:0:0:0:
64,192,202642,128,8,202724:0:0:0:0:
192,192,202642,1,0,0:0:0:50:Tom1.wav
448,192,202642,1,0,0:0:0:0:
320,192,202807,128,2,202889:0:0:0:0:
64,192,202972,1,4,0:0:0:0:
192,192,202972,1,2,0:0:0:0:
448,192,202972,1,0,0:0:0:0:
64,192,203137,1,0,0:0:0:0:
192,192,203301,1,8,0:0:0:0:
320,192,203301,1,0,0:0:0:30:Hat Open.wav
448,192,203301,1,0,0:0:0:0:
64,192,203466,1,0,0:0:0:0:
192,192,203631,1,2,0:0:0:0:
448,192,203631,1,0,0:0:0:30:Hat Open.wav
192,192,203796,1,2,0:0:0:0:
320,192,203796,1,0,0:0:0:0:
64,192,203961,1,8,0:0:0:0:
320,192,203961,1,0,0:0:0:30:Hat Open.wav
448,192,203961,1,0,0:0:0:0:
192,192,204126,1,0,0:0:0:0:
64,192,204290,1,2,0:0:0:0:
448,192,204290,1,0,0:0:0:30:Hat Open.wav
320,192,204455,1,0,0:0:0:0:
192,192,204538,1,0,0:0:0:0:
64,192,204620,1,8,0:0:0:0:
448,192,204620,1,0,0:0:0:30:Hat Open.wav
320,192,204703,1,0,0:0:0:0:
192,192,204785,1,0,0:0:0:0:
64,192,204867,1,0,0:0:0:0:
320,192,204950,1,2,0:0:0:0:
448,192,204950,1,0,0:0:0:30:Hat Open.wav
192,192,205032,1,0,0:0:0:0:
64,192,205115,1,2,0:0:0:0:
448,192,205115,1,0,0:0:0:0:
320,192,205197,1,0,0:0:0:0:
64,192,205279,1,8,0:0:0:0:
192,192,205279,1,0,0:0:0:30:Hat Open.wav
448,192,205362,1,0,0:0:0:0:
320,192,205444,1,2,0:0:0:0:
192,192,205527,1,0,0:0:0:0:
64,192,205609,128,2,205774:0:0:0:0:
320,192,205609,1,4,0:0:0:0:
448,192,205609,1,0,0:0:0:0:
192,192,205774,1,0,0:0:0:0:
64,192,205939,128,8,206104:0:0:0:0:
320,192,205939,1,2,0:0:0:0:
448,192,205939,1,0,0:0:0:30:Hat Open.wav
192,192,206104,1,0,0:0:0:0:
64,192,206268,1,2,0:0:0:0:
448,192,206268,128,0,206433:0:0:0:30:Hat Open.wav
320,192,206433,1,0,0:0:0:0:
64,192,206598,1,2,0:0:0:0:
192,192,206598,1,8,0:0:0:0:
448,192,206598,128,0,206928:0:0:0:30:Hat Open.wav
320,192,206763,128,0,206928:0:0:0:0:
64,192,206928,1,2,0:0:0:0:
192,192,206928,1,0,0:0:0:30:Hat Open.wav
448,192,207093,128,0,207175:0:0:0:0:
64,192,207257,1,2,0:0:0:0:
192,192,207257,1,8,0:0:0:0:
320,192,207257,128,0,207340:0:0:0:30:Hat Open.wav
192,192,207422,128,0,207505:0:0:0:0:
64,192,207587,1,2,0:0:0:0:
448,192,207587,1,0,0:0:0:30:Hat Open.wav
320,192,207752,1,2,0:0:0:0:
448,192,207752,1,0,0:0:0:0:
64,192,207917,1,8,0:0:0:0:
192,192,207917,1,0,0:0:0:30:Hat Open.wav
320,192,207917,1,0,0:0:0:0:
64,192,208082,1,2,0:0:0:0:
448,192,208082,1,0,0:0:0:0:
192,192,208246,128,8,208329:0:0:0:0:
320,192,208246,128,4,208329:0:0:0:0:
448,192,208246,128,0,208329:0:0:0:0:
64,192,208411,128,2,208494:0:0:0:0:
448,192,208411,128,0,208494:0:0:0:0:
64,192,208576,128,2,208659:0:0:0:0:
192,192,208576,128,0,208659:0:0:0:0:
64,192,208741,128,4,208906:0:0:0:0:
192,192,208741,128,8,208906:0:0:0:0:
320,192,208741,128,0,208906:0:0:0:0:
64,192,209071,1,2,0:0:0:0:
448,192,209071,1,0,0:0:0:0:
64,192,209235,128,4,209318:0:0:0:0:
192,192,209235,128,8,209318:0:0:0:0:
320,192,209235,128,0,209318:0:0:0:0:
64,192,209400,128,2,209483:0:0:0:0:
448,192,209400,128,0,209483:0:0:0:0:
320,192,209565,128,2,209648:0:0:0:0:
448,192,209565,128,0,209648:0:0:0:0:
192,192,209730,128,8,209895:0:0:0:0:
320,192,209730,128,0,209895:0:0:0:30:Hat Open.wav
448,192,209730,128,0,209895:0:0:0:0:
64,192,210060,1,2,0:0:0:0:
448,192,210060,1,0,0:0:0:0:
64,192,210224,1,8,0:0:0:0:
192,192,210224,1,4,0:0:0:0:
320,192,210224,1,0,0:0:0:0:
192,192,210389,1,2,0:0:0:0:
448,192,210389,1,0,0:0:0:0:
64,192,210554,1,8,0:0:0:0:
320,192,210554,1,0,0:0:0:0:
448,192,210554,1,0,0:0:0:0:
320,192,210719,1,2,0:0:0:0:
64,192,210884,128,2,211543:0:0:0:0:
192,192,210884,1,0,0:0:0:50:finish-short.wav
448,192,210884,128,0,211049:0:0:0:0:
320,192,211049,128,0,211214:0:0:0:0:
192,192,211214,128,0,211378:0:0:0:0:
448,192,211378,128,0,211543:0:0:0:0:
64,192,211873,128,0,212038:0:0:0:0:
448,192,211873,128,0,212203:0:0:0:0:
320,192,212038,128,0,212203:0:0:0:0:
64,192,212203,1,0,0:0:0:50:Tom3.wav
192,192,212203,1,0,0:0:0:0:
320,192,212285,1,0,0:0:0:50:Tom1.wav
448,192,212285,1,0,0:0:0:0:
192,192,212367,1,0,0:0:0:0:
320,192,212450,1,2,0:0:0:0:
64,192,212532,1,8,0:0:0:0:
192,192,212532,1,4,0:0:0:0:
448,192,212532,1,0,0:0:0:0:
320,192,212697,1,0,0:0:0:0:
192,192,212779,1,8,0:0:0:10:soft-hitclap.wav
64,192,212862,128,2,212944:0:0:0:0:
448,192,212862,128,0,212944:0:0:0:0:
320,192,212944,128,8,213027:0:0:0:10:soft-hitclap.wav
64,192,213027,128,0,213109:0:0:0:50:Tom3.wav
192,192,213027,128,0,213109:0:0:0:0:
320,192,213109,128,8,213192:0:0:0:0:
448,192,213109,128,0,213192:0:0:0:0:
64,192,213192,128,8,213274:0:0:0:0:
192,192,213192,128,2,213274:0:0:0:0:
320,192,213274,128,0,213356:0:0:0:50:Tom2.wav
64,192,213356,128,0,213439:0:0:0:50:Tom1.wav
448,192,213356,128,0,213439:0:0:0:0:
192,192,213439,128,0,213521:0:0:0:0:
64,192,213521,1,4,0:0:0:0:
320,192,213521,128,2,213768:0:0:0:0:
448,192,213521,128,0,213768:0:0:0:0:
64,192,213851,128,8,213933:0:0:0:0:
192,192,213851,1,0,0:0:0:30:Hat Open.wav
320,192,213851,1,0,0:0:0:0:
64,192,214016,128,0,214345:0:0:0:0:
320,192,214181,1,8,0:0:0:0:
448,192,214181,1,0,0:0:0:30:Hat Open.wav
192,192,214345,1,2,0:0:0:0:
448,192,214345,128,0,214675:0:0:0:0:
192,192,214510,1,8,0:0:0:0:
320,192,214510,1,0,0:0:0:30:Hat Open.wav
64,192,214675,1,2,0:0:0:0:
320,192,214675,128,0,214840:0:0:0:0:
64,192,214840,128,8,215170:0:0:0:0:
192,192,214840,1,2,0:0:0:0:
448,192,214840,1,0,0:0:0:30:Hat Open.wav
320,192,215005,1,0,0:0:0:0:
192,192,215170,128,8,215334:0:0:0:0:
320,192,215170,1,0,0:0:0:30:Hat Open.wav
448,192,215170,1,0,0:0:0:0:
448,192,215334,128,0,215664:0:0:0:0:
64,192,215499,1,8,0:0:0:0:
320,192,215499,1,0,0:0:0:30:Hat Open.wav
64,192,215664,1,2,0:0:0:0:
192,192,215664,128,0,215829:0:0:0:0:
64,192,215829,1,8,0:0:0:0:
320,192,215829,1,0,0:0:0:30:Hat Open.wav
448,192,215829,1,0,0:0:0:0:
192,192,215994,1,2,0:0:0:0:
320,192,215994,128,0,216159:0:0:0:0:
64,192,216159,128,2,216406:0:0:0:0:
192,192,216159,128,4,216406:0:0:0:0:
448,192,216159,1,8,0:0:0:0:
64,192,216488,1,8,0:0:0:0:
192,192,216488,1,0,0:0:0:30:Hat Open.wav
448,192,216488,128,0,216653:0:0:0:0:
320,192,216653,128,0,216818:0:0:0:0:
64,192,216818,1,8,0:0:0:0:
192,192,216818,1,0,0:0:0:30:Hat Open.wav
448,192,216818,1,0,0:0:0:0:
192,192,216983,128,2,217148:0:0:0:0:
320,192,216983,1,0,0:0:0:0:
64,192,217148,1,8,0:0:0:0:
320,192,217148,128,0,217312:0:0:0:30:Hat Open.wav
448,192,217148,1,0,0:0:0:0:
64,192,217312,1,2,0:0:0:0:
192,192,217312,1,0,0:0:0:0:
64,192,217477,1,8,0:0:0:0:
320,192,217477,1,0,0:0:0:30:Hat Open.wav
448,192,217477,1,0,0:0:0:0:
192,192,217642,1,2,0:0:0:0:
320,192,217642,1,0,0:0:0:0:
64,192,217807,1,8,0:0:0:0:
192,192,217807,1,4,0:0:0:0:
448,192,217807,1,0,0:0:0:0:
320,192,217972,1,0,0:0:0:0:
192,192,218054,1,8,0:0:0:10:soft-hitclap.wav
64,192,218137,1,2,0:0:0:0:
320,192,218137,1,0,0:0:0:0:
448,192,218137,1,0,0:0:0:0:
192,192,218219,1,8,0:0:0:10:soft-hitclap.wav
64,192,218301,1,8,0:0:0:0:
448,192,218301,1,0,0:0:0:0:
320,192,218384,1,8,0:0:0:0:
64,192,218466,1,8,0:0:0:0:
192,192,218466,1,2,0:0:0:0:
320,192,218549,1,0,0:0:0:0:
64,192,218631,1,0,0:0:0:50:Tom2.wav
448,192,218631,1,0,0:0:0:0:
192,192,218714,1,0,0:0:0:0:
64,192,218796,1,4,0:0:0:0:
320,192,218796,128,2,219043:0:0:0:0:
448,192,218796,128,0,219043:0:0:0:0:
64,192,219126,128,8,219290:0:0:0:0:
192,192,219126,1,0,0:0:0:30:Hat Open.wav
320,192,219126,1,0,0:0:0:0:
320,192,219290,128,0,219620:0:0:0:0:
192,192,219455,128,2,219620:0:0:0:0:
448,192,219455,1,0,0:0:0:30:Hat Open.wav
64,192,219620,1,2,0:0:0:0:
448,192,219620,128,0,219785:0:0:0:0:
64,192,219785,1,8,0:0:0:0:
192,192,219785,1,0,0:0:0:30:Hat Open.wav
320,192,219785,128,0,219950:0:0:0:0:
64,192,219950,128,2,220279:0:0:0:0:
448,192,219950,1,0,0:0:0:0:
192,192,220115,128,0,220279:0:0:0:30:Hat Open.wav
320,192,220279,1,2,0:0:0:0:
448,192,220279,1,0,0:0:0:0:
64,192,220444,1,8,0:0:0:0:
192,192,220444,128,0,220609:0:0:0:30:Hat Open.wav
448,192,220444,1,0,0:0:0:0:
320,192,220609,128,0,220774:0:0:0:0:
192,192,220774,1,2,0:0:0:0:
448,192,220774,1,0,0:0:0:30:Hat Open.wav
64,192,220939,128,2,221104:0:0:0:0:
320,192,220939,1,0,0:0:0:0:
192,192,221104,128,8,221268:0:0:0:0:
320,192,221104,1,0,0:0:0:30:Hat Open.wav
448,192,221104,1,0,0:0:0:0:
448,192,221268,128,0,221433:0:0:0:0:
64,192,221433,1,2,0:0:0:0:
192,192,221433,128,4,221681:0:0:0:0:
320,192,221433,128,0,221681:0:0:0:0:
64,192,221763,128,8,221928:0:0:0:0:
320,192,221763,1,0,0:0:0:30:Hat Open.wav
448,192,221763,1,0,0:0:0:0:
192,192,221928,128,0,222257:0:0:0:0:
320,192,222093,1,0,0:0:0:30:Hat Open.wav
448,192,222093,1,0,0:0:0:0:
64,192,222257,1,2,0:0:0:0:
448,192,222257,128,0,222422:0:0:0:0:
64,192,222422,128,8,222917:0:0:0:0:
192,192,222422,1,0,0:0:0:30:Hat Open.wav
320,192,222422,1,0,0:0:0:0:
192,192,222587,1,2,0:0:0:0:
448,192,222587,1,0,0:0:0:0:
448,192,222752,1,0,0:0:0:30:Hat Open.wav
192,192,222917,1,2,0:0:0:0:
320,192,222917,1,0,0:0:0:0:
64,192,223082,1,8,0:0:0:0:
320,192,223082,1,4,0:0:0:0:
448,192,223082,1,0,0:0:0:0:
192,192,223246,1,0,0:0:0:0:
320,192,223329,1,8,0:0:0:20:soft-hitclap.wav
64,192,223411,1,2,0:0:0:0:
448,192,223411,1,0,0:0:0:0:
192,192,223494,1,8,0:0:0:20:soft-hitclap.wav
320,192,223576,1,8,0:0:0:0:
448,192,223576,1,0,0:0:0:0:
192,192,223659,1,8,0:0:0:0:
64,192,223741,1,8,0:0:0:0:
448,192,223741,1,2,0:0:0:0:
320,192,223823,1,0,0:0:0:0:
64,192,223906,1,0,0:0:0:50:Tom2.wav
192,192,223906,1,0,0:0:0:0:
320,192,223988,1,0,0:0:0:50:Tom2.wav
64,192,224071,128,4,224318:0:0:0:0:
192,192,224071,128,2,224318:0:0:0:0:
448,192,224071,1,0,0:0:0:0:
192,192,224400,1,8,0:0:0:0:
320,192,224400,1,4,0:0:0:0:
448,192,224400,1,0,0:0:0:0:
64,192,224565,1,0,0:0:0:0:
192,192,224730,1,0,0:0:0:30:Ride.wav
448,192,224730,128,0,224895:0:0:0:0:
64,192,224895,1,2,0:0:0:0:
320,192,224895,1,0,0:0:0:0:
192,192,225060,1,8,0:0:0:0:
320,192,225060,128,0,225224:0:0:0:30:Ride.wav
448,192,225060,1,0,0:0:0:0:
64,192,225224,128,2,225554:0:0:0:0:
192,192,225224,1,0,0:0:0:50:Hat Open2.wav
448,192,225389,1,0,0:0:0:30:Ride.wav
192,192,225554,1,2,0:0:0:0:
320,192,225554,1,0,0:0:0:0:
64,192,225719,1,8,0:0:0:0:
320,192,225719,1,0,0:0:0:30:Ride.wav
448,192,225719,128,0,225884:0:0:0:0:
192,192,225884,128,0,226049:0:0:0:0:
64,192,226049,1,0,0:0:0:30:Ride.wav
320,192,226049,1,0,0:0:0:0:
320,192,226214,1,2,0:0:0:0:
448,192,226214,1,0,0:0:0:0:
64,192,226378,128,8,226543:0:0:0:0:
192,192,226378,1,0,0:0:0:30:Ride.wav
448,192,226378,1,0,0:0:0:0:
320,192,226543,1,0,0:0:0:0:
192,192,226626,1,0,0:0:0:0:
64,192,226708,1,2,0:0:0:0:
320,192,226708,128,4,226955:0:0:0:0:
448,192,226708,128,0,226955:0:0:0:0:
64,192,227038,128,8,227203:0:0:0:0:
192,192,227038,1,0,0:0:0:30:Ride.wav
448,192,227038,1,0,0:0:0:0:
320,192,227203,1,0,0:0:0:0:
192,192,227367,128,0,227532:0:0:0:30:Ride.wav
64,192,227532,1,2,0:0:0:0:
448,192,227532,1,0,0:0:0:0:
64,192,227697,128,8,227944:0:0:0:0:
320,192,227697,1,4,0:0:0:0:
448,192,227697,128,0,227944:0:0:0:0:
192,192,228027,1,0,0:0:0:30:Ride.wav
320,192,228192,1,2,0:0:0:0:
448,192,228192,1,0,0:0:0:0:
64,192,228356,1,8,0:0:0:0:
192,192,228356,1,0,0:0:0:30:Hat Open.wav
448,192,228356,1,0,0:0:0:0:
320,192,228521,1,0,0:0:0:0:
64,192,228686,1,2,0:0:0:0:
192,192,228686,1,0,0:0:0:30:Ride.wav
320,192,228768,1,8,0:0:0:0:
448,192,228768,1,0,0:0:0:0:
64,192,228851,1,8,0:0:0:0:
192,192,228851,1,0,0:0:0:0:
320,192,228933,1,8,0:0:0:0:
448,192,228933,1,0,0:0:0:0:
64,192,229016,1,8,0:0:0:0:
192,192,229016,1,2,0:0:0:0:
320,192,229098,1,8,0:0:0:0:
448,192,229181,1,0,0:0:0:50:Tom2.wav
192,192,229263,1,0,0:0:0:50:Tom2.wav
64,192,229345,128,4,229593:0:0:0:0:
320,192,229345,128,2,229593:0:0:0:0:
448,192,229345,128,0,229593:0:0:0:0:
64,192,229675,1,8,0:0:0:0:
192,192,229675,1,0,0:0:0:30:Hat Open.wav
320,192,229675,1,0,0:0:0:0:
320,192,229840,1,0,0:0:0:0:
64,192,230005,1,8,0:0:0:0:
192,192,230005,1,0,0:0:0:30:Hat Open.wav
448,192,230005,1,0,0:0:0:0:
64,192,230170,1,2,0:0:0:0:
320,192,230170,1,0,0:0:0:0:
192,192,230334,1,8,0:0:0:0:
320,192,230334,1,0,0:0:0:30:Hat Open.wav
448,192,230334,1,0,0:0:0:0:
192,192,230499,1,2,0:0:0:0:
64,192,230664,128,8,230911:0:0:0:0:
320,192,230664,1,2,0:0:0:0:
448,192,230664,128,0,230911:0:0:0:30:Hat Open.wav
64,192,230994,1,8,0:0:0:0:
192,192,230994,1,0,0:0:0:30:Hat Open.wav
320,192,230994,1,0,0:0:0:0:
192,192,231159,1,0,0:0:0:0:
64,192,231323,1,8,0:0:0:0:
320,192,231323,1,0,0:0:0:30:Hat Open.wav
448,192,231323,1,0,0:0:0:0:
192,192,231488,1,2,0:0:0:0:
448,192,231488,1,0,0:0:0:0:
64,192,231653,1,8,0:0:0:0:
192,192,231653,1,0,0:0:0:30:Hat Open.wav
320,192,231653,1,0,0:0:0:0:
320,192,231818,1,2,0:0:0:0:
64,192,231983,128,8,232230:0:0:0:0:
192,192,231983,128,4,232230:0:0:0:0:
448,192,231983,128,2,232230:0:0:0:0:
64,192,232312,1,8,0:0:0:0:
320,192,232312,1,0,0:0:0:30:Hat Open.wav
448,192,232312,1,0,0:0:0:0:
448,192,232477,1,0,0:0:0:0:
64,192,232642,1,8,0:0:0:0:
192,192,232642,1,0,0:0:0:30:Hat Open.wav
320,192,232642,1,0,0:0:0:0:
64,192,232807,1,0,0:0:0:50:Tom3.wav
448,192,232807,1,0,0:0:0:0:
192,192,232972,1,0,0:0:0:50:Tom3.wav
320,192,232972,1,0,0:0:0:0:
448,192,232972,1,0,0:0:0:0:
64,192,233137,1,4,0:0:0:0:
192,192,233137,1,2,0:0:0:0:
320,192,233137,1,0,0:0:0:0:
64,192,233466,1,8,0:0:0:0:
320,192,233466,1,0,0:0:0:50:Tom3.wav
448,192,233466,1,0,0:0:0:0:
64,192,233631,128,2,233796:0:0:0:0:
320,192,233631,128,0,233796:0:0:0:30:Hat Open.wav
448,192,233631,128,0,233796:0:0:0:0:
64,192,233961,1,2,0:0:0:0:
192,192,233961,1,0,0:0:0:0:
320,192,234043,1,8,0:0:0:20:soft-hitclap.wav
448,192,234043,1,0,0:0:0:0:
64,192,234126,1,8,0:0:0:0:
192,192,234126,1,0,0:0:0:0:
320,192,234208,1,8,0:0:0:0:
64,192,234290,1,8,0:0:0:0:
192,192,234290,1,2,0:0:0:0:
448,192,234290,1,0,0:0:0:0:
320,192,234373,1,0,0:0:0:0:
64,192,234455,1,0,0:0:0:50:Tom1.wav
448,192,234455,1,0,0:0:0:0:
192,192,234538,1,0,0:0:0:50:Tom2.wav
64,192,234620,128,4,234950:0:0:0:0:
320,192,234620,1,2,0:0:0:0:
448,192,234620,1,0,0:0:0:0:
192,192,234950,1,8,0:0:0:0:
320,192,234950,1,0,0:0:0:30:Ride.wav
448,192,234950,1,0,0:0:0:0:
320,192,235115,1,0,0:0:0:0:
64,192,235279,128,2,235362:0:0:0:0:
448,192,235279,1,0,0:0:0:30:Ride.wav
192,192,235444,128,2,235527:0:0:0:0:
448,192,235444,1,0,0:0:0:0:
64,192,235609,1,8,0:0:0:0:
192,192,235609,1,0,0:0:0:30:Ride.wav
320,192,235609,128,0,235692:0:0:0:0:
320,192,235774,1,2,0:0:0:0:
448,192,235774,128,0,235856:0:0:0:50:Hat Open2.wav
64,192,235939,1,0,0:0:0:30:Ride.wav
192,192,236104,1,2,0:0:0:0:
448,192,236104,1,0,0:0:0:0:
64,192,236268,1,8,0:0:0:0:
320,192,236268,1,0,0:0:0:30:Ride.wav
448,192,236268,128,0,236351:0:0:0:0:
64,192,236433,1,0,0:0:0:0:
192,192,236598,1,0,0:0:0:30:Ride.wav
320,192,236598,128,0,236681:0:0:0:0:
64,192,236763,128,2,236928:0:0:0:0:
448,192,236763,1,0,0:0:0:0:
192,192,236928,128,8,237010:0:0:0:0:
320,192,236928,1,0,0:0:0:30:Ride.wav
448,192,236928,128,0,237175:0:0:0:0:
64,192,237093,1,0,0:0:0:0:
192,192,237175,1,0,0:0:0:0:
64,192,237257,128,2,238246:0:0:0:0:
320,192,237257,1,4,0:0:0:0:
448,192,237257,1,0,0:0:0:0:
192,192,237587,1,8,0:0:0:0:
320,192,237587,1,0,0:0:0:30:Ride.wav
320,192,237752,1,0,0:0:0:0:
192,192,237917,1,0,0:0:0:30:Ride.wav
448,192,237917,1,0,0:0:0:0:
320,192,238082,1,2,0:0:0:0:
448,192,238082,1,0,0:0:0:0:
192,192,238246,1,8,0:0:0:0:
320,192,238246,1,0,0:0:0:30:Ride.wav
64,192,238411,1,2,0:0:0:0:
192,192,238411,1,0,0:0:0:50:Hat Open2.wav
448,192,238411,1,0,0:0:0:0:
320,192,238576,1,0,0:0:0:30:Ride.wav
64,192,238741,1,2,0:0:0:0:
448,192,238741,1,0,0:0:0:0:
192,192,238906,128,8,239235:0:0:0:0:
320,192,238906,1,0,0:0:0:30:Ride.wav
448,192,238906,1,0,0:0:0:0:
64,192,239071,1,0,0:0:0:0:
320,192,239235,128,0,239565:0:0:0:30:Ride.wav
448,192,239235,1,0,0:0:0:0:
64,192,239400,1,2,0:0:0:0:
192,192,239400,1,0,0:0:0:0:
448,192,239565,128,8,239812:0:0:0:0:
192,192,239565,1,0,0:0:0:30:Ride.wav
64,192,239565,1,0,0:0:0:0:
320,192,239730,1,0,0:0:0:0:
192,192,239812,1,0,0:0:0:0:
448,192,239895,1,2,0:0:0:0:
320,192,239895,1,4,0:0:0:0:
64,192,239895,128,0,240224:0:0:0:0:
320,192,240224,1,8,0:0:0:0:
192,192,240224,1,0,0:0:0:30:Ride.wav
192,192,240389,1,0,0:0:0:0:
64,192,240554,128,0,240719:0:0:0:30:Ride.wav
448,192,240554,1,0,0:0:0:0:
320,192,240719,1,2,0:0:0:0:
448,192,240719,128,0,241049:0:0:0:0:
64,192,240884,1,8,0:0:0:0:
192,192,240884,1,0,0:0:0:30:Ride.wav
64,192,241049,1,2,0:0:0:0:
192,192,241049,128,0,241378:0:0:0:50:Hat Open2.wav
320,192,241049,1,0,0:0:0:0:
448,192,241214,1,0,0:0:0:30:Ride.wav
64,192,241378,128,2,241708:0:0:0:0:
320,192,241378,1,0,0:0:0:0:
192,192,241543,1,8,0:0:0:0:
448,192,241543,1,0,0:0:0:30:Ride.wav
448,192,241708,128,0,242038:0:0:0:0:
64,192,241873,1,0,0:0:0:30:Ride.wav
192,192,241873,1,0,0:0:0:0:
64,192,242038,128,2,242203:0:0:0:0:
320,192,242038,1,0,0:0:0:0:
192,192,242203,128,8,242367:0:0:0:0:
448,192,242203,1,0,0:0:0:30:Hat Open.wav
320,192,242367,128,0,242532:0:0:0:0:
64,192,242532,1,4,0:0:0:0:
192,192,242532,1,2,0:0:0:0:
448,192,242532,128,0,242862:0:0:0:0:
320,192,242697,128,0,242862:0:0:0:0:
64,192,242862,128,8,243192:0:0:0:0:
192,192,242862,1,0,0:0:0:30:Hat Open.wav
320,192,243027,1,0,0:0:0:0:
192,192,243192,1,0,0:0:0:30:Ride.wav
320,192,243356,1,2,0:0:0:0:
448,192,243356,1,0,0:0:0:0:
64,192,243521,1,8,0:0:0:0:
192,192,243521,1,0,0:0:0:30:Hat Open.wav
448,192,243521,1,0,0:0:0:30:Ride.wav
320,192,243686,128,0,243768:0:0:0:0:
64,192,243851,1,2,0:0:0:0:
192,192,243851,1,0,0:0:0:30:Ride.wav
320,192,243933,1,8,0:0:0:0:
448,192,243933,1,0,0:0:0:0:
64,192,244016,1,8,0:0:0:0:
192,192,244016,1,0,0:0:0:0:
320,192,244098,1,2,0:0:0:0:
448,192,244098,1,0,0:0:0:0:
64,192,244181,1,0,0:0:0:30:Hat Open.wav
192,192,244263,1,0,0:0:0:30:Hat Open.wav
320,192,244345,1,2,0:0:0:0:
448,192,244345,1,0,0:0:0:0:
64,192,244428,1,8,0:0:0:0:
192,192,244428,1,0,0:0:0:0:
320,192,244510,1,8,0:0:0:0:
448,192,244510,1,0,0:0:0:0:
64,192,244593,1,8,0:0:0:0:
192,192,244593,1,0,0:0:0:0:
320,192,244675,1,8,0:0:0:0:
448,192,244675,1,0,0:0:0:0:
64,192,244757,1,8,0:0:0:0:
192,192,244757,1,0,0:0:0:0:
320,192,244840,1,8,0:0:0:0:
448,192,244840,1,2,0:0:0:0:
192,192,244922,1,0,0:0:0:50:Tom2.wav
64,192,245005,1,0,0:0:0:50:Tom3.wav
320,192,245087,1,0,0:0:0:50:Tom3.wav
64,192,245170,128,4,245417:0:0:0:0:
192,192,245170,128,2,245417:0:0:0:0:
448,192,245170,128,0,245417:0:0:0:0:
192,192,245499,1,8,0:0:0:0:
320,192,245499,1,4,0:0:0:0:
448,192,245499,1,0,0:0:0:0:
320,192,245664,1,0,0:0:0:0:
64,192,245829,1,8,0:0:0:0:
192,192,245829,1,0,0:0:0:30:Hat Open.wav
448,192,245829,1,0,0:0:0:0:
192,192,245994,1,2,0:0:0:0:
320,192,245994,1,0,0:0:0:0:
64,192,246159,1,8,0:0:0:0:
320,192,246159,1,0,0:0:0:30:Hat Open.wav
448,192,246159,1,0,0:0:0:0:
192,192,246323,1,2,0:0:0:0:
448,192,246323,1,0,0:0:0:0:
64,192,246488,128,8,246735:0:0:0:0:
192,192,246488,128,0,246735:0:0:0:30:Hat Open.wav
320,192,246488,1,0,0:0:0:0:
64,192,246818,1,8,0:0:0:0:
320,192,246818,1,0,0:0:0:30:Hat Open.wav
448,192,246818,1,0,0:0:0:0:
64,192,246983,1,2,0:0:0:0:
192,192,246983,1,0,0:0:0:0:
192,192,247148,1,8,0:0:0:0:
320,192,247148,1,0,0:0:0:30:Hat Open.wav
448,192,247148,1,0,0:0:0:0:
64,192,247312,1,2,0:0:0:0:
320,192,247312,1,0,0:0:0:0:
64,192,247477,1,8,0:0:0:0:
192,192,247477,1,0,0:0:0:30:Hat Open.wav
448,192,247477,1,0,0:0:0:0:
192,192,247642,1,2,0:0:0:0:
320,192,247642,1,0,0:0:0:0:
64,192,247807,128,2,248054:0:0:0:0:
320,192,247807,128,4,248054:0:0:0:0:
448,192,247807,128,8,248054:0:0:0:0:
64,192,248137,1,8,0:0:0:0:
192,192,248137,1,0,0:0:0:30:Hat Open.wav
448,192,248137,1,0,0:0:0:0:
192,192,248301,1,0,0:0:0:0:
64,192,248466,1,8,0:0:0:0:
320,192,248466,1,0,0:0:0:30:Hat Open.wav
448,192,248466,1,0,0:0:0:0:
192,192,248631,1,2,0:0:0:0:
448,192,248631,1,0,0:0:0:0:
64,192,248796,1,8,0:0:0:0:
192,192,248796,1,0,0:0:0:30:Hat Open.wav
320,192,248796,1,0,0:0:0:0:
320,192,248961,1,2,0:0:0:0:
448,192,248961,1,0,0:0:0:0:
64,192,249126,1,8,0:0:0:0:
192,192,249126,1,2,0:0:0:0:
448,192,249126,1,0,0:0:0:30:Hat Open.wav
192,192,249290,1,0,0:0:0:0:
64,192,249455,1,8,0:0:0:0:
320,192,249455,1,0,0:0:0:30:Hat Open.wav
448,192,249455,1,0,0:0:0:0:
192,192,249620,1,2,0:0:0:0:
448,192,249620,1,0,0:0:0:0:
64,192,249785,1,8,0:0:0:0:
192,192,249785,1,0,0:0:0:30:Hat Open.wav
320,192,249785,1,0,0:0:0:0:
64,192,249950,1,2,0:0:0:0:
448,192,249950,1,0,0:0:0:0:
192,192,250115,1,8,0:0:0:0:
320,192,250115,1,0,0:0:0:30:Hat Open.wav
448,192,250115,1,0,0:0:0:0:
64,192,250279,1,2,0:0:0:0:
320,192,250279,1,0,0:0:0:0:
64,192,250444,128,2,250692:0:0:0:0:
192,192,250444,128,4,250692:0:0:0:0:
448,192,250444,128,0,250692:0:0:0:0:
64,192,250774,1,8,0:0:0:0:
320,192,250774,1,0,0:0:0:30:Hat Open.wav
448,192,250774,1,0,0:0:0:0:
320,192,250939,1,0,0:0:0:0:
64,192,251104,1,2,0:0:0:0:
192,192,251104,1,0,0:0:0:30:Hat Open.wav
192,192,251268,1,2,0:0:0:0:
448,192,251268,1,0,0:0:0:0:
64,192,251433,1,8,0:0:0:0:
320,192,251433,1,0,0:0:0:30:Hat Open.wav
448,192,251433,1,0,0:0:0:0:
192,192,251598,1,2,0:0:0:0:
320,192,251598,1,0,0:0:0:0:
64,192,251763,1,0,0:0:0:30:Hat Open.wav
320,192,251928,1,2,0:0:0:0:
448,192,251928,1,0,0:0:0:0:
64,192,252093,1,8,0:0:0:0:
192,192,252093,1,0,0:0:0:30:Hat Open.wav
448,192,252093,1,0,0:0:0:0:
320,192,252257,1,0,0:0:0:0:
64,192,252422,1,2,0:0:0:0:
192,192,252422,1,0,0:0:0:30:Hat Open.wav
192,192,252587,1,2,0:0:0:0:
448,192,252587,1,0,0:0:0:0:
64,192,252752,1,8,0:0:0:0:
320,192,252752,128,0,252999:0:0:0:30:Hat Open.wav
448,192,252752,1,0,0:0:0:0:
192,192,252917,128,0,252999:0:0:0:0:
64,192,253082,1,2,0:0:0:0:
320,192,253082,1,4,0:0:0:0:
448,192,253082,128,0,253411:0:0:0:0:
64,192,253411,1,8,0:0:0:0:
192,192,253411,1,0,0:0:0:30:Hat Open.wav
320,192,253411,1,0,0:0:0:0:
448,192,253576,1,0,0:0:0:0:
64,192,253741,1,0,0:0:0:30:Hat Open.wav
192,192,253741,1,0,0:0:0:0:
64,192,253906,1,2,0:0:0:0:
448,192,253906,1,0,0:0:0:0:
192,192,254071,1,8,0:0:0:0:
320,192,254071,1,4,0:0:0:0:
448,192,254071,128,0,254235:0:0:0:0:
64,192,254235,1,2,0:0:0:0:
192,192,254318,1,2,0:0:0:0:
320,192,254400,1,0,0:0:0:50:Tom1.wav
448,192,254400,1,0,0:0:0:0:
64,192,254483,1,8,0:0:0:0:
192,192,254483,1,0,0:0:0:0:
448,192,254565,1,2,0:0:0:0:
320,192,254648,1,2,0:0:0:0:
64,192,254730,1,8,0:0:0:0:
192,192,254730,1,0,0:0:0:0:
320,192,254812,1,0,0:0:0:50:Tom1.wav
448,192,254812,1,0,0:0:0:0:
192,192,254895,1,2,0:0:0:0:
320,192,254977,1,2,0:0:0:0:
64,192,255060,128,0,255142:0:0:0:50:Tom3.wav
448,192,255060,1,0,0:0:0:0:
192,192,255142,128,0,255224:0:0:0:50:Tom3.wav
320,192,255224,128,2,255307:0:0:0:0:
448,192,255307,128,2,255389:0:0:0:0:
64,192,255389,128,8,255472:0:0:0:0:
192,192,255389,128,4,255472:0:0:0:0:
320,192,255472,128,0,255554:0:0:0:0:
448,192,255554,128,0,255637:0:0:0:0:
192,192,255637,128,0,255719:0:0:0:0:
64,192,255719,128,2,255966:0:0:0:0:
320,192,255719,1,4,0:0:0:0:
448,192,255719,128,0,255966:0:0:0:0:
64,192,256049,1,8,0:0:0:0:
192,192,256049,128,0,256214:0:0:0:30:Hat Open.wav
320,192,256049,1,0,0:0:0:0:
448,192,256214,128,0,256543:0:0:0:0:
64,192,256378,1,8,0:0:0:0:
192,192,256378,1,0,0:0:0:30:Hat Open.wav
320,192,256378,128,0,256543:0:0:0:30:Ride.wav
64,192,256543,128,2,256708:0:0:0:0:
192,192,256708,128,8,256873:0:0:0:0:
448,192,256708,1,0,0:0:0:30:Hat Open.wav
320,192,256873,128,2,257038:0:0:0:0:
192,192,257038,1,10,0:0:0:0:
448,192,257038,1,0,0:0:0:30:Hat Open.wav
64,192,257203,128,0,257285:0:0:0:0:
192,192,257367,1,8,0:0:0:0:
320,192,257367,128,0,257615:0:0:0:30:Hat Open.wav
448,192,257367,1,0,0:0:0:30:Ride.wav
64,192,257532,1,2,0:0:0:0:
192,192,257532,128,0,257615:0:0:0:0:
64,192,257697,128,8,257944:0:0:0:0:
320,192,257697,1,0,0:0:0:30:Hat Open.wav
448,192,257697,1,0,0:0:0:30:Ride.wav
192,192,257862,1,2,0:0:0:0:
320,192,257862,128,0,257944:0:0:0:0:
64,192,258027,1,8,0:0:0:0:
192,192,258027,1,0,0:0:0:30:Hat Open.wav
448,192,258027,128,0,258274:0:0:0:30:Ride.wav
320,192,258192,128,2,258274:0:0:0:0:
64,192,258356,1,2,0:0:0:0:
192,192,258356,1,8,0:0:0:0:
448,192,258356,1,4,0:0:0:0:
320,192,258521,128,0,258686:0:0:0:0:
192,192,258686,128,8,258851:0:0:0:0:
448,192,258686,1,0,0:0:0:30:Hat Open.wav
64,192,258851,128,0,259016:0:0:0:0:
192,192,259016,1,8,0:0:0:0:
448,192,259016,128,0,259263:0:0:0:30:Hat Open.wav
64,192,259181,1,2,0:0:0:0:
320,192,259181,128,0,259263:0:0:0:0:
192,192,259345,128,8,259593:0:0:0:0:
448,192,259345,1,0,0:0:0:30:Hat Open.wav
64,192,259510,1,2,0:0:0:0:
320,192,259510,128,0,259593:0:0:0:0:
64,192,259675,128,10,259922:0:0:0:0:
320,192,259675,1,0,0:0:0:30:Hat Open.wav
448,192,259675,1,0,0:0:0:30:Ride.wav
192,192,259840,128,0,259922:0:0:0:0:
320,192,259840,1,0,0:0:0:0:
64,192,260005,1,8,0:0:0:0:
192,192,260005,1,0,0:0:0:30:Hat Open.wav
448,192,260005,128,0,260252:0:0:0:30:Ride.wav
64,192,260170,128,2,260252:0:0:0:0:
320,192,260170,1,0,0:0:0:0:
192,192,260334,1,8,0:0:0:0:
320,192,260334,128,0,260582:0:0:0:30:Hat Open.wav
448,192,260334,1,0,0:0:0:30:Ride.wav
64,192,260499,1,2,0:0:0:0:
192,192,260499,128,0,260582:0:0:0:0:
64,192,260664,1,8,0:0:0:0:
320,192,260664,1,0,0:0:0:30:Hat Open.wav
448,192,260664,128,0,260911:0:0:0:30:Ride.wav
192,192,260829,1,2,0:0:0:0:
320,192,260829,128,0,260911:0:0:0:0:
64,192,260994,128,2,261159:0:0:0:0:
192,192,260994,1,8,0:0:0:0:
448,192,260994,1,4,0:0:0:0:
320,192,261159,128,0,261323:0:0:0:0:
64,192,261323,1,8,0:0:0:0:
192,192,261323,1,0,0:0:0:30:Hat Open.wav
448,192,261323,128,0,261571:0:0:0:30:Ride.wav
320,192,261488,128,0,261571:0:0:0:0:
64,192,261653,128,8,261900:0:0:0:0:
192,192,261653,1,0,0:0:0:30:Hat Open.wav
448,192,261653,1,0,0:0:0:30:Ride.wav
320,192,261818,128,2,261900:0:0:0:0:
448,192,261818,1,0,0:0:0:0:
64,192,261983,1,8,0:0:0:0:
192,192,261983,128,0,262230:0:0:0:30:Hat Open.wav
320,192,261983,1,0,0:0:0:30:Ride.wav
448,192,262148,128,2,262230:0:0:0:0:
64,192,262312,1,8,0:0:0:0:
320,192,262312,128,0,262560:0:0:0:30:Hat Open.wav
448,192,262312,1,0,0:0:0:30:Ride.wav
192,192,262477,128,2,262560:0:0:0:0:
64,192,262642,1,8,0:0:0:0:
192,192,262642,1,0,0:0:0:30:Hat Open.wav
448,192,262642,1,0,0:0:0:30:Ride.wav
64,192,262807,1,2,0:0:0:0:
448,192,262807,128,0,263219:0:0:0:0:
192,192,262972,1,8,0:0:0:0:
320,192,262972,128,0,263219:0:0:0:30:Hat Open.wav
64,192,263137,128,2,263549:0:0:0:0:
192,192,263301,128,4,263549:0:0:0:0:
320,192,263301,128,8,263549:0:0:0:0:
448,192,263301,128,0,263549:0:0:0:0:
64,192,263631,1,8,0:0:0:0:
192,192,263631,1,0,0:0:0:50:Tom3.wav
448,192,263631,1,0,0:0:0:0:
64,192,263796,1,8,0:0:0:0:
192,192,263796,1,0,0:0:0:50:Tom3.wav
448,192,263796,1,0,0:0:0:0:
64,192,263961,1,8,0:0:0:0:
320,192,263961,1,0,0:0:0:50:Tom3.wav
448,192,263961,1,0,0:0:0:0:
64,192,264126,1,8,0:0:0:0:
192,192,264126,1,0,0:0:0:50:Hat Open2.wav
320,192,264126,1,0,0:0:0:50:Tom3.wav
448,192,264126,1,0,0:0:0:0:
192,192,264455,1,2,0:0:0:0:
320,192,264455,1,0,0:0:0:0:
64,192,264620,1,8,0:0:0:0:
192,192,264620,1,0,0:0:0:50:Tom3.wav
448,192,264620,1,0,0:0:0:0:
64,192,264785,1,8,0:0:0:0:
192,192,264785,1,0,0:0:0:50:Tom3.wav
448,192,264785,1,0,0:0:0:0:
64,192,264950,1,8,0:0:0:0:
320,192,264950,1,0,0:0:0:50:Tom3.wav
448,192,264950,1,0,0:0:0:0:
64,192,265115,1,4,0:0:0:0:
192,192,265115,1,2,0:0:0:0:
320,192,265115,1,0,0:0:0:0:
448,192,265115,1,0,0:0:0:0:
192,192,265444,1,2,0:0:0:0:
320,192,265444,1,0,0:0:0:0:
64,192,265609,1,8,0:0:0:0:
192,192,265609,1,0,0:0:0:0:
448,192,265609,1,0,0:0:0:0:
320,192,265774,1,0,0:0:0:50:Tom2.wav
448,192,265774,1,0,0:0:0:0:
192,192,265939,1,0,0:0:0:50:Tom3.wav
320,192,265939,1,0,0:0:0:0:
64,192,266104,128,4,268659:0:0:0:0:
192,192,266104,128,2,268246:0:0:0:0:
320,192,266104,128,0,267587:0:0:0:0:
448,192,266104,128,0,266928:0:0:0:0:
448,192,268659,1,0,0:0:0:0:
320,192,268714,1,0,0:0:0:0:
192,192,268768,1,0,0:0:0:0:
448,192,268823,1,0,0:0:0:0:
320,192,268878,1,0,0:0:0:0:
64,192,268906,128,0,272862:0:0:0:0:
192,192,268906,128,0,271543:0:0:0:0:
