osu file format v14

[General]
AudioFilename: audio.mp3
AudioLeadIn: 0
PreviewTime: 60989
Countdown: 0
SampleSet: Soft
StackLeniency: 0.7
Mode: 0
LetterboxInBreaks: 0
WidescreenStoryboard: 0

[Editor]
Bookmarks: 35570,52815
DistanceSpacing: 0.9
BeatDivisor: 4
GridSize: 32
TimelineZoom: 1

[Metadata]
Title:Kazakiri (TV Size)
TitleUnicode:カザキリ (TV Size)
Artist:yanaginagi
ArtistUnicode:やなぎなぎ
Creator:nexusqi
Version:Willow
Source:ノルン+ノネット
Tags:norn+nonet nonette norn9 anime opening pop japanese ベストアルバム -LIBRARY- best album
BeatmapID:4508422
BeatmapSetID:2141973

[Difficulty]
HPDrainRate:6
CircleSize:4
OverallDifficulty:7
ApproachRate:8.5
SliderMultiplier:1.6
SliderTickRate:1

[Events]
//Background and Video events
0,0,"wp5_1920x1080.jpg",0,0
//Break Periods
//Storyboard Layer 0 (Background)
//Storyboard Layer 1 (Fail)
//Storyboard Layer 2 (Pass)
//Storyboard Layer 3 (Foreground)
//Storyboard Layer 4 (Overlay)
//Storyboard Sound Samples

[TimingPoints]
940,363.636363636364,4,2,1,60,1,0
12576,359.281437125748,4,2,1,65,1,0
12576,-100,4,2,1,65,0,0
18324,-111.111111111111,4,2,1,50,0,0
24073,-105.263157894737,4,2,1,60,0,0
35570,-100,4,2,1,65,0,0
55689,-95.2380952380952,4,2,1,75,0,0
61438,-95.2380952380952,4,2,1,75,0,0
71498,-86.9565217391304,4,2,1,75,0,0
72935,-95.2380952380952,4,2,1,75,0,0
81558,-100,4,2,1,70,0,0
84432,-111.111111111111,4,2,1,70,0,0

[Colours]
Combo1 : 149,221,255
Combo2 : 213,170,255
Combo3 : 166,166,255

[HitObjects]
256,192,9667,12,0,11849,0:0:0:0:
390,340,12212,5,2,0:0:0:0:
390,340,12303,1,2,0:0:0:0:
390,340,12394,1,2,0:0:0:0:
390,340,12485,1,2,0:0:0:0:
390,340,12576,2,0,P|368:265|380:216,1,120,4|0,1:0|0:0,0:0:0:0:
384,219,12935,2,0,L|473:208,1,80,0|0,1:0|0:0,0:0:0:0:
278,340,13294,2,0,B|234:332|234:332|171:349|171:349|112:338,1,160,2|0,1:2|1:0,0:0:0:0:
44,272,13833,6,0,P|78:251|144:249,1,80,8|0,0:0|1:0,0:0:0:0:
241,75,14192,2,0,P|234:134|269:203,1,120,2|0,0:0|0:0,0:0:0:0:
268,204,14552,2,0,P|309:194|347:182,1,80,2|0,0:0|1:0,0:0:0:0:
264,321,14911,2,0,P|223:332|185:343,1,80,2|0,0:0|1:0,0:0:0:0:
420,384,15270,1,4,0:3:0:0:
420,384,15360,1,4,0:3:0:0:
420,384,15450,1,4,1:2:0:0:
463,119,15809,6,0,P|424:113|363:97,1,80,0|0,1:0|0:0,0:0:0:0:
385,103,16078,1,0,0:0:0:0:
385,103,16168,1,2,1:2:0:0:
447,9,16348,1,0,0:0:0:0:
447,9,16528,1,0,1:0:0:0:
293,188,16707,2,0,P|279:138|274:100,1,80,12|0,0:2|1:0,0:0:0:0:
61,241,17067,5,0,0:0:0:0:
197,162,17246,1,0,1:0:0:0:
169,278,17426,1,8,0:0:0:0:
169,278,17516,1,8,0:0:0:0:
169,278,17605,1,0,1:0:0:0:
90,134,17785,1,8,0:0:0:0:
240,77,17965,2,0,P|281:80|320:93,1,80,8|4,0:3|0:3,0:0:0:0:
472,245,18324,6,0,P|405:256|333:195,1,143.999995605469,4|0,1:2|1:0,0:0:0:0:
262,167,18863,1,0,0:0:0:0:
252,256,19043,2,0,P|248:291|243:327,1,71.9999978027344,0|0,1:0|0:0,0:0:0:0:
342,324,19402,1,0,1:0:0:0:
156,384,19581,1,2,0:2:0:0:
156,384,19671,1,0,0:2:0:0:
156,384,19761,2,0,B|126:327|131:285|131:285|111:265|110:237,1,143.999995605469,0|0,1:0|1:0,0:0:0:0:
42,144,20300,2,0,P|12:204|31:282,1,143.999995605469
190,330,20839,2,0,P|205:281|204:249,1,71.9999978027344,0|2,1:0|0:0,0:0:0:0:
138,185,21198,5,0,1:0:0:0:
121,272,21378,1,0,0:0:0:0:
190,330,21558,1,0,1:0:0:0:
275,340,21737,2,0,P|343:345|416:302,1,143.999995605469
512,336,22276,5,0,1:0:0:0:
512,207,22456,1,2,0:2:0:0:
512,207,22546,1,0,0:2:0:0:
512,207,22635,2,0,P|471:215|433:221,1,71.9999978027344,0|0,1:0|0:0,0:0:0:0:
350,272,22995,1,0,1:0:0:0:
383,135,23174,2,0,P|388:33|363:-6,1,143.999995605469,2|0,0:0|0:0,0:0:0:0:
225,53,23713,2,0,P|264:58|314:63,1,71.9999978027344,2|0,1:2|0:0,0:0:0:0:
222,212,24073,6,0,P|169:234|91:224,1,113.999996955872,0|0,1:0|0:0,0:0:0:0:
97,229,24432,2,0,L|79:149,1,75.9999979705811,0|0,1:0|0:0,0:0:0:0:
215,110,24791,1,2,1:2:0:0:
102,74,24971,1,0,0:0:0:0:
191,0,25150,1,0,1:0:0:0:
215,110,25510,5,2,1:2:0:0:
302,35,25690,1,0,0:0:0:0:
325,144,25869,1,0,1:0:0:0:
215,110,26228,5,2,1:2:0:0:
245,226,26408,1,0,0:0:0:0:
125,197,26587,2,0,P|83:186|42:183,1,75.9999979705811,2|8,1:2|0:0,0:0:0:0:
4,333,26947,6,0,B|63:328|108:355|108:355|135:351|163:352,1,151.999995941162,4|0,1:2|1:0,0:0:0:0:
237,382,27486,1,0,0:0:0:0:
304,254,27665,2,0,P|311:291|325:358,1,75.9999979705811,0|0,1:0|0:0,0:0:0:0:
189,158,28025,2,0,P|196:195|210:262,1,75.9999979705811,0|2,1:0|0:0,0:0:0:0:
422,282,28384,2,0,P|452:198|432:134,1,151.999995941162,0|0,1:0|1:0,0:0:0:0:
283,163,28923,2,0,P|321:175|370:183,1,75.9999979705811,2|0,0:0|1:0,0:0:0:0:
312,9,29282,2,0,P|320:53|337:105,1,75.9999979705811,2|0,0:0|1:0,0:0:0:0:
224,234,29641,5,2,0:0:0:0:
224,234,29731,1,0,0:0:0:0:
224,234,29821,2,0,P|200:281|218:350,1,113.999996955872,0|0,1:0|0:0,0:0:0:0:
217,351,30180,2,0,P|179:357|135:364,1,75.9999979705811,0|0,1:0|0:0,0:0:0:0:
1,201,30540,1,0,1:0:0:0:
160,281,30719,1,0,0:0:0:0:
51,324,30899,1,0,1:0:0:0:
106,153,31078,5,2,0:0:0:0:
106,153,31168,1,0,0:0:0:0:
106,153,31258,2,0,P|95:193|93:245,1,75.9999979705811,0|0,1:0|0:0,0:0:0:0:
170,363,31617,1,0,1:0:0:0:
321,274,31797,2,0,P|255:229|158:239,1,151.999995941162,2|0,0:0|0:0,0:0:0:0:
38,177,32336,2,0,P|78:172|122:160,1,75.9999979705811,0|12,1:2|0:0,0:0:0:0:
295,162,32695,2,0,B|301:107|268:63|268:63|272:34|261:14,1,151.999995941162,2|0,1:2|1:0,0:0:0:0:
207,128,33234,1,2,0:0:0:0:
207,128,33324,1,0,0:0:0:0:
207,128,33414,2,0,P|163:137|121:145,1,75.9999979705811,0|0,1:0|0:0,0:0:0:0:
262,17,33773,2,0,P|306:24|354:30,1,75.9999979705811,0|0,1:0|0:0,0:0:0:0:
481,231,34132,6,0,P|504:170|484:115,1,113.999996955872,2|0,1:2|0:0,0:0:0:0:
474,121,34492,2,0,P|436:128|398:133,1,75.9999979705811,0|0,1:0|0:0,0:0:0:0:
266,206,34851,1,0,1:0:0:0:
387,320,35031,1,12,0:2:0:0:
203,384,35210,5,2,0:2:0:0:
189,370,35299,1,2,0:2:0:0:
179,354,35389,1,10,0:2:0:0:
172,336,35479,1,10,0:2:0:0:
168,318,35570,2,0,P|172:267|180:239,1,80,4|0,1:2|1:0,0:0:0:0:
87,74,35929,2,0,P|101:145|69:208,1,120,8|0,0:0|0:0,0:0:0:0:
87,204,36288,2,0,P|42:195|3:188,1,80,0|0,1:0|1:0,0:0:0:0:
75,319,36647,1,8,0:0:0:0:
257,284,36827,6,0,B|319:271|319:271|363:280|363:280|426:270,1,160,2|0,1:2|1:0,0:0:0:0:
283,381,37366,2,0,P|239:377|184:362,1,80,8|0,0:0|0:0,0:0:0:0:
158,181,37725,1,0,1:0:0:0:
230,274,37905,1,0,1:0:0:0:
83,241,38084,2,0,P|68:200|58:150,1,80,10|0,0:2|0:0,0:0:0:0:
189,7,38444,2,0,P|214:47|217:153,1,120,2|0,1:2|0:0,0:0:0:0:
228,131,38803,2,0,P|180:140|140:150,1,80,8|0,0:0|0:0,0:0:0:0:
292,250,39162,2,0,P|340:259|380:269,1,80,0|0,1:0|1:0,0:0:0:0:
503,175,39522,1,8,0:0:0:0:
440,346,39701,6,0,P|454:262|406:187,1,160,2|0,1:2|1:0,0:0:0:0:
306,59,40240,2,0,P|315:95|327:141,1,80,10|0,0:2|0:0,0:0:0:0:
275,346,40599,1,2,1:2:0:0:
183,264,40779,1,0,1:0:0:0:
277,241,40959,1,10,0:2:0:0:
183,374,41138,1,0,0:0:0:0:
76,305,41318,6,0,P|62:259|61:204,1,80,2|0,1:2|1:0,0:0:0:0:
142,61,41677,2,0,P|156:107|157:162,1,80,8|0,0:0|0:0,0:0:0:0:
204,245,42037,1,0,1:0:0:0:
77,153,42216,1,0,1:0:0:0:
233,70,42396,1,8,0:0:0:0:
319,171,42575,6,0,B|346:224|340:274|340:274|355:306|353:336,1,160,2|0,1:2|1:0,0:0:0:0:
261,384,43114,2,0,P|251:343|242:306,1,80,8|0,0:0|0:0,0:0:0:0:
426,226,43474,2,0,P|440:170|395:72,1,160,2|8,1:2|0:0,0:0:0:0:
232,24,44013,1,0,0:0:0:0:
232,24,44102,1,0,0:0:0:0:
232,24,44192,2,0,P|186:34|139:41,1,80,2|0,1:2|0:0,0:0:0:0:
324,199,44552,5,0,1:0:0:0:
170,141,44731,1,10,0:2:0:0:
275,103,44911,1,0,1:0:0:0:
275,103,45001,1,8,0:0:0:0:
275,103,45090,1,0,1:0:0:0:
218,229,45270,1,8,0:0:0:0:
382,134,45450,2,0,P|420:193|398:292,1,160,4|0,1:2|1:0,0:0:0:0:
229,375,45989,6,0,P|176:368|96:357,1,120,8|8,0:0|0:0,0:0:0:0:
95,350,46348,2,0,P|84:307|73:262,1,80,2|0,1:2|1:0,0:0:0:0:
144,117,46707,2,0,P|155:160|166:205,1,80,8|0,0:0|0:0,0:0:0:0:
245,338,47067,5,4,1:2:0:0:
279,182,47246,1,0,1:0:0:0:
442,255,47426,2,0,P|386:282|327:278,1,120,8|8,0:0|0:0,0:0:0:0:
315,263,47785,2,0,P|305:222|296:180,1,80,0|0,1:0|1:0,0:0:0:0:
364,40,48144,2,0,P|374:81|383:123,1,80,0|10,0:0|0:2,0:0:0:0:
224,224,48504,5,0,0:0:0:0:
231,48,48683,1,0,1:0:0:0:
381,117,48863,1,8,0:0:0:0:
291,149,49043,1,8,0:0:0:0:
291,149,49132,1,8,0:0:0:0:
291,149,49222,2,0,L|196:134,1,80,2|0,1:2|1:0,0:0:0:0:
393,293,49581,2,0,P|353:288|298:278,1,80,8|0,0:2|0:0,0:0:0:0:
127,290,49941,5,2,1:2:0:0:
216,235,50120,1,0,1:0:0:0:
102,184,50300,1,8,0:0:0:0:
34,320,50480,1,8,0:0:0:0:
34,320,50570,1,8,0:0:0:0:
34,320,50659,1,0,1:0:0:0:
148,384,50839,2,0,P|148:352|135:295,1,80,2|0,1:2|0:0,0:0:0:0:
44,77,51198,6,0,P|8:144|26:243,1,160,10|0,0:2|1:0,0:0:0:0:
197,133,51737,2,0,P|160:137|106:148,1,80,8|0,0:0|0:0,0:0:0:0:
117,145,52007,1,8,0:0:0:0:
117,145,52096,1,0,1:0:0:0:
244,319,52276,1,0,1:0:0:0:
297,153,52456,1,12,0:0:0:0:
188,209,52635,1,0,0:0:0:0:
351,257,52815,2,0,P|414:267|497:208,1,160,4|0,1:0|1:0,0:0:0:0:
413,81,53354,6,0,L|394:188,1,80,2|0,0:0|1:0,0:0:0:0:
274,206,53713,2,0,P|266:246|255:292,1,80,0|0,0:0|1:0,0:0:0:0:
411,288,54073,2,0,L|417:248,2,40,2|0|0,0:0|0:0|1:0,0:0:0:0:
301,115,54432,2,0,P|261:121|196:128,1,80,0|0,0:0|1:0,0:0:0:0:
100,283,54791,1,4,0:3:0:0:
100,283,54881,1,4,0:3:0:0:
100,283,54971,2,0,B|141:271|189:277|189:277|226:251,1,120,2|0,1:3|0:0,0:0:0:0:
279,317,55330,2,0,P|294:253|264:196,1,120,2|0,1:3|0:0,0:0:0:0:
221,125,55689,6,0,B|292:122|334:146|334:146|365:141|399:146,1,167.999994873047,4|2,1:2|1:3,0:0:0:0:
412,331,56228,1,0,0:0:0:0:
341,239,56408,2,0,P|330:276|328:352,1,83.9999974365235,2|0,1:3|0:0,0:0:0:0:
497,384,56767,2,0,P|508:347|510:271,1,83.9999974365235,2|0,1:3|0:0,0:0:0:0:
473,130,57126,6,0,P|436:135|368:143,1,83.9999974365235,12|0,0:2|1:0,0:0:0:0:
263,225,57486,1,0,1:0:0:0:
294,53,57665,2,0,P|341:47|397:41,1,83.9999974365235,12|0,0:2|1:0,0:0:0:0:
179,163,58025,1,0,1:0:0:0:
109,77,58204,5,12,0:2:0:0:
268,130,58384,1,0,0:0:0:0:
137,256,58564,1,2,1:3:0:0:
137,256,58923,1,2,1:3:0:0:
214,382,59102,5,8,0:0:0:0:
214,382,59192,1,8,0:0:0:0:
214,382,59282,1,8,0:0:0:0:
35,344,59462,1,8,0:0:0:0:
231,266,59641,1,8,0:0:0:0:
79,172,59821,1,4,1:2:0:0:
4,244,61078,5,0,3:0:0:0:
4,233,61168,1,0,3:0:0:0:
3,223,61258,1,0,3:0:0:0:
3,213,61348,1,0,3:0:0:0:
2,203,61438,2,0,B|53:184|115:199|115:199|135:187|168:182,1,167.999994873047,4|8,1:0|0:0,0:0:0:0:
267,384,61977,1,2,0:0:0:0:
140,371,62156,2,0,P|128:324|130:279,1,83.9999974365235,0|0,1:0|1:0,0:0:0:0:
355,230,62516,2,0,P|394:301|372:399,1,167.999994873047,10|0,0:2|1:0,0:0:0:0:
246,260,63055,2,0,P|255:215|265:155,1,83.9999974365235,2|8,1:2|0:0,0:0:0:0:
512,153,63414,5,0,0:0:0:0:
393,239,63593,1,0,1:0:0:0:
306,113,63773,1,2,1:2:0:0:
387,53,63953,2,0,P|395:96|404:140,1,83.9999974365235,8|0,0:0|0:0,0:0:0:0:
218,14,64312,6,0,P|226:55|233:96,1,83.9999974365235,2|0,1:2|1:0,0:0:0:0:
221,218,64671,1,8,0:0:0:0:
41,266,64851,2,0,P|-8:172|14:83,1,167.999994873047,2|0,0:2|1:0,0:0:0:0:
163,125,65390,2,0,P|126:137|69:151,1,83.9999974365235,10|0,0:2|0:0,0:0:0:0:
82,148,65659,1,0,0:0:0:0:
82,148,65749,1,0,1:0:0:0:
205,314,65929,2,0,P|246:301|302:286,1,83.9999974365235,2|8,1:2|0:0,0:0:0:0:
362,173,66288,1,0,0:0:0:0:
263,112,66468,6,0,P|250:171|252:218,1,83.9999974365235,2|0,1:2|1:0,0:0:0:0:
0,255,66827,1,8,0:0:0:0:
24,384,67007,1,0,0:0:0:0:
123,295,67186,2,0,P|146:207|102:123,1,167.999994873047,4|8,1:2|0:0,0:0:0:0:
254,0,67725,2,0,P|233:90|275:172,1,167.999994873047,2|0,0:0|1:0,0:0:0:0:
240,282,68264,1,8,0:0:0:0:
416,252,68444,6,0,P|373:243|319:235,1,83.9999974365235,2|0,0:0|1:0,0:0:0:0:
273,80,68803,2,0,P|316:89|370:97,1,83.9999974365235,0|8,1:0|0:0,0:0:0:0:
165,175,69162,2,0,B|110:165|110:165|45:176|45:176|-22:164,1,167.999994873047,2|0,0:0|1:0,0:0:0:0:
134,286,69701,2,0,P|202:294|261:258,1,125.999996154785,10|0,0:0|0:0,0:0:0:0:
267,275,70061,2,0,L|245:176,1,83.9999974365235,2|0,1:2|1:0,0:0:0:0:
329,12,70420,2,0,L|347:93,1,83.9999974365235,8|0,0:0|0:0,0:0:0:0:
368,295,70779,1,2,1:2:0:0:
464,207,70959,1,0,1:0:0:0:
347,176,71138,1,8,0:0:0:0:
475,318,71318,1,0,0:0:0:0:
308,366,71498,6,0,P|251:372|191:355,1,92.0000017547608,2|0,1:2|1:0,0:0:0:0:
205,369,71767,2,0,L|194:316,1,46.0000008773804,2|8,0:2|0:0,0:0:0:0:
3,209,72037,2,0,L|15:269,1,46.0000008773804,0|0,1:0|0:0,0:0:0:0:
116,384,72216,2,0,L|96:273,1,92.0000017547608,2|0,1:1|0:0,0:0:0:0:
102,285,72486,1,10,0:1:0:0:
103,278,72575,2,0,L|92:218,1,46.0000008773804,8|8,0:0|0:0,0:0:0:0:
160,83,72755,2,0,L|172:140,1,46.0000008773804,10|8,0:1|0:0,0:0:0:0:
324,247,72935,6,0,B|352:187|343:135|343:135|358:109|359:83,1,167.999994873047,4|8,1:0|0:0,0:0:0:0:
225,0,73474,2,0,P|238:41|253:94,1,83.9999974365235,2|0,0:0|1:0,0:0:0:0:
186,229,73833,1,0,1:0:0:0:
64,106,74013,2,0,P|112:92|157:83,1,83.9999974365235,10|0,0:2|0:0,0:0:0:0:
145,84,74282,1,0,0:0:0:0:
145,84,74372,1,0,1:0:0:0:
321,134,74552,1,0,1:2:0:0:
271,312,74731,6,0,P|147:345|109:325,1,167.999994873047,10|0,0:0|1:0,0:0:0:0:
91,249,75270,1,0,1:2:0:0:
257,203,75450,2,0,P|307:208|347:225,1,83.9999974365235,10|0,0:0|0:0,0:0:0:0:
465,370,75809,6,0,P|448:325|444:288,1,83.9999974365235,2|0,1:2|1:0,0:0:0:0:
444,289,76078,1,2,0:0:0:0:
444,289,76168,1,8,0:0:0:0:
327,136,76348,1,2,0:2:0:0:
288,311,76528,1,0,1:0:0:0:
503,200,76707,2,0,P|417:192|342:246,1,167.999994873047,8|8,0:0|0:0,0:0:0:0:
242,384,77246,5,2,1:2:0:0:
103,239,77426,1,0,1:0:0:0:
103,239,77516,1,2,0:2:0:0:
103,239,77605,1,8,0:0:0:0:
205,175,77785,1,2,0:0:0:0:
105,338,77965,2,0,P|149:328|199:313,1,83.9999974365235,0|0,1:0|1:0,0:0:0:0:
412,177,78324,2,0,P|368:187|318:202,1,83.9999974365235,8|8,0:0|0:0,0:0:0:0:
330,197,78593,5,8,0:0:0:0:
330,196,78683,1,4,1:0:0:0:
404,49,78863,1,0,1:0:0:0:
253,0,79043,1,8,0:0:0:0:
292,123,79222,1,0,0:0:0:0:
114,103,79402,1,0,1:0:0:0:
232,206,79581,1,0,1:0:0:0:
160,349,79761,6,0,B|108:338|108:338|61:378|-7:354,1,167.999994873047,10|0,0:0|1:0,0:0:0:0:
37,166,80300,2,0,P|43:192|70:266,1,83.9999974365235,2|8,1:2|0:0,0:0:0:0:
278,152,80659,1,0,0:0:0:0:
157,76,80839,1,2,1:2:0:0:
142,211,81019,1,0,1:0:0:0:
323,332,81198,5,8,0:0:0:0:
359,341,81288,1,8,0:0:0:0:
396,341,81378,1,8,0:0:0:0:
431,328,81468,1,8,0:0:0:0:
459,303,81558,2,0,P|480:252|457:147,1,160,4|0,1:2|1:0,0:0:0:0:
335,234,82096,1,0,1:0:0:0:
363,102,82276,1,12,0:0:0:0:
135,130,82456,2,0,P|206:166|285:157,1,160,0|8,1:0|0:0,0:0:0:0:
241,0,82995,6,0,P|236:42|224:103,1,80,2|0,1:2|1:0,0:0:0:0:
279,263,83354,1,8,0:0:0:0:
132,213,83534,1,0,1:0:0:0:
132,213,83623,1,8,0:0:0:0:
132,213,83713,2,0,P|88:219|28:226,1,80,4|0,1:2|1:0,0:0:0:0:
61,369,84073,5,8,0:0:0:0:
93,383,84162,1,8,0:0:0:0:
129,382,84252,1,8,0:0:0:0:
163,371,84342,1,8,0:0:0:0:
188,345,84432,2,0,P|198:304|199:255,1,71.9999978027344,4|0,1:2|1:0,0:0:0:0:
138,185,84791,1,0,0:0:0:0:
40,289,84971,1,10,0:0:0:0:
40,289,85330,2,0,P|76:289|122:278,1,71.9999978027344,8|0,0:0|1:0,0:0:0:0:
283,334,85689,2,0,P|307:272|300:214,1,107.999996704102,2|0,0:0|0:0,0:0:0:0:
295,223,86049,2,0,L|204:206,1,71.9999978027344,8|0,0:0|0:0,0:0:0:0:
383,251,86408,5,10,0:2:0:0:
305,115,86587,1,0,1:0:0:0:
448,48,86767,1,0,1:0:0:0:
407,161,86947,1,8,0:0:0:0:
343,12,87126,1,2,0:0:0:0:
512,119,87306,1,4,1:2:0:0:
