osu file format v14

[General]
AudioFilename: audio.mp3
AudioLeadIn: 0
PreviewTime: 60989
Countdown: 0
SampleSet: Soft
StackLeniency: 0.7
Mode: 0
LetterboxInBreaks: 0
WidescreenStoryboard: 1

[Editor]
DistanceSpacing: 1
BeatDivisor: 4
GridSize: 32
TimelineZoom: 1

[Metadata]
Title:Kazakiri (TV Size)
TitleUnicode:カザキリ (TV Size)
Artist:yanaginagi
ArtistUnicode:やなぎなぎ
Creator:nexusqi
Version:Hard
Source:ノルン+ノネット
Tags:norn+nonet nonette norn9 anime opening pop japanese ベストアルバム -LIBRARY- best album
BeatmapID:4508420
BeatmapSetID:2141973

[Difficulty]
HPDrainRate:5
CircleSize:4
OverallDifficulty:6.5
ApproachRate:8
SliderMultiplier:1.5
SliderTickRate:1

[Events]
//Background and Video events
0,0,"wp5_1920x1080.jpg",0,0
//Break Periods
//Storyboard Layer 0 (Background)
//Storyboard Layer 1 (Fail)
//Storyboard Layer 2 (Pass)
//Storyboard Layer 3 (Foreground)
//Storyboard Layer 4 (Overlay)
//Storyboard Sound Samples

[TimingPoints]
940,363.636363636364,4,2,1,60,1,0
12576,359.281437125748,4,2,1,65,1,0
12576,-111.111111111111,4,2,1,65,0,0
18324,-125,4,2,1,50,0,0
24073,-125,4,2,1,60,0,0
35570,-111.111111111111,4,2,1,65,0,0
55689,-111.111111111111,4,2,1,75,0,0
61438,-100,4,2,1,75,0,0
81558,-111.111111111111,4,2,1,70,0,0

[Colours]
Combo1 : 149,221,255
Combo2 : 213,170,255
Combo3 : 166,166,255

[HitObjects]
394,275,12576,5,4,1:0:0:0:
394,275,12935,2,0,B|435:297|484:284|484:284|524:307,2,134.999995880127,0|2|0,1:0|1:2|1:0,0:0:0:0:
407,366,13833,2,0,B|372:367|337:341|337:341,1,67.4999979400635,8|0,0:0|1:0,0:0:0:0:
269,362,14192,2,0,B|245:324|247:292|247:292,1,67.4999979400635,2|0,0:0|1:0,0:0:0:0:
169,276,14552,2,0,B|166:230|180:207|180:207,1,67.4999979400635,2|0,0:0|1:0,0:0:0:0:
205,135,14911,2,0,B|247:70|223:4|223:4,1,134.999995880127,2|4,0:0|0:3,0:0:0:0:
223,5,15360,1,4,0:3:0:0:
223,5,15450,1,4,1:2:0:0:
301,144,15809,6,0,B|266:202|293:278|293:278,1,134.999995880127,0|2,1:0|1:2,0:0:0:0:
337,340,16348,1,0,0:0:0:0:
417,364,16528,1,0,1:0:0:0:
494,338,16707,2,0,B|516:297|506:261|506:261,1,67.4999979400635,12|0,0:2|1:0,0:0:0:0:
482,199,17067,2,0,B|460:161|467:127|467:127,1,67.4999979400635,0|0,0:0|1:0,0:0:0:0:
499,55,17426,5,8,0:0:0:0:
499,55,17516,1,8,0:0:0:0:
499,55,17605,1,0,1:0:0:0:
407,27,17785,1,8,0:0:0:0:
384,111,17965,2,0,B|346:109|313:95|313:95,1,67.4999979400635,8|4,0:3|0:3,0:0:0:0:
252,39,18324,6,0,B|198:80|217:154|217:154,1,120,4|0,1:2|1:0,0:0:0:0:
284,275,19043,1,0,1:0:0:0:
284,275,19402,1,0,1:0:0:0:
202,295,19581,2,0,B|155:334|81:318|81:318,1,120,2|0,0:0|0:0,0:0:0:0:
30,257,20120,2,0,B|81:223|149:240|149:240,1,120,0|0,1:0|1:0,0:0:0:0:
246,336,20839,1,0,1:0:0:0:
325,327,21019,2,0,B|382:347|446:301|446:301,1,120,2|0,0:0|0:0,0:0:0:0:
479,237,21558,1,0,1:0:0:0:
479,237,21737,2,0,B|490:163|449:110|449:110,1,120
475,46,22276,5,0,1:0:0:0:
412,0,22456,2,0,B|342:-6|286:35|286:35,1,120,2|0,0:0|0:0,0:0:0:0:
270,103,22995,1,0,1:0:0:0:
269,184,23174,2,0,B|268:248|327:293|327:293,1,120,2|0,0:0|0:0,0:0:0:0:
379,351,23713,1,2,1:2:0:0:
212,329,24073,2,0,B|159:370|84:349|84:349,1,120,0|0,1:0|1:0,0:0:0:0:
34,248,24791,5,2,1:2:0:0:
0,180,24971,1,0,0:0:0:0:
41,118,25150,1,0,1:0:0:0:
164,165,25510,5,2,1:2:0:0:
198,233,25690,1,0,0:0:0:0:
157,295,25869,1,0,1:0:0:0:
299,361,26228,5,2,1:2:0:0:
373,367,26408,1,0,0:0:0:0:
423,308,26587,2,0,B|438:275|432:241|432:241,1,60,2|8,1:2|0:0,0:0:0:0:
464,172,26947,2,0,B|390:160|357:212|357:212,1,120,4|0,1:2|1:0,0:0:0:0:
322,348,27665,2,0,B|396:360|429:308|429:308,1,120,0|0,1:0|1:0,0:0:0:0:
500,357,28204,6,0,B|531:296|477:231|477:231,1,120,2|0,0:0|0:0,0:0:0:0:
420,197,28743,1,0,1:0:0:0:
493,103,29102,1,0,1:0:0:0:
395,26,29462,1,0,1:0:0:0:
319,48,29641,2,0,B|266:83|196:61|196:61,1,120,2|0,0:0|0:0,0:0:0:0:
137,107,30180,1,0,1:0:0:0:
167,178,30360,1,0,0:0:0:0:
233,219,30540,2,0,B|259:232|294:228|294:228,1,60,0|0,1:0|0:0,0:0:0:0:
241,300,30899,2,0,B|209:304|174:287|174:287,1,60,0|2,1:0|0:0,0:0:0:0:
115,352,31258,6,0,B|76:297|106:236|106:236,1,120,0|0,1:0|1:0,0:0:0:0:
27,211,31797,2,0,B|1:142|30:93|30:93,1,120,2|0,0:0|0:0,0:0:0:0:
81,33,32336,1,0,1:2:0:0:
157,3,32516,1,12,0:0:0:0:
235,31,32695,2,0,B|274:80|258:151|258:151,1,120,2|0,1:2|1:0,0:0:0:0:
195,216,33234,2,0,B|259:249|310:219|310:219,1,120,2|0,0:0|0:0,0:0:0:0:
364,150,33773,5,0,1:0:0:0:
364,150,34132,2,0,B|424:167|482:131|482:131,1,120,2|0,1:2|1:0,0:0:0:0:
512,203,34671,2,0,B|492:229|461:233|461:233,1,60,2|0,0:0|1:0,0:0:0:0:
443,315,35031,1,12,0:2:0:0:
370,311,35210,2,0,B|338:310|309:294|309:294,1,60,0|8,0:0|0:0,0:0:0:0:
312,295,35480,5,8,0:0:0:0:
312,295,35570,2,0,B|253:331|174:307|174:307,2,134.999995880127,4|8|0,1:2|0:0|1:0,0:0:0:0:
339,209,36468,1,0,1:0:0:0:
297,132,36647,1,8,0:0:0:0:
297,132,36827,2,0,B|351:95|429:107|429:107,1,134.999995880127,2|0,1:2|1:0,0:0:0:0:
512,118,37366,1,8,0:0:0:0:
511,30,37546,2,0,B|462:9|416:20|416:20|374:5,1,134.999995880127,0|0,0:0|1:0,0:0:0:0:
302,38,38084,2,0,L|227:59,1,67.4999979400635,10|0,0:2|0:0,0:0:0:0:
225,145,38444,6,0,B|195:201|228:284|228:284,1,134.999995880127,2|8,1:2|0:0,0:0:0:0:
219,367,38983,1,0,0:0:0:0:
138,384,39162,2,0,B|94:385|60:366|60:366,1,67.4999979400635,0|0,1:0|1:0,0:0:0:0:
9,318,39522,1,8,0:0:0:0:
0,234,39701,2,0,B|-27:164|12:100|12:100,1,134.999995880127,2|0,1:2|1:0,0:0:0:0:
76,51,40240,1,10,0:2:0:0:
158,204,40599,6,0,B|195:227|222:219|222:219,1,67.4999979400635,2|0,1:2|1:0,0:0:0:0:
238,301,40959,2,0,B|265:309|299:272|299:272,1,67.4999979400635,10|0,0:2|0:0,0:0:0:0:
324,190,41318,2,0,B|328:130|306:99|306:99|315:52,2,134.999995880127,2|8|0,1:2|0:0|1:0,0:0:0:0:
377,264,42216,1,0,1:0:0:0:
462,233,42396,1,8,0:0:0:0:
462,233,42575,2,0,B|457:287|479:321|479:321|469:368,1,134.999995880127,2|0,1:2|1:0,0:0:0:0:
390,381,43114,2,0,L|313:366,1,67.4999979400635,8|0,0:0|0:0,0:0:0:0:
242,380,43474,2,0,B|203:314|240:248|240:248,1,134.999995880127,2|8,1:2|0:0,0:0:0:0:
312,101,44192,6,0,B|244:114|182:66|182:66,1,134.999995880127,2|0,1:2|1:0,0:0:0:0:
113,27,44731,2,0,B|76:21|47:45|47:45,1,67.4999979400635,10|0,0:2|1:0,0:0:0:0:
49,43,45001,1,8,0:0:0:0:
49,43,45090,1,0,1:0:0:0:
11,124,45270,1,8,0:0:0:0:
0,208,45450,2,0,B|-24:285|25:339|25:339,1,134.999995880127,4|0,1:2|1:0,0:0:0:0:
107,355,45989,2,0,B|128:286|82:241|82:241,1,101.249996910095,8|8,0:0|0:0,0:0:0:0:
90,247,46348,2,0,L|121:166,1,67.4999979400635,2|0,1:2|1:0,0:0:0:0:
181,253,46707,2,0,L|251:221,1,67.4999979400635,8|0,0:0|0:0,0:0:0:0:
258,326,47067,6,0,B|333:357|390:296|390:296,1,134.999995880127,4|8,1:2|0:0,0:0:0:0:
467,341,47605,1,8,0:0:0:0:
467,341,47695,1,8,0:0:0:0:
467,341,47785,2,0,B|477:283|453:248|453:248|471:213,1,134.999995880127,0|0,1:0|0:0,0:0:0:0:
393,175,48324,2,0,B|316:190|263:146|263:146,1,134.999995880127,10|0,0:2|1:0,0:0:0:0:
205,207,48863,2,0,B|151:216|108:187|108:187,1,101.249996910095,8|8,0:0|0:0,0:0:0:0:
94,175,49222,2,0,L|42:107,1,67.4999979400635,2|0,1:2|1:0,0:0:0:0:
147,94,49581,2,0,L|150:19,1,67.4999979400635,8|0,0:2|0:0,0:0:0:0:
237,57,49941,6,0,B|306:72|366:30|366:30,1,134.999995880127,2|8,1:2|0:0,0:0:0:0:
443,0,50480,2,0,B|474:25|483:60|483:60,1,67.4999979400635,0|0,0:0|1:0,0:0:0:0:
498,140,50839,2,0,B|495:175|462:198|462:198,1,67.4999979400635,2|0,1:2|0:0,0:0:0:0:
380,245,51198,2,0,B|326:264|281:238|281:238|260:192,1,134.999995880127,10|0,0:2|1:0,0:0:0:0:
229,115,51737,2,0,B|171:139|175:196|175:196,1,101.249996910095,8|8,0:0|0:0,0:0:0:0:
167,205,52096,2,0,L|180:275,1,67.4999979400635,0|0,1:0|1:0,0:0:0:0:
201,363,52456,5,12,0:0:0:0:
201,363,52815,2,0,B|274:403|335:338|335:338,1,134.999995880127,4|0,1:0|1:0,0:0:0:0:
389,287,53354,2,0,B|409:240|400:211|400:211,1,67.4999979400635,2|0,0:0|1:0,0:0:0:0:
318,217,53713,2,0,B|313:179|292:146|292:146,1,67.4999979400635,0|0,0:0|1:0,0:0:0:0:
226,222,54073,2,0,B|249:311|200:360|200:360,1,134.999995880127,2|0,0:0|0:0,0:0:0:0:
129,384,54611,1,0,1:0:0:0:
44,379,54791,2,0,B|13:285|61:240|61:240,1,134.999995880127,2|0,0:0|0:0,0:0:0:0:
86,171,55330,2,0,B|96:127|61:85|61:85,1,67.4999979400635,2|0,1:3|0:0,0:0:0:0:
21,35,55689,6,0,L|97:14,1,67.4999979400635,4|0,1:2|0:0,0:0:0:0:
145,73,56049,2,0,L|224:48,1,67.4999979400635,2|0,1:3|0:0,0:0:0:0:
112,173,56408,2,0,L|185:151,1,67.4999979400635,2|0,1:3|0:0,0:0:0:0:
196,239,56767,2,0,L|268:217,1,67.4999979400635,2|0,1:3|0:0,0:0:0:0:
311,309,57126,6,0,B|340:336|380:331|380:331,1,67.4999979400635,12|0,0:2|1:0,0:0:0:0:
460,347,57486,1,0,1:0:0:0:
512,273,57665,2,0,B|544:209|498:131|498:131,1,134.999995880127,12|0,0:2|1:0,0:0:0:0:
415,101,58204,2,0,B|411:138|429:177|429:177,1,67.4999979400635,12|0,0:2|0:0,0:0:0:0:
336,236,58564,6,0,B|289:259|239:241|239:241|191:269,1,134.999995880127,2|2,1:3|1:3,0:0:0:0:
142,323,59102,1,8,0:0:0:0:
142,323,59192,1,8,0:0:0:0:
142,323,59282,2,0,B|91:325|73:305|73:305,1,67.4999979400635,8|8,0:0|0:0,0:0:0:0:
28,229,59641,1,8,0:0:0:0:
57,146,59821,1,4,1:2:0:0:
123,348,61258,5,0,0:0:0:0:
201,346,61438,2,0,B|240:351|284:336|284:336,1,75,4|0,1:0|1:0,0:0:0:0:
347,273,61797,1,8,0:0:0:0:
298,196,61977,2,0,B|204:149|143:231|143:231,1,150,2|0,0:0|1:0,0:0:0:0:
83,278,62516,2,0,B|31:230|54:175|54:175|96:155,1,150,10|0,0:2|1:0,0:0:0:0:
123,77,63055,2,0,B|160:99|203:94|203:94,1,75,2|8,1:2|0:0,0:0:0:0:
272,57,63414,1,0,0:0:0:0:
351,17,63593,1,0,1:0:0:0:
427,46,63773,1,2,1:2:0:0:
467,124,63953,2,0,B|481:167|456:203|456:203,1,75,8|0,0:0|0:0,0:0:0:0:
493,289,64312,6,0,B|419:347|342:305|342:305,1,150,2|8,1:2|0:0,0:0:0:0:
275,377,64851,2,0,B|245:328|258:281|258:281,1,75,2|0,0:2|1:0,0:0:0:0:
255,219,65210,1,0,1:0:0:0:
166,233,65390,2,0,B|123:215|55:230|55:230|8:205,1,150,10|0,0:2|1:0,0:0:0:0:
58,120,65929,2,0,B|120:56|208:92|208:92,1,150,2|0,1:2|0:0,0:0:0:0:
255,160,66468,1,2,1:2:0:0:
266,239,66647,1,0,1:0:0:0:
314,306,66827,1,8,0:0:0:0:
395,325,67007,1,0,0:0:0:0:
474,319,67186,6,0,B|539:234|487:164|487:164,1,150,4|8,1:2|0:0,0:0:0:0:
409,189,67725,2,0,B|363:223|301:208|301:208|275:165,1,150,2|0,0:0|1:0,0:0:0:0:
226,110,68264,1,8,0:0:0:0:
282,41,68444,2,0,B|311:20|363:27|363:27,1,75,2|0,0:0|1:0,0:0:0:0:
438,50,68803,2,0,B|482:57|501:95,1,75,0|8,1:0|0:0,0:0:0:0:
492,179,69162,2,0,B|456:249|502:333|502:333,1,150,2|0,0:0|1:0,0:0:0:0:
399,384,69701,5,10,0:0:0:0:
399,384,70061,2,0,B|429:306|369:229|369:229,1,150,2|8,1:2|0:0,0:0:0:0:
318,178,70599,1,0,0:0:0:0:
280,104,70779,2,0,B|254:43|271:22|271:22,1,75,2|0,1:2|1:0,0:0:0:0:
175,10,71138,5,8,0:0:0:0:
178,93,71318,1,0,0:0:0:0:
109,152,71498,2,0,B|34:160|-3:112|-3:112,2,112.5,2|2|0,1:2|0:2|1:0,0:0:0:0:
124,243,72216,2,0,B|156:267|210:253|210:253,1,75,2|0,1:1|0:0,0:0:0:0:
196,255,72486,1,10,0:1:0:0:
196,255,72575,2,0,L|187:308,3,37.5,8|8|10|8,0:0|0:0|0:1|0:0,0:0:0:0:
204,324,72935,6,0,B|248:356|309:338|309:338|330:291,1,150,4|8,1:0|0:0,0:0:0:0:
421,305,73474,2,0,B|400:229|400:229,1,75,2|0,0:0|1:0,0:0:0:0:
385,141,73833,1,0,1:0:0:0:
300,168,74013,2,0,B|242:216|144:191,1,150,10|0,0:2|1:0,0:0:0:0:
69,217,74552,1,0,1:2:0:0:
48,129,74731,2,0,P|33:46|33:46,1,75,10|0,0:0|0:0,0:0:0:0:
117,0,75090,2,0,L|137:104,1,75,0|0,1:0|1:2,0:0:0:0:
228,120,75450,2,0,L|210:29,1,75,10|0,0:0|0:0,0:0:0:0:
319,67,75809,6,0,B|374:100|434:76|434:76,1,112.5,2|2,1:2|0:0,0:0:0:0:
438,73,76168,2,0,L|460:146,1,75,8|2,0:0|0:2,0:0:0:0:
512,217,76528,1,0,1:0:0:0:
505,317,76707,2,0,B|459:327|429:304|429:304,1,75,8|0,0:0|0:0,0:0:0:0:
352,352,77067,5,8,0:0:0:0:
275,348,77246,2,0,L|183:332,1,75,2|0,1:2|1:0,0:0:0:0:
201,335,77516,1,2,0:2:0:0:
201,335,77605,2,0,L|181:254,1,75,8|2,0:0|0:0,0:0:0:0:
160,169,77965,2,0,L|249:195,1,75,0|0,1:0|1:0,0:0:0:0:
297,267,78324,5,8,0:0:0:0:
402,254,78504,1,8,0:0:0:0:
402,254,78593,1,8,0:0:0:0:
402,254,78683,2,0,B|436:195|420:146|420:146|385:126,2,150,4|8|0,1:0|0:0|1:0,0:0:0:0:
332,312,79581,1,0,1:0:0:0:
255,258,79761,2,0,B|220:307|237:366|237:366|272:386,2,150,10|0|8,0:0|1:0|0:0,0:0:0:0:
230,173,80659,1,0,0:0:0:0:
154,131,80839,2,0,B|104:125|72:149|72:149,1,75,2|0,1:2|1:0,0:0:0:0:
6,67,81198,2,0,B|46:69|90:48|90:48,1,75,8|8,0:0|0:0,0:0:0:0:
79,52,81468,5,8,0:0:0:0:
79,52,81558,2,0,B|159:16|222:88|222:88,1,134.999995880127,4|0,1:2|1:0,0:0:0:0:
262,137,82096,1,0,1:0:0:0:
341,110,82276,2,0,B|426:83|481:143|481:143,1,134.999995880127,12|0,0:0|0:0,0:0:0:0:
501,213,82815,1,8,0:0:0:0:
507,298,82995,2,0,B|460:301|433:271|433:271,1,67.4999979400635,2|0,1:2|1:0,0:0:0:0:
378,334,83354,2,0,B|354:293|356:265|356:265,1,67.4999979400635,8|0,0:0|1:0,0:0:0:0:
363,277,83623,1,8,0:0:0:0:
363,277,83713,2,0,B|360:222|381:194|381:194,1,67.4999979400635,4|0,1:2|1:0,0:0:0:0:
407,132,84073,2,0,B|417:110|414:88|414:88,3,33.7499989700318,8|8|8|8,0:0|0:0|0:0|0:0,0:0:0:0:
405,79,84432,6,0,B|368:72|334:96|334:96,1,67.4999979400635,4|0,1:2|1:0,0:0:0:0:
278,150,84791,1,0,0:0:0:0:
216,203,84971,2,0,B|172:225|130:217|130:217|88:258,1,134.999995880127,10|8,0:0|0:0,0:0:0:0:
36,307,85510,1,0,1:0:0:0:
77,379,85689,2,0,L|155:360,1,67.4999979400635,2|0,0:0|1:0,0:0:0:0:
206,304,86049,2,0,L|275:286,1,67.4999979400635,8|0,0:0|0:0,0:0:0:0:
353,351,86408,6,0,B|397:273|348:206|348:206,1,134.999995880127,10|0,0:2|1:0,0:0:0:0:
324,138,86947,1,8,0:0:0:0:
247,103,87126,1,2,0:0:0:0:
167,122,87306,1,4,1:2:0:0:
