osu file format v14

[General]
AudioFilename: thisisanmp3.mp3
AudioLeadIn: 0
PreviewTime: 194798
Countdown: 0
SampleSet: Soft
StackLeniency: 0.3
Mode: 0
LetterboxInBreaks: 0
WidescreenStoryboard: 1

[Editor]
Bookmarks: 15652,27804,39956,53627,77931,90083,102615,114387,128058,152361,162994,176665,194893,205526,207045,217678
DistanceSpacing: 1
BeatDivisor: 4
GridSize: 4
TimelineZoom: 1.4

[Metadata]
Title:Hoshiboshi no Wataridori
TitleUnicode:星々の渡り鳥
Artist:yanaginagi
ArtistUnicode:やなぎなぎ
Creator:Natsu
Version:Normal
Source:AMNESIA
Tags:アムネシア
BeatmapID:1048163
BeatmapSetID:482502

[Difficulty]
HPDrainRate:4
CircleSize:3.5
OverallDifficulty:4
ApproachRate:5
SliderMultiplier:1.2
SliderTickRate:1

[Events]
//Background and Video events
0,0,"j3X9a0A.png",0,0
//Break Periods
2,80220,88564
2,154459,161794
2,195093,204326
//Storyboard Layer 0 (Background)
//Storyboard Layer 1 (Fail)
//Storyboard Layer 2 (Pass)
//Storyboard Layer 3 (Foreground)
//Storyboard Sound Samples

[TimingPoints]
15653,379.746835443038,4,2,1,20,1,0
15653,-100,4,2,1,20,0,0
16032,-100,4,2,1,10,0,0
17171,-100,4,2,1,20,0,0
17361,-100,4,2,1,10,0,0
20209,-100,4,2,1,20,0,0
20399,-100,4,2,1,10,0,0
21728,-100,4,2,1,20,0,0
22108,-100,4,2,1,10,0,0
23247,-100,4,2,1,20,0,0
23437,-100,4,2,1,10,0,0
24766,-100,4,2,1,5,0,0
25146,-100,4,2,1,10,0,0
26285,-100,4,2,1,20,0,0
26380,-100,4,2,1,5,0,0
27804,-100,4,2,1,20,0,0
28184,-100,4,2,1,15,0,0
29323,-100,4,2,1,20,0,0
29513,-100,4,2,1,15,0,0
30083,-100,4,2,1,10,0,0
30273,-100,4,2,1,15,0,0
32361,-100,4,2,1,20,0,0
37298,-100,4,2,1,5,0,0
37488,-100,4,2,1,20,0,0
38058,-100,4,2,1,5,0,0
38247,-100,4,2,1,20,0,0
38817,-100,4,2,1,5,0,0
39007,-100,4,2,1,20,0,0
39956,-100,4,2,1,30,0,0
46032,-100,4,2,1,40,0,0
50589,-100,4,2,1,50,0,0
52108,-100,4,2,1,30,0,0
53627,-100,4,2,1,50,0,1
65684,-100,4,2,1,50,0,0
65779,-100,4,2,1,50,0,1
76412,-100,4,2,1,50,0,0
90083,-100,4,2,1,40,0,0
90463,-100,4,2,1,30,0,0
101665,-100,4,2,1,30,0,0
114387,-100,4,2,1,40,0,0
120463,-100,4,2,1,45,0,0
128058,-100,4,2,1,50,0,1
140115,-100,4,2,1,50,0,0
140209,-100,4,2,1,50,0,1
150842,-100,4,2,1,50,0,0
152456,-100,4,2,1,20,0,0
162994,-100,4,2,1,50,0,0
191855,-100,4,2,1,40,0,0
193374,-100,4,2,1,30,0,0
194893,-100,4,2,1,50,0,0
207045,-100,4,2,1,50,0,1
217678,-100,4,2,1,50,0,0
218437,-100,4,2,1,45,0,0
219197,-100,4,2,1,60,0,0
226792,-100,4,2,1,30,0,0
226982,-100,4,2,1,60,0,0
228880,428.571428571429,4,2,1,60,1,0
229539,500,4,2,1,60,1,0
229664,-100,4,2,1,20,0,0
235914,-100,4,2,1,5,0,0

[Colours]
Combo1 : 71,126,254
Combo2 : 255,170,255
Combo3 : 137,172,254
Combo4 : 255,102,255

[HitObjects]
25,25,15652,5,4,1:0:0:0:
114,105,16032,2,0,L|114:180,2,60,0|0|0,0:0|0:0|0:0,0:0:0:0:
228,69,16792,2,0,P|256:76|285:70,1,60,0|0,0:0|0:0,0:0:0:0:
339,42,17171,2,0,P|368:35|396:43,1,60,4|0,1:0|0:0,0:0:0:0:
469,139,17741,1,0,0:0:0:0:
403,239,18121,2,0,P|374:246|345:240,1,60,0|0,0:0|0:0,0:0:0:0:
292,212,18500,2,0,P|262:205|234:213,1,60,0|4,0:0|1:0,0:0:0:0:
172,316,19070,6,0,L|104:316,1,60,0|0,0:0|0:0,0:0:0:0:
51,316,19450,2,0,P|57:344|53:374,2,60,0|0|0,0:0|0:0|0:0,0:0:0:0:
8,203,20209,2,0,P|1:174|5:144,1,60,4|0,1:0|0:0,0:0:0:0:
100,70,20779,2,0,B|187:105|187:37|274:67,1,180,0|2,0:0|1:0,0:0:0:0:
358,153,21728,5,4,1:0:0:0:
464,98,22108,2,0,P|482:154|462:209,1,120,0|0,0:0|0:0,0:0:0:0:
415,243,22678,1,0,0:0:0:0:
415,243,22868,1,0,0:0:0:0:
304,192,23247,2,0,P|275:186|246:193,1,60,4|0,1:0|0:0,0:0:0:0:
137,243,23817,2,0,L|137:317,1,60,0|2,0:0|1:0,0:0:0:0:
141,363,24197,2,0,P|195:343|263:365,1,120,0|0,0:0|0:0,0:0:0:0:
311,372,24766,5,4,1:0:0:0:
381,275,25146,2,0,P|387:245|379:216,1,60,0|0,0:0|0:0,0:0:0:0:
309,119,25716,1,0,0:0:0:0:
256,226,26096,1,0,0:0:0:0:
256,226,26285,2,0,P|196:248|140:227,1,120,4|0,1:0|0:0,0:0:0:0:
71,148,27045,1,2,1:0:0:0:
71,148,27235,1,2,1:0:0:0:
71,148,27425,1,2,1:0:0:0:
149,57,27804,5,4,1:0:0:0:
247,126,28184,2,0,P|304:141|358:119,1,120,0|0,0:0|0:0,0:0:0:0:
464,61,28944,2,0,L|482:129,1,60,0|0,0:0|0:0,0:0:0:0:
432,155,29323,2,0,L|450:223,1,60,4|0,1:0|0:0,0:0:0:0:
482,334,29893,1,0,0:0:0:0:
482,334,30083,2,0,P|415:320|366:351,1,120,2|0,1:0|0:0,0:0:0:0:
320,373,30652,2,0,L|299:308,1,60,0|0,0:0|0:0,0:0:0:0:
266,200,31222,6,0,P|238:207|208:203,1,60,0|0,0:0|0:0,0:0:0:0:
151,184,31602,1,0,0:0:0:0:
64,100,31982,2,0,L|53:38,1,60,0|0,0:0|0:0,0:0:0:0:
110,21,32361,2,0,P|139:26|168:20,1,60,4|2,1:0|1:0,0:0:0:0:
288,18,32931,1,2,1:0:0:0:
200,100,33311,1,0,0:0:0:0:
319,95,33690,2,0,L|380:95,1,60,0|4,0:0|1:0,0:0:0:0:
459,184,34260,6,0,P|439:239|462:293,1,120,0|0,0:0|0:0,0:0:0:0:
361,359,35020,1,0,0:0:0:0:
249,315,35399,2,0,B|210:298|210:298|130:299,2,120,4|2|2,1:0|1:0|1:0,0:0:0:0:
417,251,36728,5,0,0:0:0:0:
417,251,36918,2,0,P|436:195|414:141,1,120,2|0,1:0|0:0,0:0:0:0:
366,114,37488,1,0,0:0:0:0:
366,114,37678,2,0,L|241:113,1,120,2|0,1:0|0:0,0:0:0:0:
191,136,38247,1,0,0:0:0:0:
191,136,38437,2,0,P|172:192|194:246,1,120,2|0,1:0|0:0,0:0:0:0:
254,275,39007,1,2,1:0:0:0:
254,275,39197,2,0,L|379:276,1,120,2|0,1:0|0:0,0:0:0:0:
484,322,39956,6,0,P|498:273|474:208,1,120,4|0,0:0|0:0,0:0:0:0:
427,183,40526,1,0,0:0:0:0:
427,183,40716,2,0,L|301:183,1,120,2|2,1:0|1:0,0:0:0:0:
228,92,41475,2,0,L|165:92,1,60,4|2,0:0|1:0,0:0:0:0:
51,123,42045,2,0,B|80:203|13:203|50:297,1,180,2|0,1:0|0:0,0:0:0:0:
149,364,42994,5,4,0:0:0:0:
318,302,43564,1,0,0:0:0:0:
318,302,43754,2,0,P|385:283|433:302,1,120,2|2,1:0|1:0,0:0:0:0:
488,325,44323,1,0,0:0:0:0:
488,325,44513,2,0,L|505:253,1,60,4|0,0:0|0:0,0:0:0:0:
461,160,45083,1,2,1:0:0:0:
461,160,45273,2,0,L|482:60,2,90,2|2|2,1:0|1:0|1:0,0:0:0:0:
418,202,46032,6,0,P|363:223|307:203,1,120,4|8,0:0|3:0,0:0:0:0:
209,133,46792,2,0,L|147:133,1,60,10|0,3:0|0:0,0:0:0:0:
99,167,47171,2,0,P|106:201|96:233,1,60,8|0,3:0|0:0,0:0:0:0:
62,272,47551,1,4,0:0:0:0:
164,333,47931,2,0,L|232:332,2,60,8|2|2,3:0|1:0|1:0,0:0:0:0:
113,365,48501,1,0,0:0:0:0:
113,365,48690,1,8,3:0:0:0:
24,283,49070,6,0,P|10:225|28:168,1,120,4|8,0:0|3:0,0:0:0:0:
125,96,49830,1,10,3:0:0:0:
218,170,50209,2,0,L|283:170,1,60,8|2,3:0|1:0,0:0:0:0:
338,173,50589,2,0,P|320:229|346:293,1,120,4|8,0:0|3:0,0:0:0:0:
422,372,51349,2,0,L|498:372,1,60,8|8,3:0|3:0,0:0:0:0:
475,312,51728,2,0,P|468:286|475:248,1,60,8|8,3:0|3:0,0:0:0:0:
490,196,52108,6,0,P|501:138|479:77,1,120,8|8,3:0|3:0,0:0:0:0:
364,57,52868,2,0,L|294:57,1,60,8|8,3:0|3:0,0:0:0:0:
287,114,53247,2,0,L|217:114,1,60,8|8,3:0|3:0,0:0:0:0:
166,115,53627,6,0,P|176:172|148:238,2,120,6|12|2,0:0|0:0|0:0,0:0:0:0:
82,29,54766,1,8,0:0:0:0:
82,29,54956,2,0,L|9:27,1,60,0|6,0:0|0:0,0:0:0:0:
18,147,55526,1,8,0:0:0:0:
91,241,55906,2,0,P|97:270|90:299,1,60,2|0,0:0|0:0,0:0:0:0:
51,345,56285,1,8,0:0:0:0:
168,369,56665,6,0,L|307:368,1,120,6|8,0:0|0:0,0:0:0:0:
331,326,57235,1,0,0:0:0:0:
331,326,57425,2,0,P|312:268|328:208,1,120,2|8,0:0|0:0,0:0:0:0:
372,174,57994,1,0,0:0:0:0:
372,174,58184,1,6,0:0:0:0:
478,117,58564,1,8,0:0:0:0:
374,55,58944,1,2,0:0:0:0:
372,174,59323,2,0,L|372:248,1,60,8|8,0:0|1:0,0:0:0:0:
369,294,59703,6,0,P|308:278|253:297,1,120,6|8,0:0|0:0,0:0:0:0:
206,331,60273,1,0,0:0:0:0:
206,331,60463,2,0,L|174:199,1,120,6|8,0:0|0:0,0:0:0:0:
163,161,61032,1,0,0:0:0:0:
163,161,61222,2,0,P|224:177|279:158,1,120,6|8,0:0|0:0,0:0:0:0:
331,134,61792,1,0,0:0:0:0:
331,134,61982,2,0,L|359:250,1,120,6|8,0:0|0:0,0:0:0:0:
388,366,62741,6,0,P|327:350|272:369,1,120,6|8,0:0|0:0,0:0:0:0:
214,370,63311,1,0,0:0:0:0:
214,370,63501,2,0,L|171:244,1,120,6|8,0:0|0:0,0:0:0:0:
139,153,64260,1,6,0:0:0:0:
139,153,64450,1,0,0:0:0:0:
139,153,64640,2,0,P|108:161|74:153,2,60,2|8|12,0:0|3:0|0:0,0:0:0:0:
230,75,65399,2,0,L|304:75,1,60,8|8,3:0|3:0,0:0:0:0:
331,118,65779,6,0,P|314:174|340:227,2,120,6|12|2,0:0|0:0|0:0,0:0:0:0:
426,44,66918,1,8,0:0:0:0:
426,44,67108,2,0,L|501:44,1,60,0|6,0:0|0:0,0:0:0:0:
483,164,67678,1,8,0:0:0:0:
384,232,68058,1,2,0:0:0:0:
491,285,68437,1,8,0:0:0:0:
483,164,68817,6,0,P|463:106|487:44,1,120,6|8,0:0|0:0,0:0:0:0:
361,34,69577,2,0,L|235:34,1,120,2|8,0:0|0:0,0:0:0:0:
184,38,70146,1,0,0:0:0:0:
184,38,70336,2,0,P|204:96|180:158,1,120,6|8,0:0|0:0,0:0:0:0:
146,195,70906,1,0,0:0:0:0:
146,195,71096,2,0,L|268:195,1,120,2|0,0:0|0:0,0:0:0:0:
370,135,71855,6,0,P|389:190|375:248,1,120,6|8,0:0|0:0,0:0:0:0:
335,292,72425,1,0,0:0:0:0:
335,292,72615,2,0,L|210:292,1,120,8|8,0:0|3:0,0:0:0:0:
102,254,73374,1,6,0:0:0:0:
102,134,73754,1,8,0:0:0:0:
215,97,74134,1,2,0:0:0:0:
286,194,74513,1,8,0:0:0:0:
215,292,74893,6,0,P|160:314|99:296,1,120,8|8,3:0|3:0,0:0:0:0:
71,248,75463,2,0,L|57:183,1,60,8|8,3:0|3:0,0:0:0:0:
97,144,75842,2,0,L|83:79,2,60,8|8|8,3:0|3:0|3:0,0:0:0:0:
154,161,76411,1,6,0:0:0:0:
370,56,77171,6,0,B|381:103|381:103|365:183|365:183|380:230,1,180,2|2,1:0|1:0,0:0:0:0:
404,285,77931,1,6,0:0:0:0:
256,192,78026,12,6,80020,0:0:0:0:
22,32,90083,5,6,0:0:0:0:
130,83,90463,1,8,3:0:0:0:
34,155,90842,2,0,P|27:183|31:213,1,60,8|0,3:0|0:0,0:0:0:0:
69,260,91222,1,8,3:0:0:0:
175,205,91602,2,0,P|230:184|287:198,1,120,12|8,3:0|3:0,0:0:0:0:
328,242,92172,1,0,0:0:0:0:
420,165,92552,2,0,L|420:105,1,60,0|8,0:0|3:0,0:0:0:0:
384,55,92932,2,0,P|357:61|320:56,1,60,0|8,0:0|3:0,0:0:0:0:
211,18,93501,5,8,3:0:0:0:
141,116,93880,2,0,P|134:144|140:174,1,60,8|0,3:0|0:0,0:0:0:0:
182,217,94260,2,0,P|187:246|180:275,1,60,8|0,3:0|0:0,0:0:0:0:
149,326,94640,2,0,L|13:326,1,120,12|8,3:0|3:0,0:0:0:0:
15,267,95209,2,0,B|66:181|-4:181|30:90,1,180,0|8,0:0|3:0,0:0:0:0:
130,28,96159,5,6,0:0:0:0:
230,93,96539,2,0,P|258:100|287:92,2,60,8|0|8,3:0|0:0|3:0,0:0:0:0:
171,107,97108,2,0,L|172:178,1,60,0|8,0:0|3:0,0:0:0:0:
178,287,97678,2,0,P|236:306|292:284,1,120,12|8,3:0|3:0,0:0:0:0:
333,245,98248,2,0,L|395:245,1,60,0|8,0:0|3:0,0:0:0:0:
438,204,98627,2,0,P|442:175|431:147,1,60,0|8,0:0|3:0,0:0:0:0:
365,47,99197,5,8,3:0:0:0:
255,95,99577,2,0,P|200:118|139:98,1,120,0|8,0:0|3:0,0:0:0:0:
107,61,100147,1,0,0:0:0:0:
107,61,100336,2,0,L|46:61,1,60,12|0,3:0|0:0,0:0:0:0:
25,117,100716,2,0,P|45:172|30:229,1,120,12|2,3:0|0:0,0:0:0:0:
10,347,101475,1,8,0:0:0:0:
10,347,101665,2,0,L|149:347,1,120,8|8,3:0|3:0,0:0:0:0:
190,348,102235,5,6,0:0:0:0:
296,290,102615,2,0,P|314:234|296:178,1,120,8|0,0:0|0:0,0:0:0:0:
210,94,103375,2,0,L|151:94,1,60,8|0,0:0|3:0,0:0:0:0:
90,98,103754,2,0,P|111:152|90:208,1,120,0|8,3:0|0:0,0:0:0:0:
59,259,104324,1,2,1:0:0:0:
59,259,104513,2,0,L|188:258,1,120,0|8,0:0|0:0,0:0:0:0:
239,263,105083,2,0,P|249:298|237:332,1,60,2|8,1:0|3:0,0:0:0:0:
357,362,105653,6,0,L|422:362,1,60,8|8,0:0|3:0,0:0:0:0:
452,313,106032,2,0,L|514:313,2,60,8|8|8,3:0|3:0|0:0,0:0:0:0:
362,232,106792,2,0,P|343:178|367:119,1,120,8|0,3:0|0:0,0:0:0:0:
415,87,107362,1,8,3:0:0:0:
308,31,107741,2,0,L|248:31,1,60,4|8,0:0|0:0,0:0:0:0:
243,91,108121,2,0,L|183:91,1,60,2|4,3:0|0:0,0:0:0:0:
82,25,108690,5,8,0:0:0:0:
73,144,109070,1,0,0:0:0:0:
183,91,109451,1,8,0:0:0:0:
174,210,109830,2,0,B|174:296|174:296|211:327,2,120,2|8|0,1:0|0:0|0:0,0:0:0:0:
191,99,110969,1,8,0:0:0:0:
191,99,111159,5,0,0:0:0:0:
191,99,111349,2,0,P|251:117|316:93,1,120,6|8,0:0|0:0,0:0:0:0:
356,70,111919,1,0,0:0:0:0:
356,70,112109,2,0,L|356:200,1,120,6|8,0:0|0:0,0:0:0:0:
358,254,112678,1,0,0:0:0:0:
358,254,112868,2,0,P|298:236|233:260,1,120,6|8,0:0|0:0,0:0:0:0:
191,279,113438,1,8,3:0:0:0:
191,279,113628,2,0,L|191:149,1,120,8|8,3:0|1:0,0:0:0:0:
257,59,114387,6,0,P|317:79|372:57,1,120,6|0,0:0|0:0,0:0:0:0:
425,40,114957,1,2,1:0:0:0:
425,40,115147,2,0,L|450:158,1,120,0|0,0:0|0:0,0:0:0:0:
478,273,115906,2,0,P|448:267|418:275,1,60,6|0,0:0|0:0,0:0:0:0:
310,323,116475,2,0,B|246:358|246:358|213:314|150:327,1,180,2|0,1:0|0:0,0:0:0:0:
36,366,117425,1,6,0:0:0:0:
113,203,117995,5,2,1:0:0:0:
113,203,118185,2,0,P|131:146|109:89,1,120,0|0,0:0|0:0,0:0:0:0:
159,55,118754,1,8,0:0:0:0:
159,55,118944,2,0,L|231:55,1,60,6|0,0:0|0:0,0:0:0:0:
321,131,119514,1,2,1:0:0:0:
321,131,119704,2,0,P|305:170|329:222,2,90,8|0|0,3:0|0:0|0:0,0:0:0:0:
363,88,120463,6,0,L|494:88,1,120,6|8,0:0|3:0,0:0:0:0:
480,208,121222,2,0,P|472:237|478:267,1,60,8|0,3:0|0:0,0:0:0:0:
451,320,121602,2,0,L|383:320,1,60,8|2,3:0|1:0,0:0:0:0:
330,317,121982,1,6,0:0:0:0:
371,204,122362,2,0,P|374:171|361:138,2,60,8|2|0,1:0|1:0|0:0,0:0:0:0:
320,236,122932,1,0,0:0:0:0:
320,236,123121,1,8,0:0:0:0:
212,182,123501,5,4,0:0:0:0:
219,301,123880,1,8,0:0:0:0:
320,236,124260,2,0,P|350:229|387:237,1,60,8|8,3:0|1:0,0:0:0:0:
428,267,124640,2,0,P|458:274|495:266,1,60,8|8,1:0|1:0,0:0:0:0:
511,214,125020,2,0,L|511:76,1,120,4|8,0:0|3:0,0:0:0:0:
390,89,125780,2,0,P|361:97|332:92,1,60,8|8,3:0|0:0,0:0:0:0:
284,55,126159,2,0,P|254:49|226:57,1,60,8|8,0:0|0:0,0:0:0:0:
177,93,126539,6,0,L|177:222,1,120,6|8,0:0|3:0,0:0:0:0:
201,330,127299,2,0,P|173:338|144:329,1,60,0|0,0:0|0:0,0:0:0:0:
98,291,127678,2,0,P|69:282|40:290,1,60,8|8,3:0|3:0,0:0:0:0:
19,234,128058,6,0,L|8:103,2,120,6|12|2,0:0|0:0|0:0,0:0:0:0:
131,192,129197,1,8,0:0:0:0:
131,192,129387,2,0,P|159:183|189:187,1,60,0|6,0:0|0:0,0:0:0:0:
256,286,129956,1,8,0:0:0:0:
322,187,130336,2,0,P|352:183|381:192,1,60,2|0,0:0|0:0,0:0:0:0:
430,226,130716,1,8,0:0:0:0:
505,132,131096,6,0,L|512:9,1,120,6|8,0:0|0:0,0:0:0:0:
457,37,131666,1,0,0:0:0:0:
457,37,131856,2,0,P|403:60|343:30,1,120,2|8,0:0|0:0,0:0:0:0:
294,15,132425,1,0,0:0:0:0:
294,15,132615,1,6,0:0:0:0:
190,75,132995,1,8,0:0:0:0:
294,134,133375,1,2,0:0:0:0:
189,194,133754,1,8,0:0:0:0:
294,253,134134,6,0,P|350:274|412:246,1,120,6|8,0:0|0:0,0:0:0:0:
446,211,134704,1,0,0:0:0:0:
446,211,134893,2,0,P|425:155|453:93,1,120,6|8,0:0|0:0,0:0:0:0:
485,55,135463,1,0,0:0:0:0:
485,55,135653,2,0,L|351:56,1,120,6|8,0:0|0:0,0:0:0:0:
308,62,136222,1,8,3:0:0:0:
308,62,136412,2,0,P|329:118|300:185,1,120,8|8,3:0|0:0,0:0:0:0:
206,236,137172,6,0,L|81:236,1,120,6|8,0:0|0:0,0:0:0:0:
29,238,137741,1,0,0:0:0:0:
29,238,137931,2,0,P|50:294|22:356,1,120,6|8,0:0|0:0,0:0:0:0:
148,370,138691,1,6,0:0:0:0:
148,370,138881,1,0,0:0:0:0:
148,370,139070,2,0,L|207:371,2,60,2|8|12,0:0|3:0|0:0,0:0:0:0:
211,267,139830,2,0,L|270:268,1,60,8|8,3:0|3:0,0:0:0:0:
321,235,140210,6,0,P|300:181|320:126,2,120,6|12|2,0:0|0:0|0:0,0:0:0:0:
395,330,141349,1,8,0:0:0:0:
395,330,141539,2,0,L|476:327,1,60,0|6,0:0|0:0,0:0:0:0:
507,219,142109,1,8,0:0:0:0:
390,191,142489,1,2,0:0:0:0:
472,104,142868,1,8,0:0:0:0:
507,219,143248,6,0,P|516:282|500:338,1,120,6|8,0:0|0:0,0:0:0:0:
383,362,144008,2,0,L|252:360,1,120,2|8,0:0|0:0,0:0:0:0:
214,336,144577,1,0,0:0:0:0:
214,336,144767,2,0,P|235:268|212:222,1,120,6|8,0:0|0:0,0:0:0:0:
169,187,145337,1,0,0:0:0:0:
169,187,145526,2,0,L|33:188,1,120,2|0,0:0|0:0,0:0:0:0:
104,81,146285,6,0,L|240:80,1,120,6|8,0:0|0:0,0:0:0:0:
285,110,146856,1,0,0:0:0:0:
285,110,147046,2,0,P|267:160|292:222,1,120,8|8,0:0|3:0,0:0:0:0:
396,277,147805,1,6,0:0:0:0:
295,342,148185,1,8,0:0:0:0:
290,220,148565,1,2,0:0:0:0:
396,277,148944,1,8,0:0:0:0:
295,342,149324,6,0,P|243:359|177:341,1,120,8|0,3:0|0:0,0:0:0:0:
146,294,149894,2,0,L|126:234,1,60,8|0,3:0|0:0,0:0:0:0:
102,182,150273,2,0,P|74:191|34:179,2,60,8|8|8,3:0|3:0|3:0,0:0:0:0:
155,153,150842,1,6,0:0:0:0:
385,85,151602,6,0,P|408:169|372:250,1,180,2|2,1:0|1:0,0:0:0:0:
318,276,152362,1,6,0:0:0:0:
256,192,152456,12,0,154259,0:0:0:0:
497,365,162994,5,6,0:0:0:0:
402,290,163374,2,0,P|394:262|401:230,1,60,8|8,3:0|3:0,0:0:0:0:
442,189,163754,2,0,P|448:159|440:131,1,60,8|8,3:0|3:0,0:0:0:0:
392,93,164134,2,0,P|383:64|390:35,1,60,8|8,3:0|3:0,0:0:0:0:
328,28,164513,6,0,L|200:28,1,120,6|12,0:0|0:0,0:0:0:0:
113,102,165273,2,0,P|121:130|117:159,1,60,2|8,0:0|3:0,0:0:0:0:
88,215,165653,1,8,0:0:0:0:
88,215,165842,2,0,P|102:295|164:256,1,180,6|8,0:0|0:0,0:0:0:0:
260,187,166792,1,0,0:0:0:0:
260,187,166982,2,0,L|324:177,1,60,2|8,0:0|0:0,0:0:0:0:
377,170,167361,6,0,P|372:228|413:273,1,120,6|0,0:0|0:0,0:0:0:0:
465,297,167931,1,8,0:0:0:0:
375,377,168311,1,8,3:0:0:0:
296,286,168690,1,8,0:0:0:0:
387,206,169070,2,0,P|407:151|387:96,1,120,6|8,0:0|0:0,0:0:0:0:
337,62,169640,2,0,L|212:62,1,120,2|0,0:0|0:0,0:0:0:0:
156,62,170209,1,8,0:0:0:0:
76,151,170589,6,0,P|99:205|81:261,1,120,6|8,0:0|0:0,0:0:0:0:
159,361,171349,1,2,0:0:0:0:
159,361,171539,2,0,L|222:361,1,60,0|8,0:0|0:0,0:0:0:0:
272,332,171918,2,0,B|320:248|244:248|271:159,1,180,6|8,0:0|0:0,0:0:0:0:
312,116,172678,1,6,0:0:0:0:
408,44,173058,2,0,L|476:44,1,60,0|8,0:0|0:0,0:0:0:0:
501,94,173437,6,0,P|478:148|498:203,1,120,6|0,0:0|0:0,0:0:0:0:
505,263,174007,1,8,0:0:0:0:
417,345,174387,2,0,L|350:345,1,60,2|0,0:0|0:0,0:0:0:0:
315,301,174766,1,8,0:0:0:0:
209,358,175146,2,0,P|189:302|205:244,1,120,6|8,0:0|0:0,0:0:0:0:
296,166,175906,2,0,P|303:137|296:108,1,60,8|8,3:0|3:0,0:0:0:0:
323,54,176285,2,0,L|384:42,1,60,8|8,3:0|3:0,0:0:0:0:
441,31,176665,5,6,0:0:0:0:
509,129,177045,1,12,0:0:0:0:
430,219,177425,2,0,P|425:255|431:284,2,60,2|2|8,0:0|0:0|0:0,0:0:0:0:
375,192,177994,2,0,L|237:192,1,120,6|0,0:0|0:0,0:0:0:0:
214,146,178564,1,8,0:0:0:0:
135,237,178944,2,0,P|127:265|132:295,2,60,2|2|8,0:0|0:0|0:0,0:0:0:0:
118,179,179513,6,0,B|29:180|29:180|10:142,1,120,6|0,0:0|0:0,0:0:0:0:
1,93,180083,2,0,P|-4:66|4:33,2,60,8|0|2,0:0|0:0|0:0,0:0:0:0:
119,73,180842,1,8,0:0:0:0:
119,73,181032,1,6,0:0:0:0:
180,176,181412,1,2,0:0:0:0:
237,69,181792,2,0,P|266:64|295:68,1,60,2|8,0:0|3:0,0:0:0:0:
344,102,182171,2,0,P|373:106|402:100,1,60,8|8,1:0|1:0,0:0:0:0:
498,27,182741,5,6,0:0:0:0:
475,145,183121,1,8,0:0:0:0:
372,209,183501,2,0,P|344:216|314:212,1,60,0|2,0:0|0:0,0:0:0:0:
262,182,183880,2,0,P|232:177|203:185,1,60,8|0,0:0|0:0,0:0:0:0:
160,227,184260,2,0,P|105:249|49:232,1,120,6|8,0:0|0:0,0:0:0:0:
18,115,185020,2,0,L|13:46,1,60,2|0,0:0|0:0,0:0:0:0:
72,44,185399,2,0,P|101:47|130:38,1,60,8|0,0:0|0:0,0:0:0:0:
188,23,185779,5,6,0:0:0:0:
256,121,186159,1,10,0:0:0:0:
310,13,186539,1,10,0:0:0:0:
188,23,186918,1,10,0:0:0:0:
134,131,187298,5,6,0:0:0:0:
202,229,187678,1,10,0:0:0:0:
256,121,188058,1,10,0:0:0:0:
134,131,188437,1,10,0:0:0:0:
202,229,188817,6,0,P|210:261|202:291,1,60,4|8,0:0|0:0,0:0:0:0:
231,340,189197,2,0,L|301:340,1,60,8|8,0:0|0:0,0:0:0:0:
336,300,189577,2,0,L|406:300,1,60,8|8,0:0|0:0,0:0:0:0:
446,343,189956,1,8,0:0:0:0:
446,343,190146,1,12,0:0:0:0:
256,192,190241,12,2,194893,1:0:0:0:
471,364,205526,5,6,0:0:0:0:
366,305,205906,2,0,P|335:298|303:305,1,60,8|8,3:0|3:0,0:0:0:0:
255,273,206285,2,0,L|244:205,1,60,8|8,3:0|3:0,0:0:0:0:
235,154,206665,2,0,P|205:158|176:152,1,60,8|8,3:0|3:0,0:0:0:0:
120,128,207045,6,0,P|138:64|116:19,2,120,6|12|2,0:0|0:0|0:0,0:0:0:0:
38,216,208184,2,0,P|32:245|38:274,1,60,8|0,0:0|0:0,0:0:0:0:
81,317,208564,1,6,0:0:0:0:
173,239,208944,1,8,0:0:0:0:
194,356,209323,1,2,0:0:0:0:
81,317,209703,1,8,0:0:0:0:
173,239,210083,6,0,P|193:188|170:129,1,120,6|8,0:0|0:0,0:0:0:0:
62,76,210842,1,2,0:0:0:0:
67,195,211222,1,8,0:0:0:0:
170,129,211602,2,0,L|294:129,1,120,6|8,0:0|0:0,0:0:0:0:
342,169,212171,1,0,0:0:0:0:
342,169,212361,2,0,P|335:202|349:233,1,60,8|8,2:0|2:0,0:0:0:0:
383,272,212741,2,0,P|389:305|376:336,1,60,8|8,2:0|2:0,0:0:0:0:
326,356,213121,6,0,B|269:335|269:375|208:352,1,120,6|8,0:0|0:0,0:0:0:0:
105,291,213880,2,0,P|80:238|99:183,1,120,2|8,0:0|0:0,0:0:0:0:
208,130,214640,1,6,0:0:0:0:
254,240,215020,1,8,0:0:0:0:
326,144,215399,1,2,1:0:0:0:
372,254,215779,1,8,1:0:0:0:
254,240,216159,6,0,P|194:223|139:240,1,120,6|8,0:0|3:0,0:0:0:0:
92,275,216728,2,0,B|93:354|93:354|61:387,2,120,8|8|8,3:0|3:0|3:0,0:0:0:0:
46,235,217678,1,6,0:0:0:0:
233,84,218437,6,0,B|274:92|274:92|308:71|308:71|354:103|399:72,1,180,2|2,1:0|1:0,0:0:0:0:
445,111,219197,6,0,B|444:230,1,120,6|8,0:0|0:0,0:0:0:0:
443,291,219766,2,0,P|386:274|330:293,1,120,6|8,0:0|0:0,0:0:0:0:
283,332,220336,2,0,P|227:350|170:334,1,120,6|0,0:0|0:0,0:0:0:0:
95,240,221096,2,0,L|95:113,1,120,8|8,0:0|0:0,0:0:0:0:
58,80,221665,1,8,3:0:0:0:
58,80,221855,1,8,3:0:0:0:
170,38,222235,6,0,P|226:20|284:33,1,120,6|8,0:0|0:0,0:0:0:0:
312,86,222804,2,0,P|300:143|322:198,1,120,6|8,0:0|0:0,0:0:0:0:
364,241,223374,2,0,P|376:298|354:353,1,120,6|2,0:0|0:0,0:0:0:0:
296,372,223944,2,0,L|232:372,1,60,8|8,3:0|3:0,0:0:0:0:
126,323,224513,2,0,P|103:268|116:210,1,120,8|8,3:0|0:0,0:0:0:0:
234,180,225273,6,0,P|256:125|243:67,1,120,6|8,0:0|0:0,0:0:0:0:
283,22,225842,2,0,L|409:22,1,120,6|8,0:0|0:0,0:0:0:0:
463,23,226412,2,0,P|450:80|472:135,1,120,6|0,0:0|0:0,0:0:0:0:
502,251,227171,2,0,P|514:308|492:363,1,120,8|12,0:0|0:0,0:0:0:0:
372,371,227931,2,0,L|289:370,1,60,8|8,3:0|3:0,0:0:0:0:
251,368,228311,6,0,P|232:311|255:251,1,120,6|8,0:0|0:0,0:0:0:0:
284,215,228880,2,0,P|301:150|279:97,1,120,6|8,0:0|0:0,0:0:0:0:
236,81,229539,1,6,0:0:0:0:
256,192,229664,12,0,235914,0:0:0:0:
